osu file format v14

[General]
AudioFilename: FIRSTUTAU.mp3
AudioLeadIn: 0
PreviewTime: 74049
Countdown: 0
SampleSet: Soft
StackLeniency: 0.4
Mode: 0
LetterboxInBreaks: 1
EpilepsyWarning: 1
WidescreenStoryboard: 1

[Editor]
Bookmarks: 19022,39233,44286,64496,74444,94812,104917,115023,124970,145338,150391,155286,175654,179128,184496
DistanceSpacing: 0.8
BeatDivisor: 2
GridSize: 4
TimelineZoom: 1

[Metadata]
Title:FIRST
TitleUnicode:FIRST
Artist:cillia
ArtistUnicode:シリア
Creator:moph
Version:Easy
Source:
Tags:vocaloid niki utau kasane teto cover kyaami fort starforyou
BeatmapID:674277
BeatmapSetID:171388

[Difficulty]
HPDrainRate:2
CircleSize:3
OverallDifficulty:2
ApproachRate:3.5
SliderMultiplier:0.7
SliderTickRate:1

[Events]
//Background and Video events
0,0,"Background.jpg",0,0
//Break Periods
2,39433,42906
2,95012,103537
2,145538,149011
//Storyboard Layer 0 (Background)
//Storyboard Layer 1 (Fail)
//Storyboard Layer 2 (Pass)
//Storyboard Layer 3 (Foreground)
//Storyboard Sound Samples

[TimingPoints]
19023,315.789473684211,4,2,3,50,1,0
44286,-100,4,2,3,70,0,0
64496,-100,4,2,1,70,0,0
74444,-100,4,2,1,90,0,1
94812,-100,4,2,3,70,0,0
115023,-100,4,2,1,70,0,0
124970,-100,4,2,1,90,0,1
145338,-100,4,2,3,70,0,0
155286,-100,4,2,1,90,0,1
175654,-100,3,2,1,90,0,0
179207,-100,4,2,1,5,0,0

[Colours]
Combo1 : 200,6,55
Combo2 : 200,121,68
Combo3 : 209,102,71
Combo4 : 180,137,99
Combo5 : 170,115,106
Combo6 : 255,0,0

[HitObjects]
188,280,19022,6,0,P|256:304|324:280,1,140,0|0,0:0|0:0,0:0:0:0:
388,196,20286,2,0,P|322:176|257:200,1,140,0|0,0:0|0:0,0:0:0:0:
188,280,21549,6,0,P|121:298|57:274,1,140,0|0,0:0|0:0,0:0:0:0:
128,184,22812,2,0,L|176:35,1,140,0|0,0:0|0:0,0:0:0:0:
280,42,24075,6,0,L|236:175,1,140,4|0,0:0|0:0,0:0:0:0:
208,284,25338,2,0,P|152:247|121:174,2,140,0|0|0,0:0|0:0|0:0,0:0:0:0:
320,276,27233,5,0,0:0:0:0:
408,208,27865,1,0,0:0:0:0:
400,96,28496,1,0,0:0:0:0:
304,36,29128,38,0,P|292:108|324:180,1,140,4|0,0:0|0:0,0:0:0:0:
248,260,30391,2,0,L|96:260,1,140,0|0,0:0|0:0,0:0:0:0:
9,207,31654,6,0,P|57:159|129:151,1,140,0|0,0:0|0:0,0:0:0:0:
220,212,32917,2,0,P|240:152|216:80,1,140,0|0,0:0|0:0,0:0:0:0:
120,24,34180,5,4,0:0:0:0:
32,92,34812,1,0,0:0:0:0:
36,204,35444,1,0,0:0:0:0:
128,268,36075,1,0,0:0:0:0:
227,320,36707,6,0,P|239:248|187:172,1,140,0|0,0:0|0:0,0:0:0:0:
124,116,37970,2,0,L|240:32,2,140,0|0|4,0:0|0:0|0:0,0:0:0:0:
112,340,44286,38,0,P|185:334|261:247,1,140,12|0,0:0|0:0,0:0:0:0:
196,192,45549,2,0,L|344:192,1,140,0|0,0:0|0:0,0:0:0:0:
420,268,46812,5,0,0:0:0:0:
504,192,47444,1,0,0:0:0:0:
440,100,48075,2,0,P|360:64|308:100,1,140,0|0,0:0|0:0,0:0:0:0:
240,164,49338,6,0,P|176:186|119:149,1,140,4|0,0:0|0:0,0:0:0:0:
32,76,50601,2,0,B|64:160|64:160|48:236,1,140
92,316,51865,5,0,0:0:0:0:
192,268,52496,1,0,0:0:0:0:
288,324,53128,1,0,0:0:0:0:
388,272,53759,1,2,0:0:0:0:
292,212,54391,38,0,L|296:68,1,140,4|0,0:0|0:0,0:0:0:0:
196,120,55654,2,0,L|192:259,1,140,0|0,0:0|0:0,0:0:0:0:
268,340,56917,5,0,0:0:0:0:
332,248,57549,1,0,0:0:0:0:
396,340,58180,1,0,0:0:0:0:
332,248,58812,1,0,0:0:0:0:
444,232,59444,6,0,P|412:168|344:136,1,140,4|0,0:0|0:0,0:0:0:0:
240,144,60707,1,0,0:0:0:0:
284,44,61338,1,0,0:0:0:0:
176,30,61970,6,0,P|187:96|260:150,1,140
196,248,63233,2,0,P|140:208|52:212,1,140
27,104,64496,38,0,P|75:52|163:52,1,140,4|8,0:0|0:0,0:0:0:0:
248,72,65759,1,0,0:0:0:0:
191,168,66391,1,8,0:0:0:0:
115,250,67023,6,0,P|180:276|248:264,1,140,4|8,0:0|0:0,0:0:0:0:
300,164,68286,1,0,0:0:0:0:
191,168,68917,1,8,0:0:0:0:
156,60,69549,6,0,L|304:60,1,140,4|8,0:0|0:0,0:0:0:0:
402,28,70812,2,0,P|402:96|342:160,1,140,0|8,0:0|0:0,0:0:0:0:
256,184,72075,6,0,L|396:224,1,140,6|8,0:0|0:0,0:0:0:0:
496,256,73338,1,2,0:0:0:0:
308,312,74444,6,0,B|248:264|188:300|188:300|136:268,1,175,6|8,0:0|0:0,0:0:0:0:
64,276,75707,2,0,P|96:204|208:220,1,175,6|8,0:0|0:0,0:0:0:0:
264,180,76970,6,0,P|276:84|220:40,1,175,6|10,0:0|0:0,0:0:0:0:
200,124,78233,2,0,B|156:152|104:136|104:136|40:196,1,175,6|10,0:0|0:0,0:0:0:0:
44,272,79496,70,0,B|124:308|124:308|212:296,1,175,6|10,0:0|0:0,0:0:0:0:
292,268,80759,2,0,B|264:96,1,175,4|8,0:0|0:0,0:0:0:0:
180,76,82023,6,0,B|208:248,1,175,4|10,0:0|0:0,0:0:0:0:
144,304,83286,2,0,P|260:316|296:268,1,175,4|10,0:0|0:0,0:0:0:0:
316,200,84549,70,0,L|352:84,1,105,6|8,0:0|0:0,0:0:0:0:
362,44,85338,1,6,0:0:0:0:
280,24,85812,2,0,L|244:140,1,105,6|8,0:0|0:0,0:0:0:0:
232,176,86601,1,6,0:0:0:0:
152,152,87075,6,0,P|168:232|256:256,1,175,6|8,0:0|0:0,0:0:0:0:
320,304,88338,2,0,L|416:148,1,175,6|10,0:0|0:0,0:0:0:0:
424,72,89601,70,0,P|364:48|240:80,1,175,4|10,0:0|0:0,0:0:0:0:
216,140,90865,2,0,P|132:161|50:135,1,175,6|8,0:0|0:0,0:0:0:0:
32,216,92128,2,0,P|28:264|56:316,1,105,6|8,0:0|0:0,0:0:0:0:
108,324,92917,1,6,0:0:0:0:
212,288,93549,2,0,L|360:292,1,140,2|10,0:0|0:0,0:0:0:0:
464,296,94812,5,12,0:0:0:0:
72,248,104917,6,0,L|224:248,1,140,4|0,0:0|0:0,0:0:0:0:
316,292,106180,2,0,B|336:244|320:208|308:188|308:188|320:136,1,140,0|0,0:0|0:0,0:0:0:0:
364,56,107444,5,0,0:0:0:0:
448,132,108075,1,0,0:0:0:0:
440,244,108707,2,0,P|416:304|344:344,1,140,0|0,0:0|0:0,0:0:0:0:
331,234,109970,6,0,L|219:114,1,140,4|0,0:0|0:0,0:0:0:0:
140,76,111233,2,0,B|116:120|132:172|132:172|96:232,1,140,0|0,0:0|0:0,0:0:0:0:
24,276,112496,5,0,0:0:0:0:
120,336,113128,1,0,0:0:0:0:
216,276,113759,1,0,0:0:0:0:
314,332,114391,2,0,P|326:260|282:180,1,140,0|4,0:0|0:0,0:0:0:0:
216,128,115654,37,8,0:0:0:0:
104,132,116286,2,0,P|132:204|216:236,1,140,0|8,0:0|0:0,0:0:0:0:
280,176,117549,6,0,B|308:216|292:272|292:272|340:316,1,140,4|8,0:0|0:0,0:0:0:0:
432,316,118812,1,0,0:0:0:0:
448,204,119444,1,8,0:0:0:0:
340,184,120075,6,0,P|312:148|304:40,2,140,4|8|0,0:0|0:0|0:0,0:0:0:0:
256,260,121970,1,8,0:0:0:0:
168,332,122601,2,0,P|100:352|16:312,1,140,2|0,0:0|0:0,0:0:0:0:
104,244,123865,1,2,0:0:0:0:
280,332,124970,22,0,B|340:244|340:244|372:284|424:280,1,175,6|8,0:0|0:0,0:0:0:0:
408,196,126233,2,0,P|368:132|268:136,1,175,6|10,0:0|0:0,0:0:0:0:
252,212,127496,6,0,P|192:152|220:64,1,175,6|10,0:0|0:0,0:0:0:0:
140,28,128759,2,0,P|108:96|128:216,1,175,6|10,0:0|0:0,0:0:0:0:
68,264,130023,70,0,B|104:288|156:284|184:248|184:248|240:252,1,175,6|8,0:0|0:0,0:0:0:0:
300,300,131286,2,0,P|372:332|444:272,1,175,6|8,0:0|0:0,0:0:0:0:
364,248,132549,6,0,B|336:192|364:144|364:144|364:72,1,175,6|10,0:0|0:0,0:0:0:0:
284,52,133812,2,0,P|204:108|204:184,1,175,6|10,0:0|0:0,0:0:0:0:
260,240,135075,70,0,P|224:260|156:252,1,105,6|8,0:0|0:0,0:0:0:0:
112,232,135865,1,6,0:0:0:0:
52,172,136338,2,0,P|88:152|156:160,1,105,6|8,0:0|0:0,0:0:0:0:
200,180,137128,1,6,0:0:0:0:
268,132,137601,6,0,B|352:152|352:152|464:132,1,175,6|8,0:0|0:0,0:0:0:0:
480,212,138865,2,0,B|336:240|336:240|388:268,1,175,6|10,0:0|0:0,0:0:0:0:
424,308,140128,70,0,B|360:360|304:312|304:312|260:336,1,175,6|10,0:0|0:0,0:0:0:0:
184,340,141391,2,0,P|120:332|76:228,1,175,6|8,0:0|0:0,0:0:0:0:
116,168,142654,6,0,L|248:168,1,105,6|8,0:0|0:0,0:0:0:0:
276,168,143444,1,6,0:0:0:0:
328,68,144075,2,0,L|176:68,1,140,2|10,0:0|0:0,0:0:0:0:
76,64,145338,69,0,0:0:0:0:
396,168,150391,22,0,P|417:233|395:299,1,140,2|2,0:0|0:0,0:0:0:0:
282,298,151654,2,0,P|261:233|284:168,1,140,2|2,0:0|0:0,0:0:0:0:
396,168,152917,5,2,0:0:0:0:
300,228,153549,1,2,0:0:0:0:
188,228,154180,5,2,0:0:0:0:
92,168,154812,1,0,0:0:0:0:
144,104,155286,22,0,P|200:88|252:120,1,105,6|8,0:0|0:0,0:0:0:0:
292,132,156075,1,6,0:0:0:0:
264,212,156549,2,0,L|280:324,1,105,6|8,0:0|0:0,0:0:0:0:
332,340,157338,1,6,0:0:0:0:
408,300,157812,6,0,P|448:232|408:148,1,175,6|10,0:0|0:0,0:0:0:0:
384,72,159075,2,0,B|300:96|300:96|208:68,1,175,6|8,0:0|0:0,0:0:0:0:
136,100,160338,70,0,P|124:164|192:256,1,175,6|10,0:0|0:0,0:0:0:0:
240,312,161601,2,0,B|316:268|316:268|404:320,1,175,6|8,0:0|0:0,0:0:0:0:
452,256,162865,6,0,L|288:160,1,175,6|10,0:0|0:0,0:0:0:0:
264,92,164128,2,0,P|228:132|260:240,1,175,6|10,0:0|0:0,0:0:0:0:
192,292,165391,70,0,P|132:289|88:260,1,105,6|8,0:0|0:0,0:0:0:0:
72,216,166180,1,6,0:0:0:0:
96,136,166654,2,0,L|128:32,1,105,6|8,0:0|0:0,0:0:0:0:
164,76,167444,1,6,0:0:0:0:
244,104,167917,6,0,P|324:116|424:88,1,175,6|10,0:0|0:0,0:0:0:0:
436,176,169180,2,0,B|464:256|464:256|428:284|368:256,1,175,6|10,0:0|0:0,0:0:0:0:
296,236,170444,70,0,P|212:240|152:304,1,175,6|10,0:0|0:0,0:0:0:0:
72,324,171707,2,0,B|64:271|64:271|72:216|72:216|60:132,1,175,6|8,0:0|0:0,0:0:0:0:
68,68,172970,6,0,P|144:80|248:48,1,175,6|8,0:0|0:0,0:0:0:0:
344,24,174391,2,0,P|420:88|392:200,1,210,2|8,0:0|0:0,0:0:0:0:
356,220,175654,69,6,0:0:0:0:
192,204,176601,1,10,0:0:0:0:
108,276,177233,2,0,P|152:308|192:312,1,70,10|10,0:0|0:0,0:0:0:0:
276,336,178180,6,0,L|404:296,2,105,6|6|6,0:0|0:0|0:0,0:0:0:0:
256,192,179286,12,0,181970,0:0:0:0:
