osu file format v14

[General]
AudioFilename: cillia - FIRST.mp3
AudioLeadIn: 0
PreviewTime: 74128
Countdown: 0
SampleSet: Soft
StackLeniency: 0.7
Mode: 3
LetterboxInBreaks: 0
SpecialStyle: 0
WidescreenStoryboard: 0

[Editor]
Bookmarks: 110286
DistanceSpacing: 0.9
BeatDivisor: 4
GridSize: 4
TimelineZoom: 2

[Metadata]
Title:FIRST
TitleUnicode:【重音テト】FIRST【UTAUカバー】
Artist:cillia
ArtistUnicode:cillia
Creator:-SI-
Version:EZ
Source:
Tags:vocaloid kasane teto drum bass UTAU niki utauloid cover Muu-chan
BeatmapID:612785
BeatmapSetID:269163

[Difficulty]
HPDrainRate:6
CircleSize:4
OverallDifficulty:6
ApproachRate:5
SliderMultiplier:1.3
SliderTickRate:1

[Events]
//Background and Video events
0,0,"first wallpaper.jpg",0,0
//Break Periods
//Storyboard Layer 0 (Background)
//Storyboard Layer 1 (Fail)
//Storyboard Layer 2 (Pass)
//Storyboard Layer 3 (Foreground)
//Storyboard Sound Samples

[TimingPoints]
19023,315.789473684211,4,2,1,40,1,0
74444,-100,4,2,1,40,0,1
94812,-100,4,2,1,40,0,0
124970,-100,4,2,1,40,0,1
135233,-100,4,2,1,40,0,0
155286,-100,4,2,1,40,0,1
163891,-100,4,2,1,40,0,0

[HitObjects]
64,192,19022,5,0,0:0:0:0:
448,192,19022,1,0,0:0:0:0:
192,192,19338,1,0,0:0:0:0:
320,192,19970,1,0,0:0:0:0:
448,192,20601,1,0,0:0:0:0:
320,192,21233,1,0,0:0:0:0:
192,192,21865,1,0,0:0:0:0:
64,192,22496,1,0,0:0:0:0:
192,192,23128,1,0,0:0:0:0:
320,192,23759,1,0,0:0:0:0:
64,192,24075,1,8,0:0:0:0:
448,192,24075,1,0,0:0:0:0:
192,192,24391,1,0,0:0:0:0:
320,192,25022,1,0,0:0:0:0:
448,192,25654,1,0,0:0:0:0:
320,192,26286,1,0,0:0:0:0:
192,192,26917,1,0,0:0:0:0:
64,192,27549,1,0,0:0:0:0:
192,192,28180,1,0,0:0:0:0:
320,192,28812,1,0,0:0:0:0:
64,192,29128,1,8,0:0:0:0:
448,192,29128,1,0,0:0:0:0:
192,192,29444,1,0,0:0:0:0:
320,192,30075,1,0,0:0:0:0:
448,192,30707,1,0,0:0:0:0:
320,192,31338,1,0,0:0:0:0:
192,192,31970,1,0,0:0:0:0:
64,192,32601,1,0,0:0:0:0:
192,192,33233,1,0,0:0:0:0:
320,192,33865,1,0,0:0:0:0:
64,192,34180,1,8,0:0:0:0:
448,192,34180,1,0,0:0:0:0:
192,192,34496,1,0,0:0:0:0:
320,192,35128,1,0,0:0:0:0:
448,192,35759,1,0,0:0:0:0:
320,192,36391,1,0,0:0:0:0:
192,192,37023,1,0,0:0:0:0:
64,192,37654,1,0,0:0:0:0:
192,192,38286,1,8,0:0:0:0:
64,192,38917,1,0,0:0:0:0:
448,192,38917,1,0,0:0:0:0:
192,192,39233,1,8,0:0:0:0:
320,192,39865,1,0,0:0:0:0:
448,192,40180,128,0,41759:0:0:0:0:
64,192,41759,1,0,0:0:0:0:
192,192,42075,1,0,0:0:0:0:
320,192,42391,1,0,0:0:0:0:
64,192,42707,128,0,44286:0:0:0:0:
192,192,44286,1,0,0:0:0:0:
320,192,44444,1,0,0:0:0:0:
448,192,44601,1,0,0:0:0:0:
192,192,44917,1,0,0:0:0:0:
448,192,45233,1,0,0:0:0:0:
320,192,45549,1,0,0:0:0:0:
192,192,45707,1,0,0:0:0:0:
64,192,45865,1,0,0:0:0:0:
320,192,46180,1,0,0:0:0:0:
64,192,46496,1,0,0:0:0:0:
192,192,46812,1,0,0:0:0:0:
320,192,46970,1,0,0:0:0:0:
448,192,47128,1,0,0:0:0:0:
64,192,47444,1,0,0:0:0:0:
192,192,47759,1,0,0:0:0:0:
448,192,48075,1,0,0:0:0:0:
320,192,48391,1,0,0:0:0:0:
192,192,48707,1,0,0:0:0:0:
64,192,49023,1,0,0:0:0:0:
192,192,49338,1,0,0:0:0:0:
320,192,49496,1,0,0:0:0:0:
448,192,49654,1,0,0:0:0:0:
192,192,49970,1,0,0:0:0:0:
448,192,50286,1,0,0:0:0:0:
192,192,50601,1,0,0:0:0:0:
64,192,50917,1,0,0:0:0:0:
320,192,51233,1,0,0:0:0:0:
64,192,51549,1,0,0:0:0:0:
192,192,51865,1,0,0:0:0:0:
320,192,52023,1,0,0:0:0:0:
448,192,52180,1,0,0:0:0:0:
192,192,52496,1,0,0:0:0:0:
448,192,52812,1,0,0:0:0:0:
192,192,53128,1,0,0:0:0:0:
448,192,53444,1,0,0:0:0:0:
192,192,53759,1,0,0:0:0:0:
320,192,53917,1,0,0:0:0:0:
64,192,54075,1,0,0:0:0:0:
448,192,54075,1,0,0:0:0:0:
320,192,54391,1,0,0:0:0:0:
64,192,54707,1,0,0:0:0:0:
192,192,55023,1,0,0:0:0:0:
320,192,55338,1,0,0:0:0:0:
448,192,55654,1,0,0:0:0:0:
320,192,55970,1,0,0:0:0:0:
192,192,56286,1,0,0:0:0:0:
64,192,56601,1,0,0:0:0:0:
448,192,56917,1,0,0:0:0:0:
320,192,57075,1,0,0:0:0:0:
192,192,57233,1,0,0:0:0:0:
64,192,57549,1,0,0:0:0:0:
192,192,57865,1,0,0:0:0:0:
320,192,58180,1,0,0:0:0:0:
448,192,58496,1,0,0:0:0:0:
320,192,58812,1,0,0:0:0:0:
192,192,59128,1,0,0:0:0:0:
448,192,59444,1,0,0:0:0:0:
320,192,59601,1,0,0:0:0:0:
192,192,59759,1,0,0:0:0:0:
64,192,60075,1,0,0:0:0:0:
192,192,60391,1,0,0:0:0:0:
320,192,60707,1,0,0:0:0:0:
448,192,61023,1,0,0:0:0:0:
320,192,61338,1,0,0:0:0:0:
192,192,61654,1,0,0:0:0:0:
64,192,61970,128,0,62601:0:0:0:0:
192,192,62601,128,0,63233:0:0:0:0:
448,192,63233,128,0,63865:0:0:0:0:
64,192,63865,1,0,0:0:0:0:
192,192,64180,1,0,0:0:0:0:
320,192,64496,1,0,0:0:0:0:
448,192,64812,1,0,0:0:0:0:
64,192,65128,1,0,0:0:0:0:
192,192,65444,1,0,0:0:0:0:
320,192,65759,1,0,0:0:0:0:
448,192,66075,1,0,0:0:0:0:
64,192,66391,1,0,0:0:0:0:
448,192,66707,1,0,0:0:0:0:
64,192,67023,1,0,0:0:0:0:
320,192,67338,1,0,0:0:0:0:
64,192,67654,1,0,0:0:0:0:
192,192,67970,1,0,0:0:0:0:
448,192,68286,1,0,0:0:0:0:
320,192,68601,1,0,0:0:0:0:
192,192,68917,1,0,0:0:0:0:
448,192,69233,1,0,0:0:0:0:
64,192,69549,1,0,0:0:0:0:
192,192,69865,1,0,0:0:0:0:
320,192,70180,1,0,0:0:0:0:
448,192,70496,1,0,0:0:0:0:
320,192,70812,1,0,0:0:0:0:
64,192,71128,1,0,0:0:0:0:
448,192,71444,1,0,0:0:0:0:
64,192,71759,1,0,0:0:0:0:
192,192,72075,1,0,0:0:0:0:
320,192,72075,1,0,0:0:0:0:
64,192,72707,1,0,0:0:0:0:
448,192,73338,1,0,0:0:0:0:
320,192,73575,1,0,0:0:0:0:
192,192,73812,1,0,0:0:0:0:
64,192,73970,128,0,74444:0:0:0:0:
192,192,74444,1,0,0:0:0:0:
448,192,74759,1,0,0:0:0:0:
320,192,74917,1,0,0:0:0:0:
64,192,75233,1,0,0:0:0:0:
192,192,75391,1,0,0:0:0:0:
320,192,75549,1,0,0:0:0:0:
448,192,75707,1,0,0:0:0:0:
64,192,76023,1,0,0:0:0:0:
192,192,76180,1,0,0:0:0:0:
320,192,76496,1,0,0:0:0:0:
448,192,76654,1,0,0:0:0:0:
320,192,76812,1,0,0:0:0:0:
192,192,76970,1,0,0:0:0:0:
64,192,77286,1,0,0:0:0:0:
192,192,77444,1,0,0:0:0:0:
320,192,77601,1,0,0:0:0:0:
64,192,77917,1,0,0:0:0:0:
192,192,78075,1,0,0:0:0:0:
320,192,78233,1,0,0:0:0:0:
448,192,78549,1,0,0:0:0:0:
320,192,78707,1,0,0:0:0:0:
64,192,79023,1,0,0:0:0:0:
192,192,79180,1,0,0:0:0:0:
320,192,79338,1,0,0:0:0:0:
192,192,79496,1,0,0:0:0:0:
448,192,79812,1,0,0:0:0:0:
320,192,79970,1,0,0:0:0:0:
64,192,80286,1,0,0:0:0:0:
192,192,80444,1,0,0:0:0:0:
320,192,80601,1,0,0:0:0:0:
192,192,80759,1,0,0:0:0:0:
448,192,81075,1,0,0:0:0:0:
320,192,81233,1,0,0:0:0:0:
64,192,81549,1,0,0:0:0:0:
192,192,81707,1,0,0:0:0:0:
320,192,81865,1,0,0:0:0:0:
192,192,82023,1,0,0:0:0:0:
448,192,82338,1,0,0:0:0:0:
320,192,82496,1,0,0:0:0:0:
64,192,82812,1,0,0:0:0:0:
192,192,82970,1,0,0:0:0:0:
320,192,83128,1,0,0:0:0:0:
192,192,83286,1,0,0:0:0:0:
448,192,83601,1,0,0:0:0:0:
320,192,83759,1,0,0:0:0:0:
192,192,83917,1,0,0:0:0:0:
64,192,84233,1,0,0:0:0:0:
192,192,84391,1,0,0:0:0:0:
320,192,84549,1,0,0:0:0:0:
64,192,84865,1,0,0:0:0:0:
192,192,85023,1,0,0:0:0:0:
448,192,85338,1,0,0:0:0:0:
320,192,85496,1,0,0:0:0:0:
192,192,85654,1,0,0:0:0:0:
320,192,85812,1,0,0:0:0:0:
64,192,86128,1,0,0:0:0:0:
192,192,86286,1,0,0:0:0:0:
448,192,86601,1,0,0:0:0:0:
320,192,86759,1,0,0:0:0:0:
192,192,86917,1,0,0:0:0:0:
64,192,87075,128,0,87391:0:0:0:0:
192,192,87391,128,0,87707:0:0:0:0:
320,192,87707,128,0,88023:0:0:0:0:
64,192,88023,128,0,88338:0:0:0:0:
192,192,88338,128,0,88812:0:0:0:0:
448,192,88812,1,0,0:0:0:0:
64,192,89128,1,0,0:0:0:0:
192,192,89286,1,0,0:0:0:0:
320,192,89444,1,0,0:0:0:0:
448,192,89601,1,0,0:0:0:0:
64,192,89917,1,0,0:0:0:0:
192,192,90075,1,0,0:0:0:0:
448,192,90391,1,0,0:0:0:0:
320,192,90549,1,0,0:0:0:0:
192,192,90707,1,0,0:0:0:0:
64,192,91023,1,0,0:0:0:0:
192,192,91180,1,0,0:0:0:0:
320,192,91338,1,0,0:0:0:0:
448,192,91654,1,0,0:0:0:0:
320,192,91812,1,0,0:0:0:0:
192,192,91970,1,0,0:0:0:0:
64,192,92128,128,0,92917:0:0:0:0:
192,192,92917,128,0,93549:0:0:0:0:
320,192,93549,128,0,94338:0:0:0:0:
448,192,94338,128,0,94812:0:0:0:0:
64,192,94812,1,0,0:0:0:0:
192,192,94970,1,0,0:0:0:0:
320,192,95128,1,0,0:0:0:0:
448,192,95444,1,0,0:0:0:0:
320,192,95759,1,0,0:0:0:0:
192,192,96075,1,0,0:0:0:0:
64,192,96391,1,0,0:0:0:0:
192,192,96707,1,0,0:0:0:0:
320,192,97023,1,0,0:0:0:0:
64,192,97338,1,0,0:0:0:0:
192,192,97496,1,0,0:0:0:0:
320,192,97654,1,0,0:0:0:0:
448,192,97970,1,0,0:0:0:0:
320,192,98286,1,0,0:0:0:0:
192,192,98601,1,0,0:0:0:0:
64,192,98917,1,0,0:0:0:0:
192,192,99233,1,0,0:0:0:0:
320,192,99549,1,0,0:0:0:0:
64,192,99865,1,0,0:0:0:0:
192,192,100180,1,0,0:0:0:0:
320,192,100496,1,0,0:0:0:0:
448,192,100812,1,0,0:0:0:0:
320,192,101128,1,0,0:0:0:0:
192,192,101444,1,0,0:0:0:0:
64,192,101759,1,0,0:0:0:0:
192,192,102075,1,0,0:0:0:0:
448,192,102391,1,0,0:0:0:0:
320,192,102549,1,0,0:0:0:0:
192,192,102707,1,0,0:0:0:0:
64,192,103023,1,0,0:0:0:0:
192,192,103338,1,0,0:0:0:0:
320,192,103654,1,0,0:0:0:0:
448,192,103970,1,0,0:0:0:0:
192,192,104286,1,0,0:0:0:0:
320,192,104444,1,0,0:0:0:0:
64,192,104601,1,0,0:0:0:0:
448,192,104601,1,0,0:0:0:0:
192,192,104917,1,0,0:0:0:0:
320,192,105233,1,0,0:0:0:0:
448,192,105549,1,0,0:0:0:0:
320,192,105865,1,0,0:0:0:0:
192,192,106180,1,0,0:0:0:0:
64,192,106496,1,0,0:0:0:0:
192,192,106812,1,0,0:0:0:0:
320,192,107128,1,0,0:0:0:0:
64,192,107444,1,0,0:0:0:0:
192,192,107601,1,0,0:0:0:0:
320,192,107759,1,0,0:0:0:0:
64,192,108075,1,0,0:0:0:0:
192,192,108391,1,0,0:0:0:0:
320,192,108707,1,0,0:0:0:0:
448,192,109023,1,0,0:0:0:0:
320,192,109338,1,0,0:0:0:0:
192,192,109654,1,0,0:0:0:0:
64,192,109970,1,0,0:0:0:0:
192,192,110128,1,0,0:0:0:0:
320,192,110286,1,0,0:0:0:0:
64,192,110601,1,0,0:0:0:0:
192,192,110917,1,0,0:0:0:0:
320,192,111233,1,0,0:0:0:0:
448,192,111549,1,0,0:0:0:0:
320,192,111865,1,0,0:0:0:0:
192,192,112180,1,0,0:0:0:0:
448,192,112496,1,0,0:0:0:0:
320,192,112654,1,0,0:0:0:0:
192,192,112812,1,0,0:0:0:0:
448,192,113128,1,0,0:0:0:0:
320,192,113444,1,0,0:0:0:0:
192,192,113759,1,0,0:0:0:0:
64,192,114075,1,0,0:0:0:0:
192,192,114391,1,0,0:0:0:0:
320,192,114707,1,0,0:0:0:0:
64,192,115023,1,0,0:0:0:0:
448,192,115023,1,0,0:0:0:0:
192,192,115338,1,0,0:0:0:0:
320,192,115654,1,0,0:0:0:0:
448,192,115970,1,0,0:0:0:0:
320,192,116286,1,0,0:0:0:0:
192,192,116601,1,0,0:0:0:0:
64,192,116917,1,0,0:0:0:0:
448,192,117233,1,0,0:0:0:0:
64,192,117549,1,0,0:0:0:0:
192,192,117865,1,0,0:0:0:0:
320,192,118180,1,0,0:0:0:0:
448,192,118496,1,0,0:0:0:0:
320,192,118812,1,0,0:0:0:0:
192,192,119128,1,0,0:0:0:0:
64,192,119444,1,0,0:0:0:0:
192,192,119759,1,0,0:0:0:0:
448,192,120075,1,0,0:0:0:0:
320,192,120391,1,0,0:0:0:0:
192,192,120707,1,0,0:0:0:0:
64,192,121023,1,0,0:0:0:0:
192,192,121338,1,0,0:0:0:0:
448,192,121654,1,0,0:0:0:0:
64,192,121970,1,0,0:0:0:0:
448,192,122286,1,0,0:0:0:0:
320,192,122444,1,0,0:0:0:0:
192,192,122601,1,0,0:0:0:0:
64,192,122917,1,0,0:0:0:0:
192,192,123233,1,0,0:0:0:0:
320,192,123549,1,0,0:0:0:0:
448,192,123865,1,0,0:0:0:0:
320,192,124101,1,0,0:0:0:0:
192,192,124338,1,0,0:0:0:0:
64,192,124496,128,0,124812:0:0:0:0:
192,192,124970,1,0,0:0:0:0:
448,192,125286,1,0,0:0:0:0:
320,192,125444,1,0,0:0:0:0:
320,192,125759,1,0,0:0:0:0:
192,192,125917,1,0,0:0:0:0:
64,192,126075,1,0,0:0:0:0:
192,192,126233,1,0,0:0:0:0:
448,192,126549,1,0,0:0:0:0:
320,192,126707,1,0,0:0:0:0:
64,192,127023,1,0,0:0:0:0:
192,192,127180,1,0,0:0:0:0:
320,192,127338,1,0,0:0:0:0:
192,192,127496,1,0,0:0:0:0:
448,192,127812,1,0,0:0:0:0:
320,192,127970,1,0,0:0:0:0:
192,192,128128,1,0,0:0:0:0:
64,192,128444,1,0,0:0:0:0:
192,192,128601,1,0,0:0:0:0:
320,192,128759,128,0,129075:0:0:0:0:
448,192,129075,128,0,129549:0:0:0:0:
192,192,129707,1,0,0:0:0:0:
64,192,129865,1,0,0:0:0:0:
192,192,130023,1,0,0:0:0:0:
448,192,130338,1,0,0:0:0:0:
320,192,130496,1,0,0:0:0:0:
64,192,130812,1,0,0:0:0:0:
192,192,130970,1,0,0:0:0:0:
320,192,131128,1,0,0:0:0:0:
192,192,131286,1,0,0:0:0:0:
448,192,131601,1,0,0:0:0:0:
320,192,131759,1,0,0:0:0:0:
64,192,132075,1,0,0:0:0:0:
192,192,132233,1,0,0:0:0:0:
320,192,132391,1,0,0:0:0:0:
192,192,132549,1,0,0:0:0:0:
448,192,132865,1,0,0:0:0:0:
320,192,133023,1,0,0:0:0:0:
64,192,133338,1,0,0:0:0:0:
192,192,133496,1,0,0:0:0:0:
320,192,133654,1,0,0:0:0:0:
192,192,133812,1,0,0:0:0:0:
320,192,134128,1,0,0:0:0:0:
448,192,134286,1,0,0:0:0:0:
320,192,134444,1,0,0:0:0:0:
192,192,134759,1,0,0:0:0:0:
64,192,134917,1,0,0:0:0:0:
192,192,135075,1,0,0:0:0:0:
448,192,135391,1,0,0:0:0:0:
320,192,135549,1,0,0:0:0:0:
64,192,135865,1,0,0:0:0:0:
192,192,136023,1,0,0:0:0:0:
320,192,136180,1,0,0:0:0:0:
192,192,136338,1,0,0:0:0:0:
448,192,136654,1,0,0:0:0:0:
320,192,136812,1,0,0:0:0:0:
64,192,137128,1,0,0:0:0:0:
192,192,137286,1,0,0:0:0:0:
320,192,137444,1,0,0:0:0:0:
192,192,137601,1,0,0:0:0:0:
448,192,137917,1,0,0:0:0:0:
320,192,138075,1,0,0:0:0:0:
192,192,138233,1,0,0:0:0:0:
64,192,138549,1,0,0:0:0:0:
192,192,138707,1,0,0:0:0:0:
320,192,138865,1,0,0:0:0:0:
448,192,139180,1,0,0:0:0:0:
320,192,139338,1,0,0:0:0:0:
64,192,139654,1,0,0:0:0:0:
192,192,139812,1,0,0:0:0:0:
320,192,139970,1,0,0:0:0:0:
192,192,140128,1,0,0:0:0:0:
448,192,140444,1,0,0:0:0:0:
320,192,140601,1,0,0:0:0:0:
64,192,140917,1,0,0:0:0:0:
192,192,141075,1,0,0:0:0:0:
320,192,141233,1,0,0:0:0:0:
448,192,141549,1,0,0:0:0:0:
320,192,141707,1,0,0:0:0:0:
192,192,141865,1,0,0:0:0:0:
448,192,142180,1,0,0:0:0:0:
320,192,142338,1,0,0:0:0:0:
192,192,142496,1,0,0:0:0:0:
64,192,142654,128,0,143444:0:0:0:0:
192,192,143444,128,0,144075:0:0:0:0:
320,192,144075,128,0,145338:0:0:0:0:
64,192,145338,1,0,0:0:0:0:
192,192,145654,1,0,0:0:0:0:
320,192,145970,1,0,0:0:0:0:
448,192,146286,128,0,147865:0:0:0:0:
64,192,147865,1,0,0:0:0:0:
192,192,148180,1,0,0:0:0:0:
320,192,148496,1,0,0:0:0:0:
448,192,148812,128,0,150391:0:0:0:0:
64,192,150391,5,0,0:0:0:0:
192,192,150707,1,0,0:0:0:0:
320,192,151023,1,0,0:0:0:0:
448,192,151338,128,0,152917:0:0:0:0:
64,192,152917,1,0,0:0:0:0:
192,192,153233,1,0,0:0:0:0:
320,192,153549,1,0,0:0:0:0:
448,192,153865,128,0,154812:0:0:0:0:
64,192,155286,5,0,0:0:0:0:
448,192,155601,1,0,0:0:0:0:
320,192,155759,1,0,0:0:0:0:
64,192,156075,1,0,0:0:0:0:
192,192,156233,1,0,0:0:0:0:
320,192,156391,1,0,0:0:0:0:
192,192,156549,1,0,0:0:0:0:
448,192,156865,1,0,0:0:0:0:
320,192,157023,1,0,0:0:0:0:
64,192,157338,1,0,0:0:0:0:
192,192,157496,1,0,0:0:0:0:
320,192,157654,1,0,0:0:0:0:
192,192,157812,1,0,0:0:0:0:
448,192,158128,1,0,0:0:0:0:
320,192,158286,1,0,0:0:0:0:
192,192,158444,1,0,0:0:0:0:
64,192,158759,1,0,0:0:0:0:
192,192,158917,1,0,0:0:0:0:
320,192,159075,1,0,0:0:0:0:
448,192,159391,1,0,0:0:0:0:
320,192,159549,1,0,0:0:0:0:
64,192,159865,1,0,0:0:0:0:
192,192,160023,1,0,0:0:0:0:
320,192,160180,1,0,0:0:0:0:
192,192,160338,1,0,0:0:0:0:
448,192,160654,1,0,0:0:0:0:
320,192,160812,1,0,0:0:0:0:
64,192,161128,1,0,0:0:0:0:
192,192,161286,1,0,0:0:0:0:
320,192,161444,1,0,0:0:0:0:
192,192,161601,1,0,0:0:0:0:
448,192,161917,1,0,0:0:0:0:
320,192,162075,1,0,0:0:0:0:
64,192,162391,1,0,0:0:0:0:
192,192,162549,1,0,0:0:0:0:
320,192,162707,1,0,0:0:0:0:
192,192,162865,1,0,0:0:0:0:
448,192,163180,1,0,0:0:0:0:
320,192,163338,1,0,0:0:0:0:
64,192,163654,1,0,0:0:0:0:
192,192,163812,1,0,0:0:0:0:
320,192,163970,1,0,0:0:0:0:
192,192,164128,1,0,0:0:0:0:
448,192,164444,1,0,0:0:0:0:
320,192,164601,1,0,0:0:0:0:
192,192,164759,1,0,0:0:0:0:
64,192,164917,1,0,0:0:0:0:
192,192,165075,1,0,0:0:0:0:
448,192,165233,1,0,0:0:0:0:
320,192,165391,1,0,0:0:0:0:
448,192,165707,1,0,0:0:0:0:
320,192,165865,1,0,0:0:0:0:
64,192,166180,1,0,0:0:0:0:
192,192,166338,1,0,0:0:0:0:
320,192,166496,1,0,0:0:0:0:
448,192,166654,1,0,0:0:0:0:
64,192,166970,1,0,0:0:0:0:
192,192,167128,1,0,0:0:0:0:
448,192,167444,1,0,0:0:0:0:
320,192,167601,1,0,0:0:0:0:
192,192,167759,1,0,0:0:0:0:
64,192,167917,1,0,0:0:0:0:
320,192,168233,1,0,0:0:0:0:
448,192,168391,1,0,0:0:0:0:
320,192,168549,1,0,0:0:0:0:
192,192,168865,1,0,0:0:0:0:
64,192,169023,1,0,0:0:0:0:
192,192,169180,1,0,0:0:0:0:
448,192,169496,1,0,0:0:0:0:
320,192,169654,1,0,0:0:0:0:
64,192,169970,1,0,0:0:0:0:
192,192,170128,1,0,0:0:0:0:
320,192,170286,1,0,0:0:0:0:
192,192,170444,1,0,0:0:0:0:
448,192,170759,1,0,0:0:0:0:
320,192,170917,1,0,0:0:0:0:
64,192,171233,1,0,0:0:0:0:
192,192,171391,1,0,0:0:0:0:
320,192,171549,1,0,0:0:0:0:
448,192,171865,1,0,0:0:0:0:
320,192,172023,1,0,0:0:0:0:
192,192,172180,1,0,0:0:0:0:
64,192,172496,1,0,0:0:0:0:
192,192,172654,1,0,0:0:0:0:
320,192,172812,1,0,0:0:0:0:
192,192,172970,128,0,173759:0:0:0:0:
320,192,173759,128,0,174391:0:0:0:0:
192,192,174391,128,0,175180:0:0:0:0:
320,192,175338,128,0,178180:0:0:0:0:
