osu file format v5

[General]
AudioFilename: chipanddale.mp3
AudioLeadIn: 0
AudioHash: 85f3dedff16f28cad471eca4396507e0
PreviewTime: -1
Countdown: 1
SampleSet: Normal
EditorBookmarks: 11816,12444,13490,14118,30445,31283,31701,32329,43842,44679,45098,45726,46145,46563,46773,47401,47819,48238

[Metadata]
Title:Chip N' Dale Rescue Rangers Intro
Artist:
Creator:Mifune24
Version:Insane

[Difficulty]
HPDrainRate:9
CircleSize:5
OverallDifficulty:8
SliderMultiplier:1.4
SliderTickRate:1

[Events]
//Background and Video events
1,700,"ed66dbd7d126c96bbe8871e151d045a8.avi"
//Break Periods
//Storyboard Layer 0 (Background)
//Storyboard Layer 1 (Failing)
//Storyboard Layer 2 (Passing)
//Storyboard Layer 3 (Foreground)
//Storyboard Sound Samples
//Background Colour Transformations
3,100,163,162,255

[TimingPoints]
5158,418.643716912789,4,1,0,100

[HitObjects]
384,320,5158,1,0
384,160,5785,1,0
96,160,6832,1,0
96,320,7460,1,0
384,64,8821,6,0,B|384:64|448:128|384:192,1,140
389,188,9449,1,0
320,288,9972,1,0
224,352,10391,1,0
128,288,10809,1,0
256,192,11437,5,0
163,131,11856,2,0,B|163:131|262:66|375:138,1,210
480,160,12902,1,0
448,224,13112,1,0
416,288,13321,1,0
352,320,13530,2,0,B|352:320|256:384|128:320,1,210
288,160,14786,1,0
224,160,14996,1,0
160,160,15205,1,0
96,64,15624,5,0
192,64,16042,1,0
192,128,16252,1,0
320,128,16670,1,0
384,224,17089,1,0
448,128,17507,1,0
320,32,17926,5,2
320,32,18135,1,2
224,32,18554,1,2
128,96,18973,1,2
160,160,19182,2,2,B|160:160|224:128|288:192,1,140
256,288,20019,1,2
160,352,20438,1,2
64,288,20857,1,2
256,160,21694,5,0
224,224,21903,1,0
288,224,22113,1,0
192,288,22531,1,0
256,352,22950,1,0
320,288,23369,1,0
416,256,23787,1,0
416,192,23996,1,0
416,128,24206,1,0
352,128,24415,1,0
288,128,24624,1,0
192,128,25043,1,0
256,288,25671,1,2
160,288,26090,6,0,B|160:288|96:256|128:160,1,140
192,128,26718,1,0
256,32,27136,1,2
256,96,27346,1,2
256,160,27555,1,2
320,160,27764,1,2
384,160,27974,1,2
448,256,28392,1,2
320,256,28811,1,0
256,288,29020,1,0
192,256,29230,1,0
256,352,29648,1,0
256,352,30067,1,0
384,192,30485,5,0
352,128,30695,1,0
288,96,30904,1,0
224,128,31113,1,0
192,192,31323,1,0
251,288,31741,2,0,B|251:288|168:364|57:285,1,210
95,181,32788,1,0
95,181,32997,1,0
163,92,33416,2,0,B|163:92|237:32|310:112,1,140
335,127,34044,1,2
382,229,34463,1,2
319,322,34881,1,2
259,228,35300,1,2
259,228,35509,1,2
192,128,35928,1,2
256,32,36346,1,2
128,32,36765,1,2
96,192,37184,5,0
96,256,37393,1,0
160,256,37602,1,0
160,192,37812,1,0
224,192,38021,1,0
352,192,38440,1,0
288,32,39068,1,2
384,64,39486,6,0,B|384:64|448:128|416:192,1,140
352,192,40114,2,0,B|352:192|288:128|320:64,1,140
256,32,40742,1,2
192,64,40952,1,2
128,96,41161,1,2
64,128,41370,1,2
64,256,41789,1,2
192,256,42207,1,0
256,224,42417,1,0
320,256,42626,1,0
256,160,43045,1,0
256,160,43463,1,0
416,320,43882,5,0
480,288,44091,1,0
416,256,44301,1,0
480,224,44510,1,0
416,192,44719,1,0
320,192,45138,2,0,B|320:192|256:256|256:96|128:192,1,210
64,288,46185,1,0
160,320,46603,1,0
224,320,46813,1,0
352,192,47441,1,2
416,288,47859,1,2
480,192,48278,1,2
416,96,48696,2,2,B|416:96|384:32|352:160|288:128,1,140
256,96,49324,1,6
128,96,49743,1,6
192,0,50162,1,6
224,192,50580,5,0
256,256,50790,1,0
288,320,50999,1,0
320,256,51208,1,0
352,192,51418,1,0
288,96,51836,1,0
128,96,52464,1,2
32,192,52883,2,0,B|32:192|96:256|160:192,1,140
114,152,53511,2,0,B|114:152|163:98|252:154,1,140
275,194,54139,1,0
311,237,54348,1,0
348,195,54557,1,0
382,240,54767,1,0
494,240,55185,1,0
416,320,55604,1,0
352,320,55813,1,0
288,320,56023,1,0
160,320,56441,1,0
32,320,56860,1,0
256,128,57279,5,0
192,160,57488,1,0
224,224,57697,1,0
288,224,57907,1,0
320,160,58116,1,0
256,64,58535,1,0
