osu file format v5

[General]
AudioFilename: chipanddale.mp3
AudioLeadIn: 0
AudioHash: 85f3dedff16f28cad471eca4396507e0
PreviewTime: -1
Countdown: 1
SampleSet: Normal
EditorBookmarks: 11816,12444,13490,14118,30445,31283,31701,32329,43842,44679,45098,45726,46145,46563,46773,47401,47819,48238

[Metadata]
Title:Chip N' Dale Rescue Rangers Intro
Artist:
Creator:Mifune24
Version:Hard

[Difficulty]
HPDrainRate:7
CircleSize:5
OverallDifficulty:7
SliderMultiplier:1.4
SliderTickRate:1

[Events]
//Background and Video events
1,700,"ed66dbd7d126c96bbe8871e151d045a8.avi"
//Break Periods
//Storyboard Layer 0 (Background)
//Storyboard Layer 1 (Failing)
//Storyboard Layer 2 (Passing)
//Storyboard Layer 3 (Foreground)
//Storyboard Sound Samples
//Background Colour Transformations
3,100,163,162,255

[TimingPoints]
5158,418.64371691279,4,1,0,100

[HitObjects]
128,64,5157,1,0
128,224,5785,1,0
416,224,6832,5,0
416,64,7460,1,0
128,320,8821,6,0,B|128:320|64:256|128:192,1,140
123,196,9449,1,0
192,96,9972,1,0
288,32,10391,1,0
384,96,10809,1,0
256,192,11437,5,0
349,253,11856,2,0,B|349:253|250:318|137:246,1,210
163,128,13530,2,0,B|163:128|260:94|373:129,1,210
416,320,15624,5,0
320,320,16042,1,0
320,256,16252,1,0
192,256,16670,1,0
128,160,17089,1,0
64,256,17507,1,0
192,352,17926,5,2
192,352,18135,1,2
288,352,18554,1,2
384,288,18973,1,2
352,224,19182,2,2,B|352:224|288:256|224:192,1,140
256,96,20019,2,2,B|256:96|320:64|384:160,2,140
256,224,21694,5,0
288,160,21903,1,0
224,160,22113,1,0
182,56,22531,2,0,B|182:56|259:31|339:63,2,140
96,128,23787,5,0
96,192,23996,1,0
96,256,24206,1,0
160,256,24415,1,0
224,256,24624,1,0
320,256,25043,1,0
352,96,26090,6,0,B|352:96|416:128|384:224,1,140
320,256,26718,1,0
256,352,27136,1,2
256,288,27346,1,2
256,224,27555,1,2
192,224,27764,1,2
128,224,27974,1,2
64,128,28392,1,2
192,128,28811,5,0
256,96,29020,1,0
320,128,29230,1,0
256,32,29648,1,0
128,192,30485,5,0
160,256,30695,1,0
224,288,30904,1,0
288,256,31113,1,0
320,192,31323,1,0
261,96,31741,2,0,B|261:96|344:20|455:99,1,210
417,203,32788,1,0
417,203,32997,1,0
349,292,33416,2,0,B|349:292|275:352|202:272,1,140
177,257,34044,1,2
130,155,34463,1,2
193,62,34881,1,2
253,156,35300,1,2
253,156,35509,1,2
319,246,35928,2,2,B|319:246|317:303|249:346|199:264,2,140
416,192,37184,5,0
416,128,37393,1,0
352,128,37602,1,0
352,192,37812,1,0
288,192,38021,1,0
160,192,38440,1,0
128,320,39486,6,0,B|128:320|64:256|96:192,1,140
160,192,40114,2,0,B|160:192|224:256|192:320,1,140
256,352,40742,1,2
320,320,40952,1,2
384,288,41161,1,2
448,256,41370,1,2
448,128,41789,1,2
320,128,42207,5,0
256,160,42417,1,0
192,128,42626,1,0
256,224,43045,1,0
96,64,43882,5,0
32,96,44091,1,0
96,128,44301,1,0
32,160,44510,1,0
96,192,44719,1,0
192,192,45138,2,0,B|192:192|256:128|256:288|384:192,1,210
448,96,46185,1,0
352,64,46603,1,0
352,64,46813,1,0
256,192,47441,1,2
192,96,47859,1,2
128,192,48278,1,2
192,288,48696,2,2,B|192:288|256:352|224:224|320:256,1,140
352,288,49324,2,6,B|352:288|320:352|288:288|256:384,2,140
288,192,50580,5,0
256,128,50790,1,0
224,64,50999,1,0
192,128,51208,1,0
160,192,51418,1,0
224,288,51836,1,0
487,192,52883,6,0,B|487:192|418:133|348:202,1,140
398,232,53511,2,0,B|398:232|349:286|260:230,1,140
237,190,54139,1,0
201,147,54348,1,0
164,189,54557,1,0
130,144,54767,1,0
18,144,55185,1,0
96,64,55604,1,0
160,64,55813,1,0
224,64,56023,2,0,B|224:64|384:64,1,140
256,192,57279,12,4,58744
