osu file format v5

[General]
AudioFilename: Kate Kyou Hitman reborn 3OP.mp3
AudioLeadIn: 0
PreviewTime: -1
Countdown: 0
SampleSet: Normal
StackLeniency: 0.7
Mode: 0
LetterboxInBreaks: 1

[Editor]
DistanceSpacing: 0.800000011920929
BeatDivisor: 4
GridSize: 8

[Metadata]
Title:DIVE TO WORLD
Artist:cherry blossem
Creator:csx1224
Version:Hard
Source:
Tags:

[Difficulty]
HPDrainRate:5
CircleSize:5
OverallDifficulty:5
SliderMultiplier:1.4
SliderTickRate:1

[Events]
//Background and Video events
Video,0,"Kate Kyou Hitman reborn 3OP.avi"
0,0,"hdy2702_36042969thumb.jpg"
//Break Periods
//Storyboard Layer 0 (Background)
//Storyboard Layer 1 (Fail)
//Storyboard Layer 2 (Pass)
//Storyboard Layer 3 (Foreground)
//Storyboard Sound Samples
//Background Colour Transformations
3,100,0,0,0

[TimingPoints]
990,638.297872340426,4,1,0,100,1,0

[HitObjects]
256,184,6665,1,0
255,186,6876,1,0
231,130,7510,2,0,B|317:130,1,70
301,130,8117,1,0
301,130,8224,1,0
301,130,8330,1,0
301,130,8490,1,0
198,267,8809,5,0
228,227,8968,1,0
256,271,9128,1,0
281,229,9287,1,0
316,269,9447,1,0
339,226,9607,1,0
367,274,9766,1,0
397,241,9926,1,0
398,269,10564,5,0
366,231,10724,1,0
403,206,10883,1,0
360,176,11043,1,0
407,151,11202,1,0
375,108,11362,1,0
426,85,11521,1,0
379,57,11681,1,0
321,50,12160,5,0
321,50,12266,1,0
321,50,12372,1,0
321,50,12479,1,0
321,50,12585,1,0
321,50,12692,1,0
321,50,12798,1,0
277,110,13117,5,0
306,144,13277,1,0
268,170,13436,1,0
232,209,14234,5,0
275,242,14394,1,2
309,205,14553,1,0
348,244,14713,1,0
388,201,14872,1,2
421,237,15032,1,0
461,194,15192,1,2
461,194,15351,1,0
461,194,15511,2,0,B|463:141,3,35
449,87,16309,2,0,B|333:89,1,105
147,242,17107,5,0
179,197,17266,1,0
215,246,17426,1,2
249,205,17585,1,0
290,246,17745,1,0
320,207,17904,1,2
363,250,18064,1,0
408,207,18224,1,2
408,207,18383,2,2,B|414:126|401:126,1,70
397,79,19021,5,0
363,59,19181,1,0
331,94,19341,1,2
296,57,19500,1,0
252,94,19660,1,0
221,59,19819,1,2
179,89,19979,1,0
142,49,20138,1,2
142,49,20298,1,2
131,256,20777,5,0
162,214,20936,1,0
206,254,21096,1,0
206,254,21255,1,0
243,222,21415,1,2
282,256,21575,1,0
282,256,21734,1,2
313,216,21894,1,0
346,257,22053,1,0
346,257,22213,2,2,B|395:227,3,35
313,158,23330,5,0
275,128,23490,1,0
243,162,23649,1,0
206,136,23809,1,2
168,166,23968,1,6
136,122,24128,1,0
95,166,24287,1,0
57,128,24447,1,2
57,128,24607,2,0,B|52:278|267:297,1,280
244,294,26043,5,0
277,267,26202,1,0
309,297,26362,1,0
339,263,26521,1,2
371,295,26681,1,0
399,261,26841,1,2
126,214,27479,5,0
151,177,27638,1,0
184,214,27798,1,0
212,177,27958,1,2
246,212,28117,1,2
274,179,28277,1,0
314,218,28436,1,0
314,218,28596,2,0,B|389:87,1,140
226,159,29713,5,0
226,159,29872,1,0
226,159,30032,1,0
406,168,30351,6,0,B|192:271,1,210
256,112,31628,6,0,B|207:129,2,35
224,198,32266,5,0
250,170,32426,1,0
287,209,32585,1,0
316,170,32745,1,0
346,209,32904,1,0
372,176,33064,1,0
372,176,33224,1,0
308,311,33543,6,0,B|134:264|301:35,1,315
284,57,35138,5,0
252,78,35298,1,0
286,117,35458,1,0
242,127,35617,1,0
274,170,35777,1,0
128,273,36096,5,0
162,236,36255,1,0
199,273,36415,1,2
233,236,36575,1,0
271,282,36734,1,0
303,237,36894,1,2
349,277,37053,1,0
383,243,37213,1,6
383,243,37372,2,0,B|381:72,1,140
333,42,38330,5,0
291,69,38490,1,0
321,112,38649,1,0
272,123,38809,1,0
293,172,38968,1,0
248,194,39181,1,0
248,194,39394,1,0
248,194,39500,1,0
248,194,39607,1,0
248,194,39713,1,0
256,192,39926,12,0,40404
166,198,40883,6,0,B|254:198,1,70
256,192,41362,12,0,41841
257,194,42000,6,0,B|319:196,3,35
256,194,43117,2,0,B|295:144,1,35
277,166,43436,2,0,B|359:254,1,105
348,242,44075,2,0,B|272:284,1,70
286,275,44553,2,0,B|207:179,1,105
219,193,45138,6,0,B|269:155,1,46.6666666666667
256,164,45564,5,0
256,164,45670,1,0
256,164,45777,1,0
256,164,45883,1,0
256,164,45990,1,0
256,164,46096,1,0
256,164,46309,6,0,B|101:164,1,140
116,164,47053,2,0,B|112:303,1,116.666666666667
167,275,47798,5,0
184,243,47904,1,0
221,273,48011,1,0
246,234,48117,1,0
287,275,48224,1,0
313,237,48330,1,0
349,281,48543,1,0
377,236,48649,1,0
413,281,48755,1,0
435,174,48968,1,0
401,153,49075,1,0
426,114,49181,1,0
294,97,49500,1,0
294,97,49607,1,0
231,157,49819,5,0
231,157,49926,1,0
231,157,50032,1,0
231,157,50138,1,0
193,211,50458,2,0,B|255:213,2,46.6666666666667
216,314,51255,5,0
244,273,51415,1,0
291,322,51575,1,0
323,282,51734,1,0
364,318,51894,1,0
379,275,52053,1,0
420,318,52213,1,0
444,273,52372,1,0
482,314,52532,1,0
313,102,52851,5,0
272,78,53011,1,0
240,116,53170,1,0
199,80,53330,1,0
154,116,53490,1,0
118,78,53649,1,0
82,119,53809,1,0
39,76,53968,1,0
2,119,54128,1,0
2,119,54287,1,0
58,207,54447,2,0,B|144:269|236:202,1,175
256,192,55724,12,0,55883
223,221,56362,6,0,B|313:112,1,105
289,140,57160,5,0
253,97,57319,1,0
221,140,57479,1,0
131,102,57798,1,0
109,140,57958,1,0
69,104,58117,1,0
39,149,58277,1,0
5,110,58436,1,0
114,267,58915,2,0,B|212:267,1,70
184,267,59553,6,0,B|268:266,1,70
253,266,60192,5,0
289,232,60351,1,0
234,202,60511,1,0
287,155,60670,1,0
231,132,60830,1,0
274,99,60990,1,0
223,78,61149,1,0
266,40,61309,1,0
266,40,61468,2,0,B|408:208,1,210
152,208,62745,5,0
168,176,62904,1,0
192,208,63064,1,0
208,176,63224,1,0
232,208,63383,1,0
248,176,63543,1,0
264,208,63702,1,0
264,208,63862,2,0,B|448:72|136:72,1,315
147,72,65458,1,0
147,72,65617,1,0
147,72,65777,1,0
157,247,66096,5,2
167,213,66255,1,2
197,245,66415,1,2
343,149,66894,1,2
343,181,67053,1,2
379,172,67213,1,2
347,264,67851,5,0
311,236,68011,1,0
272,271,68170,1,0
236,236,68330,1,0
195,271,68490,1,0
152,234,68649,1,0
122,273,68809,1,0
75,239,68968,1,0
75,239,69128,1,0
71,185,69447,6,0,B|221:108|317:256,1,280
312,249,71043,1,0
312,249,71521,1,0
148,174,71841,5,0
171,119,72000,1,0
223,166,72160,1,0
338,76,72479,5,0
338,76,72958,1,0
354,217,73436,5,0
354,217,73755,2,0,B|217:228|184:131,1,175
256,192,74713,12,0,75670
199,217,76309,5,0
199,217,76787,1,0
199,217,77585,2,0,B|403:75,1,245
126,244,79181,6,0,B|234:242,2,105
230,242,80298,5,0
230,242,80458,1,0
366,214,80936,1,0
366,214,81096,1,0
256,192,81415,12,0,82372
