osu file format v5

[General]
AudioFilename: Kate Kyou Hitman reborn 3OP.mp3
AudioLeadIn: 0
PreviewTime: -1
Countdown: 0
SampleSet: Normal
StackLeniency: 0.7
Mode: 0
LetterboxInBreaks: 1

[Editor]
DistanceSpacing: 0.800000011920929
BeatDivisor: 4
GridSize: 8

[Metadata]
Title:DIVE TO WORLD
Artist:cherry blossem
Creator:csx1224
Version:Easy
Source:
Tags:

[Difficulty]
HPDrainRate:3
CircleSize:4
OverallDifficulty:3
SliderMultiplier:1.4
SliderTickRate:1

[Events]
//Background and Video events
Video,0,"Kate Kyou Hitman reborn 3OP.avi"
0,0,"hdy2702_36042969thumb.jpg"
//Break Periods
//Storyboard Layer 0 (Background)
//Storyboard Layer 1 (Fail)
//Storyboard Layer 2 (Pass)
//Storyboard Layer 3 (Foreground)
//Storyboard Sound Samples
//Background Colour Transformations
3,100,0,0,0

[TimingPoints]
2439.85915492958,845.070422535211,4,1,0,100,1,0

[HitObjects]
168,224,14059,1,0
288,224,15115,1,0
424,224,16172,1,0
416,88,17228,2,0,B|184:88,1,210
200,72,18918,2,0,B|200:184|384:152,1,210
352,248,20397,6,0,B|128:248,2,210
400,192,23355,5,0
264,192,24411,1,0
96,192,25468,1,0
96,64,26101,2,0,B|264:64,1,140
216,80,27369,5,0
216,192,28425,1,0
208,312,29270,1,0
392,304,29904,5,0
392,160,30960,1,0
392,48,31806,1,0
392,48,32228,2,0,B|160:48,1,210
256,56,34129,5,0
256,192,35186,1,0
240,312,36453,2,0,B|336:312,1,70
310,312,37087,1,0
400,320,37510,1,0
400,320,37932,2,4,B|400:152|400:176,1,140
432,80,39200,5,0
328,80,39834,1,4
256,192,40045,12,4,41101
80,200,41313,6,4,B|360:200,1,245
328,224,43214,2,4,B|328:96,2,105
144,200,44904,5,4
232,200,45327,1,4
336,200,45749,1,4
336,200,46172,1,4
336,200,46594,6,0,B|328:40|344:40,1,140
336,200,47862,2,0,B|72:200,1,245
136,216,49763,5,0
264,216,50186,1,0
384,216,50608,1,0
384,48,51242,5,0
256,40,51665,1,0
128,40,52087,1,0
120,160,52510,1,4
112,304,52932,5,0
224,304,53355,1,0
328,304,53777,1,0
328,192,54200,1,4
256,192,54411,12,4,55679
312,120,56101,5,2
200,120,56524,1,2
88,120,56946,1,2
80,240,57369,2,2,B|328:240,1,245
376,264,59270,5,2
376,144,59693,1,2
376,32,60115,1,2
264,40,60538,1,2
264,40,60960,2,2,B|264:296|264:256,1,210
96,200,62862,5,2
192,200,63284,1,2
288,200,63707,1,2
384,192,64129,1,2
384,192,64552,2,2,B|384:32,1,140
360,200,65820,5,0
200,192,66242,1,0
48,192,66665,1,0
48,192,66876,1,0
48,192,67087,1,0
48,192,67299,2,0,B|400:192,1,315
168,200,69622,5,0
272,200,70045,1,0
392,200,70468,1,0
392,200,70890,2,0,B|392:80,2,105
392,280,72580,5,0
256,288,73003,1,0
120,288,73425,1,0
120,160,73848,1,4
440,176,75115,6,4,B|88:240,1,350
184,152,77651,5,4
288,152,78073,1,4
408,144,78496,1,4
408,144,78918,6,0,B|120:256,1,280
184,192,81031,5,0
184,192,81242,1,0
256,192,81453,12,0,82087
