osu file format v14

[General]
AudioFilename: mya.mp3
AudioLeadIn: 2000
PreviewTime: 67183
Countdown: 0
SampleSet: Soft
StackLeniency: 0.7
Mode: 0
LetterboxInBreaks: 0
WidescreenStoryboard: 1

[Editor]
DistanceSpacing: 1.2
BeatDivisor: 4
GridSize: 32
TimelineZoom: 1.2

[Metadata]
Title:Natsukoi Hanabi
TitleUnicode:夏恋花火
Artist:chano & 40mP
ArtistUnicode:シャノ & 40mP
Creator:C O N N E R
Version:Hard
Source:
Tags:chano 40meterp summer festival fireworks kantokun nichiyouki nich95 p_kung xHappy- betsuto [_lost_]
BeatmapID:641227
BeatmapSetID:263975

[Difficulty]
HPDrainRate:5
CircleSize:4
OverallDifficulty:7
ApproachRate:7
SliderMultiplier:1.5
SliderTickRate:1

[Events]
//Background and Video events
0,0,"bg.jpg",0,0
//Break Periods
//Storyboard Layer 0 (Background)
//Storyboard Layer 1 (Fail)
//Storyboard Layer 2 (Pass)
//Storyboard Layer 3 (Foreground)
//Storyboard Sound Samples

[TimingPoints]
348,379.746835443038,4,2,6,30,1,0
348,-200,4,2,6,30,0,0
9461,-100,4,2,1,50,0,0
12499,-100,4,2,1,70,0,0
12594,-100,4,2,1,60,0,0
23322,-100,4,2,1,50,0,0
23702,-100,4,2,1,55,0,0
24082,-100,4,2,1,60,0,0
24462,-100,4,2,1,65,0,0
24651,-100,4,2,1,70,0,0
25031,-100,4,2,1,60,0,0
27689,-100,4,2,2,40,0,0
30158,-125,4,2,1,40,0,0
30537,-125,4,2,1,5,0,0
30727,-125,4,2,1,50,0,0
32056,-125,4,2,1,60,0,0
33765,-100,4,2,1,70,0,0
33860,-100,4,2,1,60,0,0
39841,-100,4,2,1,50,0,0
41360,-125,4,2,1,40,0,0
42689,-125,4,2,1,5,0,0
42879,-125,4,2,1,50,0,0
44208,-125,4,2,1,60,0,0
45917,-100,4,2,1,70,0,0
46012,-100,4,2,1,60,0,0
51993,-166.666666666667,4,2,2,60,0,0
52088,-166.666666666667,4,2,2,50,0,0
58069,-166.666666666667,4,2,2,60,0,0
58164,-166.666666666667,4,2,2,50,0,0
61107,-125,4,2,1,60,0,0
64145,-125,4,2,1,50,0,0
64335,-125,4,2,1,53,0,0
64525,-125,4,2,1,56,0,0
64715,-125,4,2,1,59,0,0
64905,-125,4,2,1,62,0,0
65094,-125,4,2,1,65,0,0
65284,-125,4,2,1,68,0,0
65474,-125,4,2,1,70,0,0
65854,-125,4,2,1,60,0,0
67183,-100,4,2,1,80,0,1
67373,-100,4,2,1,70,0,1
78955,-100,4,2,1,60,0,0
79335,-100,4,2,1,80,0,1
79430,-100,4,2,1,70,0,1
85411,-100,4,2,1,80,0,1
85601,-100,4,2,1,70,0,1
90158,-100,4,2,1,30,0,1
90348,-100,4,2,1,40,0,1
90537,-100,4,2,1,50,0,1
90727,-100,4,2,1,60,0,1
90917,-100,4,2,1,70,0,1
91487,-100,4,2,1,45,0,0

[Colours]
Combo1 : 128,128,192
Combo2 : 255,104,104
Combo3 : 255,230,204
Combo4 : 215,255,255

[HitObjects]
88,52,348,6,0,L|48:36,2,37.5
156,100,917,2,0,P|156:140|144:176,1,75,2|0,0:0|0:0,0:0:0:0:
80,260,1677,2,0,P|112:276|141:307,1,75,2|0,0:0|0:0,0:0:0:0:
212,364,2436,2,0,P|248:356|289:361,1,75,2|0,0:0|0:0,0:0:0:0:
300,368,3385,6,0,L|339:356,2,37.5
236,292,3955,2,0,P|228:248|236:208,1,75,2|0,0:0|0:0,0:0:0:0:
380,204,4715,2,0,P|345:232|307:246,1,75,2|0,0:0|0:0,0:0:0:0:
232,112,5474,2,0,P|266:126|293:151,1,75,2|0,0:0|0:0,0:0:0:0:
304,168,6423,6,0,L|299:125,2,37.5,0|0|0,0:0|0:0|0:0,0:0:0:0:
388,212,6993,2,0,P|392:156|384:128,1,75,2|0,0:0|0:0,0:0:0:0:
476,40,7753,2,0,P|464:80|472:120,1,75,2|0,0:0|0:0,0:0:0:0:
388,212,8512,2,0,P|400:248|396:296,2,75,2|0|2,0:0|0:0|0:0,0:0:0:0:
293,151,9461,1,2,0:0:0:0:
293,151,9841,6,0,L|212:160,1,75,8|0,3:0|0:0,0:0:0:0:
204,172,10411,2,0,L|120:160,1,75,8|0,0:0|0:0,0:0:0:0:
32,80,10791,6,0,P|76:112|60:220,1,150,4|2,0:0|0:0,0:0:0:0:
20,272,11360,1,8,0:0:0:0:
80,340,11550,2,0,B|127:326|127:326|180:328|180:328|232:312,1,150,2|8,0:0|0:0,0:0:0:0:
308,356,12120,1,4,3:0:0:0:
308,356,12499,6,0,P|316:312|308:268,1,75,6|0,0:0|0:0,0:0:0:0:
256,212,12879,1,8,0:0:0:0:
312,140,13069,2,0,L|486:126,1,150,2|2,0:0|0:0,0:0:0:0:
488,40,13639,1,8,0:0:0:0:
400,60,13829,6,0,P|372:128|420:208,1,150,2|2,0:0|0:0,0:0:0:0:
468,252,14398,1,8,0:0:0:0:
392,300,14588,2,0,B|312:312|312:260|216:288,1,150,2|2,0:0|0:0,0:0:0:0:
164,320,15158,2,0,P|120:332|88:332,1,75,8|0,0:0|0:0,0:0:0:0:
68,244,15537,6,0,P|26:224|2:204,1,75,2|0,0:0|0:0,0:0:0:0:
4,116,15917,1,8,0:0:0:0:
92,132,16107,2,0,P|152:136|208:64,1,150,2|2,0:0|0:0,0:0:0:0:
280,20,16677,1,8,0:0:0:0:
344,84,16866,6,0,B|356:124|344:156|344:156|312:188|308:240,1,150,2|2,0:0|0:0,0:0:0:0:
364,296,17436,1,8,0:0:0:0:
444,252,17626,1,8,0:0:0:0:
444,252,17721,1,8,0:0:0:0:
444,252,17816,2,0,P|440:216|448:168,1,75,8|8,0:0|0:0,0:0:0:0:
496,100,18196,1,4,3:0:0:0:
496,100,18575,6,0,P|500:64|492:16,1,75,12|0,1:2|0:0,0:0:0:0:
412,64,18955,2,0,P|376:68|328:60,1,75,8|0,1:2|0:0,0:0:0:0:
248,44,19335,2,0,P|212:40|164:47,1,75,8|2,1:2|0:0,0:0:0:0:
92,12,19715,2,0,P|88:48|95:96,1,75,8|2,1:2|0:0,0:0:0:0:
148,160,20094,6,0,P|88:176|4:104,2,150,8|8|8,1:2|1:2|1:2,0:0:0:0:
236,184,21044,1,2,0:0:0:0:
192,264,21234,2,0,P|188:316|196:356,1,75,8|2,1:2|0:0,0:0:0:0:
272,376,21613,6,0,L|428:336,1,150,8|8,1:2|1:2,0:0:0:0:
460,260,22183,1,0,0:0:0:0:
392,200,22373,2,0,L|312:184,1,75,8|2,1:2|0:0,0:0:0:0:
264,112,22753,1,8,1:2:0:0:
328,48,22942,6,0,B|384:40|426:77|426:77|437:138,1,150,4|8,0:0|0:0,0:0:0:0:
392,200,23512,2,0,L|312:184,1,75,8|8,0:0|0:0,0:0:0:0:
264,112,23892,2,0,L|184:128,1,75,8|8,0:0|0:0,0:0:0:0:
112,80,24272,2,0,L|104:40,3,37.5,8|8|8|8,0:0|0:0|0:0|0:0,0:0:0:0:
104,88,24651,6,0,B|88:144|120:184|120:184|112:216|88:244,1,150,6|8,0:0|0:0,0:0:0:0:
32,288,25221,1,4,3:0:0:0:
104,340,25411,2,0,L|208:320,1,75,0|8,0:0|0:0,0:0:0:0:
256,372,25791,1,8,0:0:0:0:
328,320,25980,6,0,P|361:287|348:172,1,150,0|8,1:0|0:0,0:0:0:0:
270,144,26550,1,8,0:0:0:0:
268,240,26740,2,0,B|344:224|348:264|444:240,1,150,6|8,0:0|3:0,0:0:0:0:
476,176,27310,2,0,P|484:128|472:96,1,75,4|0,3:0|0:0,0:0:0:0:
416,36,27689,5,4,0:0:0:0:
416,36,29208,5,4,0:0:0:0:
416,36,30158,5,8,0:0:0:0:
344,80,30348,2,0,L|280:72,1,60,4|0,3:0|0:0,0:0:0:0:
212,120,30727,6,0,L|87:104,1,120,6|8,0:0|0:0,0:0:0:0:
24,156,31297,2,0,P|4:212|20:272,1,120,2|8,0:0|0:0,0:0:0:0:
76,328,31866,1,8,0:0:0:0:
156,304,32056,6,0,B|220:324|220:288|288:304,1,120,2|8,0:0|0:0,0:0:0:0:
344,352,32626,1,8,0:0:0:0:
412,304,32816,2,0,L|400:176,1,120,2|2,0:0|0:0,0:0:0:0:
456,120,33385,5,8,0:0:0:0:
456,120,33765,2,0,P|400:152|320:116,1,150,6|8,0:0|0:0,0:0:0:0:
264,56,34335,1,0,0:0:0:0:
192,112,34525,2,0,L|200:192,1,75,2|2,0:0|0:0,0:0:0:0:
136,252,34904,2,0,P|96:268|56:260,1,75,8|0,0:0|0:0,0:0:0:0:
88,176,35284,6,0,L|108:336,1,150,2|8,0:0|0:0,0:0:0:0:
184,372,35854,2,0,B|240:376|268:344|268:344|300:356|332:352,1,150,2|2,0:0|0:0,0:0:0:0:
396,300,36423,2,0,L|384:220,1,75,8|0,0:0|0:0,0:0:0:0:
444,160,36803,6,0,L|424:12,1,150,2|8,0:0|0:0,0:0:0:0:
498,56,37373,2,0,P|445:93|354:55,1,150,2|2,0:0|0:0,0:0:0:0:
296,20,37942,1,8,0:0:0:0:
232,84,38132,6,0,P|180:36|92:64,1,150,2|8,0:0|0:0,0:0:0:0:
36,108,38702,1,8,0:0:0:0:
84,184,38892,2,0,B|116:256|60:256|88:332,1,150,2|8,0:0|0:0,0:0:0:0:
168,372,39461,2,0,P|208:376|248:360,1,75,4|0,3:0|0:0,0:0:0:0:
196,284,39841,5,4,0:0:0:0:
196,284,41360,5,4,0:0:0:0:
196,284,42310,5,8,0:0:0:0:
272,248,42499,2,0,L|340:260,1,60,4|0,3:0|0:0,0:0:0:0:
396,312,42879,6,0,P|368:260|384:188,1,120,6|8,0:0|0:0,0:0:0:0:
444,148,43449,2,0,P|472:96|456:24,1,120,2|8,0:0|0:0,0:0:0:0:
388,0,44018,1,8,0:0:0:0:
324,56,44208,6,0,L|196:44,1,120,2|8,0:0|0:0,0:0:0:0:
128,84,44778,1,8,0:0:0:0:
152,164,44968,2,0,B|176:224|132:224|152:296,1,120,2|2,0:0|0:0,0:0:0:0:
92,344,45537,2,0,P|56:336|32:304,1,60,8|0,0:0|0:0,0:0:0:0:
68,236,45917,6,0,L|220:260,1,150,6|8,0:0|0:0,0:0:0:0:
284,316,46487,1,0,0:0:0:0:
360,268,46677,2,0,L|352:192,1,75,2|2,0:0|0:0,0:0:0:0:
416,128,47056,2,0,L|424:52,1,75,8|0,0:0|0:0,0:0:0:0:
508,20,47436,6,0,L|492:177,1,150,2|8,0:0|0:0,0:0:0:0:
441,253,48006,2,0,P|389:273|309:197,1,150,2|2,0:0|0:0,0:0:0:0:
264,148,48575,2,0,P|220:140|184:152,1,75,8|0,0:0|0:0,0:0:0:0:
128,212,48955,6,0,L|152:44,1,150,6|8,0:0|0:0,0:0:0:0:
72,16,49525,2,0,L|48:184,1,150,6|8,0:0|0:0,0:0:0:0:
48,256,50094,1,8,0:0:0:0:
96,332,50284,2,0,P|160:376|248:348,1,150,6|2,0:0|0:0,0:0:0:0:
280,292,50854,5,8,0:0:0:0:
336,224,51044,2,0,P|400:180|488:208,1,150,2|2,0:0|0:0,0:0:0:0:
496,276,51613,2,0,P|456:280|408:256,1,75,8|0,0:0|0:0,0:0:0:0:
336,224,51993,6,0,L|340:124,1,89.9999972534181,4|8,0:0|0:0,0:0:0:0:
288,72,52563,1,0,0:0:0:0:
220,120,52753,2,0,P|196:124|172:120,1,44.999998626709,8|0,0:0|0:0,0:0:0:0:
108,76,53132,2,0,P|84:72|60:76,1,44.999998626709,8|0,0:0|0:0,0:0:0:0:
12,136,53512,6,0,L|8:236,1,89.9999972534181,2|8,0:0|0:0,0:0:0:0:
60,288,54082,1,0,0:0:0:0:
132,248,54272,2,0,P|164:244|184:248,1,44.999998626709,8|0,0:0|0:0,0:0:0:0:
244,292,54651,2,0,P|276:296|296:292,1,44.999998626709,8|0,0:0|0:0,0:0:0:0:
356,232,55031,6,0,L|448:228,1,89.9999972534181,2|8,0:0|0:0,0:0:0:0:
500,164,55601,2,0,P|504:120|488:68,1,89.9999972534181,0|0,0:0|0:0,0:0:0:0:
424,32,56170,2,0,L|360:36,1,44.999998626709,8|0,0:0|0:0,0:0:0:0:
324,92,56550,2,0,L|216:76,1,89.9999972534181,2|8,0:0|0:0,0:0:0:0:
164,36,57120,5,0,0:0:0:0:
164,36,57215,1,0,0:0:0:0:
164,36,57310,2,0,P|152:64|152:84,1,44.999998626709,8|0,0:0|0:0,0:0:0:0:
92,136,57689,2,0,P|100:165|113:180,1,44.999998626709,8|0,0:0|0:0,0:0:0:0:
172,232,58069,6,0,L|280:248,1,89.9999972534181,4|8,0:0|0:0,0:0:0:0:
332,288,58639,2,0,L|440:272,1,89.9999972534181,0|0,0:0|0:0,0:0:0:0:
408,196,59208,2,0,L|344:208,1,44.999998626709,8|0,0:0|0:0,0:0:0:0:
296,160,59588,6,0,P|288:124|292:104,1,44.999998626709,2|0,0:0|0:0,0:0:0:0:
344,56,59968,2,0,P|352:20|348:0,1,44.999998626709,8|0,0:0|0:0,0:0:0:0:
268,20,60348,2,0,L|220:16,1,44.999998626709,8|0,0:0|0:0,0:0:0:0:
156,64,60727,2,0,L|108:68,1,44.999998626709,8|0,0:0|0:0,0:0:0:0:
44,16,61107,6,0,P|28:52|60:136,1,120,2|8,0:0|0:0,0:0:0:0:
112,184,61677,2,0,P|128:220|96:304,1,120,2|8,0:0|0:0,0:0:0:0:
32,336,62246,1,8,0:0:0:0:
28,252,62436,6,0,L|168:280,1,120,2|2,0:0|0:0,0:0:0:0:
212,328,63006,1,0,0:0:0:0:
284,284,63196,2,0,L|424:256,1,120,8|8,0:0|3:0,0:0:0:0:
460,200,63765,2,0,P|460:160|448:128,1,60,4|0,3:0|0:0,0:0:0:0:
378,103,64145,6,0,L|295:121,1,60,0|0,1:0|1:0,0:0:0:0:
241,149,64525,2,0,P|241:181|253:213,1,60,0|0,1:0|1:0,0:0:0:0:
162,104,64904,2,0,P|171:75|170:45,1,60,0|8,1:0|0:0,0:0:0:0:
88,65,65284,1,8,0:0:0:0:
88,65,65474,6,0,B|127:57|127:57|170:65|170:65|232:53,1,120,6|0,0:0|0:0,0:0:0:0:
282,22,66044,1,8,1:2:0:0:
331,90,66234,2,0,P|332:148|297:195,1,120,2|8,0:0|0:0,0:0:0:0:
297,195,67183,6,0,P|289:233|301:273,1,75,6|0,0:0|0:0,0:0:0:0:
362,330,67563,1,8,0:0:0:0:
292,380,67753,2,0,L|208:368,1,75,0|2,0:0|0:0,0:0:0:0:
148,316,68132,2,0,L|64:328,1,75,2|8,0:0|0:0,0:0:0:0:
24,252,68512,6,0,L|188:228,1,150,2|2,0:0|0:0,0:0:0:0:
224,156,69082,1,8,0:0:0:0:
140,124,69272,2,0,B|80:112|56:56|56:56|120:48,1,150,2|2,0:0|0:0,0:0:0:0:
172,12,69841,2,0,L|248:32,1,75,8|0,0:0|0:0,0:0:0:0:
312,92,70221,5,2,0:0:0:0:
388,40,70411,2,0,L|464:20,1,75,0|8,0:0|0:0,0:0:0:0:
512,96,70791,2,0,L|420:120,1,75,0|2,0:0|0:0,0:0:0:0:
372,176,71170,2,0,P|364:224|384:272,1,75,2|8,0:0|0:0,0:0:0:0:
428,320,71550,6,0,P|400:276|300:272,1,150,2|2,0:0|0:0,0:0:0:0:
244,328,72120,1,8,0:0:0:0:
168,276,72310,2,0,L|184:104,1,150,2|2,0:0|0:0,0:0:0:0:
128,56,72879,2,0,P|88:40|48:44,1,75,8|0,0:0|0:0,0:0:0:0:
0,112,73259,5,6,0:0:0:0:
36,196,73449,2,0,L|28:282,1,75,0|8,0:0|0:0,0:0:0:0:
84,340,73829,2,0,P|121:340|155:325,1,75,0|2,0:0|0:0,0:0:0:0:
220,264,74208,2,0,P|257:263|291:278,1,75,2|8,0:0|0:0,0:0:0:0:
344,352,74588,6,0,L|500:332,1,150,2|2,0:0|0:0,0:0:0:0:
508,244,75158,1,8,0:0:0:0:
444,184,75348,2,0,B|436:144|460:100|460:100|472:48|452:12,1,150,2|2,0:0|0:0,0:0:0:0:
380,0,75917,2,0,L|300:8,1,75,8|0,0:0|0:0,0:0:0:0:
260,84,76297,6,0,L|96:60,1,150,2|8,0:0|0:0,0:0:0:0:
32,104,76866,2,0,P|8:156|28:248,1,150,2|2,0:0|0:0,0:0:0:0:
96,300,77436,1,8,0:0:0:0:
160,236,77626,6,0,P|200:228|240:236,1,75,0|2,0:0|0:0,0:0:0:0:
284,308,78006,2,0,P|320:315|357:310,1,75,2|8,0:0|0:0,0:0:0:0:
436,264,78385,2,0,B|408:192|460:192|424:96,1,150,2|8,0:0|0:0,0:0:0:0:
372,48,78955,1,4,3:0:0:0:
372,48,79335,6,0,P|335:40|298:45,1,75,6|0,0:0|0:0,0:0:0:0:
216,76,79715,2,0,P|179:83|142:78,1,75,8|0,0:0|0:0,0:0:0:0:
60,40,80094,2,0,P|52:76|57:113,1,75,2|2,0:0|0:0,0:0:0:0:
128,172,80474,1,8,0:0:0:0:
196,232,80664,6,0,P|224:284|200:376,1,150,2|2,0:0|0:0,0:0:0:0:
144,304,81234,1,8,0:0:0:0:
196,232,81423,2,0,B|252:228|252:228|288:240|288:240|368:236,1,150,2|2,0:0|0:0,0:0:0:0:
420,188,81993,2,0,P|424:152|412:108,1,75,8|0,0:0|0:0,0:0:0:0:
352,48,82373,5,2,0:0:0:0:
288,112,82563,2,0,L|208:104,1,75,0|8,0:0|0:0,0:0:0:0:
156,32,82942,2,0,P|128:84|152:176,1,150,2|2,0:0|0:0,0:0:0:0:
208,236,83512,1,8,0:0:0:0:
156,308,83702,6,0,B|88:320|84:276|9:295,1,150,2|2,0:0|0:0,0:0:0:0:
44,380,84272,1,8,0:0:0:0:
9,296,84461,1,2,0:0:0:0:
9,296,84556,1,0,0:0:0:0:
9,296,84651,2,0,L|17:216,1,75,8|8,0:0|0:0,0:0:0:0:
68,148,85031,1,4,3:0:0:0:
68,148,85411,6,0,P|112:152|152:132,1,75,6|0,0:0|0:0,0:0:0:0:
208,80,85791,2,0,P|239:111|282:121,1,75,8|0,1:2|0:0,0:0:0:0:
356,112,86170,2,0,P|359:156|386:191,1,75,8|2,1:2|0:0,0:0:0:0:
456,224,86550,2,0,P|430:260|427:304,1,75,8|2,1:2|0:0,0:0:0:0:
464,372,86930,6,0,P|376:360|336:288,1,150,8|8,1:2|1:2,0:0:0:0:
276,252,87499,1,0,0:0:0:0:
220,320,87689,2,0,L|140:312,1,75,0|2,1:2|0:0,0:0:0:0:
84,244,88069,2,0,P|80:204|92:160,1,75,8|2,1:2|0:0,0:0:0:0:
148,104,88449,6,0,P|108:136|16:108,2,150,8|8|8,1:2|1:2|1:2,0:0:0:0:
212,40,89398,2,0,P|256:32|300:44,1,75,2|8,0:0|1:2,0:0:0:0:
356,92,89778,6,0,L|352:252,1,150,4|8,0:0|0:0,0:0:0:0:
308,320,90348,2,0,P|268:328|216:308,1,75,8|8,0:0|0:0,0:0:0:0:
168,260,90727,2,0,P|128:252|76:272,1,75,8|8,0:0|0:0,0:0:0:0:
24,316,91107,2,0,L|36:360,3,37.5,8|8|8|8,3:2|3:2|3:2|3:2,0:0:0:0:
0,239,91487,1,4,0:0:0:0:
256,192,91582,12,4,94525,0:0:0:0:
