osu file format v9

[General]
AudioFilename: azul_re.mp3
AudioLeadIn: 0
PreviewTime: 49251
Countdown: 0
SampleSet: Soft
StackLeniency: 0.7
Mode: 0
LetterboxInBreaks: 1

[Editor]
Bookmarks: 15703,59286,65209
DistanceSpacing: 1
BeatDivisor: 4
GridSize: 8

[Metadata]
Title:Azul Remix
Artist:celas&AKITO
Creator:Copter-kun
Version:Normal
Source:BMS
Tags:Lunatic Rave 2 remix IIDX Beatmania Eva Meko Backfire

[Difficulty]
HPDrainRate:2
CircleSize:4
OverallDifficulty:3
ApproachRate:4
SliderMultiplier:1.1
SliderTickRate:1

[Events]
//Background and Video events
Video,1799,"Video.flv"
0,0,"azul_title.jpg"
//Break Periods
2,23065,23162
2,44528,47931
2,88835,97162
//Storyboard Layer 0 (Background)
//Storyboard Layer 1 (Fail)
//Storyboard Layer 2 (Pass)
//Storyboard Layer 3 (Foreground)
//Storyboard Sound Samples
//Background Colour Transformations
3,100,128,128,255

[TimingPoints]
2482,307.692307692308,4,2,0,45,1,0
4870,-100,4,1,0,45,0,0
5334,-100,4,2,0,45,0,0
6803,-100,4,1,0,45,0,0
7662,-100,4,2,0,45,0,0
9827,-100,4,1,0,45,0,0
10059,-100,4,2,0,45,0,0
11064,-100,4,1,0,45,0,0
13384,-100,4,2,0,45,0,0
14775,-100,4,1,0,45,0,0
14875,-100,4,2,0,45,0,0
16554,-100,4,1,0,45,0,0
17464,-100,4,2,0,45,0,0
19692,-100,4,1,0,45,0,0
19956,-100,4,2,0,45,0,0
71363,-100,4,1,0,45,0,0
76209,-100,4,2,0,60,0,0
102593,-100,4,1,0,45,0,0
115670,-100,4,2,0,45,0,0

[Colours]
Combo1 : 240,240,240
Combo2 : 108,107,114
Combo3 : 216,216,216

[HitObjects]
240,80,2482,2,0,B|296:104,2,55,0|0|0
128,88,3097,2,0,B|72:184|72:184,1,110
160,256,3712,2,0,B|224:256|264:224|264:224,2,110
48,264,4635,1,0
88,160,4943,5,12
88,160,5097,1,4
192,288,5558,2,0,B|304:328,1,110
312,208,6174,2,0,B|312:96,2,110
312,320,7097,1,8
216,272,7405,1,12
112,248,7712,6,0,B|24:208|48:88|128:56|128:56,1,220
224,64,8635,2,0,B|360:64|360:64,2,110
112,64,9558,1,0
112,176,9866,6,0,B|112:320,1,110,4|0
224,288,10482,1,0
368,184,11097,6,4,B|368:72|368:72,1,110
280,56,11712,2,8,B|176:96,2,110
280,192,12789,1,4
280,336,13558,6,0,B|136:336|136:336,1,110
128,232,14174,2,0,B|272:232|272:232,1,110
352,232,14789,1,4
184,232,15251,6,0,B|136:232,2,27.5
304,376,16020,2,0,B|192:376,1,110
96,320,16635,2,4,B|88:216|216:144|216:144|216:144,1,220
272,56,17558,5,0
368,112,17866,2,0,B|368:240,1,110
256,232,18482,2,0,B|184:264,2,55,8|0|0
360,264,19097,1,0
360,152,19405,1,0
248,136,19712,2,4,B|136:136|136:136,1,110,4|0
136,248,20328,1,0
352,200,20943,5,8
352,88,21251,1,0
240,88,21558,2,8,B|128:128|128:128,1,110
160,232,22174,1,0
344,312,22789,2,6,B|392:312|392:312,1,27.5,0|0
168,104,24482,5,0
168,104,24635,2,0,B|304:104,1,105,0|8
312,192,25251,2,0,B|224:280,1,110,0|8
120,272,25866,2,0,B|208:344,2,110,0|8|0
120,160,26789,1,8
192,72,27097,6,0,B|320:72,1,110,0|8
400,128,27712,2,0,B|312:240|312:240,1,110,0|8
224,248,28328,2,0,B|168:248,2,55,0|0|8
336,248,28943,2,0,B|336:128,1,110,0|8
248,64,29558,5,4
216,168,29866,2,0,B|96:168,1,110,8|0
80,216,30328,2,0,B|40:256,1,55,0|8
144,288,30789,2,0,B|200:288,2,55
216,200,31405,2,0,B|272:200,2,55,0|0|8
104,192,32020,6,0,B|104:80,1,110,2|8
216,88,32635,1,0
328,88,32943,1,8
296,192,33251,2,0,B|256:232,2,55,4|0|8
320,240,33712,2,0,B|384:168|384:168,1,55,4|0
344,88,34174,6,0,B|216:88|216:88,1,110,8|0
128,112,34789,2,0,B|64:160,2,55,0|0|0
224,168,35405,1,8
128,216,35712,2,0,B|128:328,1,110,0|8
240,328,36328,2,0,B|352:328|352:328|352:328,1,110,0|8
360,216,36943,6,0,B|432:184|448:96|344:24,1,220
256,40,37866,1,8
184,120,38174,2,0,B|128:120,2,55,0|0|8
280,176,38789,2,0,B|280:304,1,110,0|8
168,272,39405,6,0,B|88:192|88:192,1,110,0|8
120,88,40020,2,0,B|232:88,1,110,0|8
336,120,40635,2,0,B|424:232,1,110,0|8
376,312,41251,2,0,B|264:312,1,110,0|8
192,224,41866,5,4
272,152,42174,2,0,B|328:152,2,55
272,40,42789,1,8
168,72,43097,2,0,B|112:104,4,55,4|0|0|0|4
96,160,44020,1,4
168,240,44328,1,8
128,80,49251,6,0,B|256:80|256:80,2,110,4|8|0
128,192,50174,1,8
128,304,50482,2,0,B|256:304|256:304,2,110,0|8|0
128,192,51405,1,8
240,184,51712,6,0,B|304:96,1,110,0|8
416,112,52328,2,0,B|472:112|472:112,2,55,0|0|8
424,224,52943,1,0
304,224,53252,1,8
200,192,53558,2,0,B|128:144|128:144,1,55
112,128,53866,1,8
80,24,54175,6,0,B|24:56|24:128|112:104,3,110,0|8|0|8
88,216,55405,2,0,B|232:216|232:216,1,110
144,120,56021,2,0,B|264:120,1,110,0|8
304,24,56636,5,0
408,56,56942,1,8
304,88,57250,1,0
408,120,57558,1,8
336,200,57865,5,4
336,256,58019,1,0
336,312,58173,1,8
232,272,58482,2,0,B|88:272|88:272,1,110,0|8
152,168,59098,6,0,B|216:168|216:168|264:208,2,110,0|8|0
40,168,60020,1,8
104,256,60328,2,8,B|232:256|232:256,1,110,0|8
328,248,60943,1,0
328,192,61097,1,0
328,136,61251,1,8
248,64,61558,6,0,B|128:64,1,110,0|8
88,160,62174,2,0,B|40:272,1,110,0|8
152,224,62789,2,0,B|296:224|296:224,2,110,0|8|0
40,224,63712,1,8
128,288,64020,5,4
184,288,64174,1,0
240,288,64328,1,8
328,224,64635,1,0
328,168,64789,1,0
328,112,64943,1,8
216,104,65251,6,0,B|128:120,2,55,0|0|8
224,216,65866,2,0,B|368:280,1,110,0|8
416,200,66482,6,0,B|416:72,1,110,4|0
360,88,66943,1,2
304,88,67097,1,2
208,144,67405,1,0
208,256,67712,6,0,B|264:256,4,55,0|0|8|0|0
320,256,68635,1,8
384,168,68943,2,0,B|440:56|440:56,1,110,0|8
328,48,69558,2,0,B|208:48|208:48,1,110,0|8
128,120,70174,5,0
88,160,70328,1,0
48,200,70482,1,0
96,304,70789,2,0,B|232:304,1,110
192,192,71405,6,0,B|280:160|288:96|288:96|368:96,1,220,8|0
376,208,72328,1,8
320,304,72635,1,0
264,304,72789,1,0
208,304,72943,1,8
96,288,73251,2,0,B|96:144,1,110,0|8
200,136,73866,6,0,B|312:96,1,110,0|8
336,208,74483,2,0,B|336:320,1,110,0|8
240,272,75098,5,0
184,272,75252,1,0
128,272,75406,1,0
112,160,75712,1,0
152,120,75866,1,0
192,80,76020,1,0
304,80,76329,6,2,B|336:128|336:128,1,55,4|0
352,176,76636,2,0,B|320:232,1,55
296,272,76944,2,2,B|360:304|360:304,1,55
296,328,77252,2,0,B|240:328,1,55
200,296,77559,2,0,B|200:184,3,110,4|8|0|8
240,80,78790,6,0,B|352:80,1,110,0|8
360,192,79405,1,0
304,192,79559,1,0
248,192,79712,1,0
136,176,80020,6,0,B|88:224|88:224,1,55
128,264,80328,2,0,B|176:304|176:304,1,55
224,304,80635,1,0
280,304,80789,1,0
336,304,80943,1,8
312,200,81251,6,0,B|312:64,1,110,0|8
200,88,81866,2,0,B|72:88|72:88,1,110,0|8
80,200,82482,2,0,B|80:256,2,55,0|0|8
192,200,83097,1,4
304,200,83405,1,8
384,120,83712,6,8,B|384:248,1,110,0|8
336,328,84328,2,0,B|224:328,1,110,0|8
128,272,84943,2,0,B|96:216,2,55,0|0|8
208,192,85558,1,0
208,192,85866,1,8
224,80,86174,6,0,B|312:80,1,55,4|0
384,112,86635,2,0,B|384:232,2,110
352,152,87405,2,2,B|216:152,1,110
320,232,88020,2,2,B|200:232,1,110,10|2
128,312,88635,1,4
216,112,98482,5,8
152,200,98789,2,0,B|288:200|288:200,1,110,0|2
368,192,99405,1,0
384,304,99712,2,2,B|136:304|136:304,2,220
376,192,101252,5,0
264,192,101559,1,2
160,192,101867,2,0,B|96:192,1,55
136,144,102175,2,0,B|136:64|224:120|224:120|352:120,1,220,2|0
376,120,102944,2,0,B|440:120,1,55,0|4
416,232,103405,6,0,B|304:232,1,110,4|0
192,232,104020,2,0,B|128:232,2,55,4|0|0
200,120,104635,2,0,B|200:56,2,55,4|0|0
312,120,105251,2,0,B|368:120,2,55,4|0|0
240,200,105866,6,0,B|120:200|120:200,1,110
128,312,106481,2,0,B|240:312|240:312,1,110
256,192,106943,12,0,108327
200,24,108635,5,0
112,104,108943,2,0,B|256:104|256:104,1,110
232,216,109558,2,0,B|160:200|104:256|104:256,3,110
120,344,110789,2,0,B|136:320|184:296|240:328,1,110
328,312,111405,2,0,B|376:312|376:312|376:240|376:240,1,110
328,152,112020,2,0,B|392:64|248:40|48:40,1,330
88,152,113252,6,0,B|88:216|88:216,2,55
200,152,113867,2,0,B|248:152,2,55
136,240,114482,2,0,B|176:288|208:280|272:280,1,110
344,280,115098,2,0,B|416:280|416:280,2,55
336,168,115713,6,0,B|336:88,2,55,4|0|4
224,168,116328,2,0,B|96:168,1,110,0|8
24,232,116943,2,0,B|88:264|8:288|120:296,4,110,0|8|4|0|4
16,120,118481,6,2,B|72:80,1,55
112,56,118789,2,8,B|208:24|280:32|344:72|344:72,1,220
320,176,119712,1,0
320,272,120020,2,0,B|248:272,2,55,8|0|8
408,208,120635,6,0,B|296:208,1,110,4|0
184,208,121252,2,0,B|72:208,1,110,4|0
96,96,121866,2,0,B|168:72,2,55,8|0|8
112,208,122482,2,0,B|168:240|248:200,1,110
224,104,123098,5,0
336,104,123406,1,8
448,104,123713,1,0
448,216,124021,1,8
336,224,124328,2,0,B|304:160|272:232|240:160,1,110,0|8
184,80,124943,2,0,B|152:144|120:72|88:144,1,110,0|8
144,224,125559,6,0,B|224:224|224:224,1,55
312,224,126020,2,0,B|392:224|392:312|392:312,2,110
256,192,126789,12,0,127866
256,192,128328,5,4
