osu file format v9

[General]
AudioFilename: azul_re.mp3
AudioLeadIn: 0
PreviewTime: 49174
Countdown: 0
SampleSet: Soft
StackLeniency: 0.7
Mode: 0
LetterboxInBreaks: 1

[Editor]
Bookmarks: 15703,59286,65209
DistanceSpacing: 1
BeatDivisor: 4
GridSize: 8

[Metadata]
Title:Azul Remix
Artist:celas&AKITO
Creator:Copter-kun
Version:Maniac
Source:BMS
Tags:Lunatic Rave 2 remix IIDX Beatmania Eva Meko Backfire

[Difficulty]
HPDrainRate:6
CircleSize:4
OverallDifficulty:7
ApproachRate:8
SliderMultiplier:2.1
SliderTickRate:0.5

[Events]
//Background and Video events
Video,1799,"Video.flv"
0,0,"azul_title.jpg"
//Break Periods
2,23040,23655
2,44528,48501
2,88835,97732
//Storyboard Layer 0 (Background)
//Storyboard Layer 1 (Fail)
//Storyboard Layer 2 (Pass)
//Storyboard Layer 3 (Foreground)
//Storyboard Sound Samples
//Background Colour Transformations
3,100,72,72,72

[TimingPoints]
2482,307.692307692308,4,2,0,45,1,0
4870,-100,4,1,0,45,0,0
5334,-100,4,2,0,45,0,0
6803,-100,4,1,0,45,0,0
7662,-100,4,2,0,45,0,0
9827,-100,4,1,0,45,0,0
10059,-100,4,2,0,45,0,0
11064,-100,4,1,0,45,0,0
13384,-100,4,2,0,45,0,0
14775,-100,4,1,0,45,0,0
14875,-100,4,2,0,45,0,0
16554,-100,4,1,0,45,0,0
17464,-100,4,2,0,45,0,0
19692,-100,4,1,0,45,0,0
19956,-100,4,2,0,45,0,0
24363,-100,4,2,0,65,0,0
71363,-100,4,1,0,45,0,0
76209,-100,4,2,0,60,0,0
102593,-100,4,1,0,45,0,0
115670,-100,4,2,0,45,0,0

[Colours]
Combo1 : 240,240,240
Combo2 : 108,107,114
Combo3 : 216,216,216

[HitObjects]
80,112,2482,1,8
96,128,2558,1,0
112,144,2635,1,8
128,160,2712,2,0,B|208:160,1,52.5
480,48,3558,5,0
480,128,3712,2,0,B|480:232,2,105
408,128,4174,1,0
336,128,4328,2,0,B|336:240,2,105
264,128,4789,1,0
200,168,4943,6,8,B|96:168,1,105
16,256,5405,1,0
16,280,5482,1,0
16,304,5558,1,0
16,328,5635,1,0
40,120,6020,5,0
72,200,6174,1,0
144,240,6328,1,0
224,232,6482,2,0,B|280:232|280:160,1,105
184,24,6943,1,4
264,24,7097,2,4,B|376:24,1,105
424,88,7405,1,8
448,168,7558,1,8
472,264,7712,6,0,B|448:288|368:288,1,105
328,320,8020,2,0,B|288:320|248:232,1,105
200,256,8328,2,0,B|120:192|168:136,1,105
152,120,8635,2,8,B|168:64|240:72,1,105
288,64,8943,2,8,B|312:48|400:48,1,105
440,48,9251,2,0,B|440:160,1,105,0|4
440,208,9558,2,4,B|440:312,1,105
440,368,9866,5,4
184,304,10328,1,0
184,304,10482,1,0
136,200,11097,6,4,B|144:80|304:88,1,210
304,8,11712,1,4
328,8,11789,1,0
352,8,11866,1,0
376,8,11943,1,4
400,8,12020,1,0
424,8,12097,1,0
448,8,12174,1,4
464,88,12328,5,0
464,112,12405,1,4
464,136,12482,1,0
464,160,12558,1,4
464,184,12635,1,0
400,232,12789,5,0
64,288,13405,1,0
96,208,13558,2,0,B|-8:144,3,105
32,104,14174,2,0,B|80:8,3,105
128,56,14789,1,4
360,56,15251,5,0
368,80,15328,1,0
376,104,15405,1,0
384,128,15482,1,0
416,328,15866,1,0
360,328,16020,2,0,B|248:328|248:328,1,105
200,328,16328,2,0,B|96:328,1,105
160,248,16635,1,4
160,248,16789,1,4
56,248,16943,1,4
56,248,17097,1,4
16,152,17251,5,0
120,152,17405,1,0
224,152,17558,1,2
280,152,17712,1,0
336,152,17866,1,2
384,168,18020,1,0
416,208,18174,1,2
400,256,18328,1,0
360,288,18482,1,10
312,312,18635,5,0
256,312,18789,1,2
200,312,18943,1,0
144,312,19097,2,2,B|144:200,3,105
64,208,19712,1,4
320,104,20174,1,2
320,104,20327,1,2
512,128,20943,6,10,B|520:240|440:320,1,210
376,320,21558,1,10
352,320,21635,1,0
328,320,21712,1,0
304,320,21789,1,0
280,320,21866,1,10
256,320,21943,1,0
232,320,22020,1,0
208,320,22097,1,0
184,320,22174,1,14
144,112,22789,1,2
168,112,22840,1,2
256,192,24405,5,0
136,288,24635,2,0,B|248:288,1,105,2|0
320,360,24943,2,0,B|320:232|320:232,1,105,10|0
408,312,25251,2,2,B|408:200,1,105,0|0
464,120,25558,1,8
256,136,25866,2,2,B|208:32|24:64,1,210,2|10
16,256,26482,2,2,B|80:360|192:344,1,210,2|10
208,176,27097,2,0,B|456:176,1,210,0|8
416,176,27712,1,0
248,176,28020,1,8
392,0,28327,5,2
240,40,28481,1,0
384,96,28635,1,10
232,128,28789,1,0
376,200,28942,2,0,B|336:296,1,105
208,208,29250,2,0,B|160:304,1,105,8|0
304,368,29558,1,4
32,368,29866,1,4
64,200,30174,6,0,B|104:96,2,105,0|0|8
160,152,30635,1,0
216,64,30789,2,0,B|360:64,1,105,0|0
272,160,31097,2,0,B|424:160,1,105,8|0
336,256,31405,2,0,B|192:256,1,105
280,352,31712,2,0,B|168:352,1,105,8|0
112,272,32020,1,4
112,64,32328,1,4
360,40,32635,5,0
360,168,32789,1,0
360,296,32943,1,0
112,296,33251,1,4
112,48,33558,1,4
368,48,33866,6,4,B|368:184,1,105
368,256,34174,2,4,B|368:368,1,105
296,224,34558,1,0
280,200,34636,1,0
264,176,34713,1,0
248,152,34790,1,0
232,128,34867,1,0
216,104,34944,1,0
192,88,35020,1,0
168,64,35097,6,2,B|144:120,1,52.5
136,144,35251,2,2,B|152:192,1,52.5
160,224,35405,2,2,B|200:280,1,52.5
208,288,35558,2,2,B|272:304,1,52.5
288,296,35712,1,0
320,288,35789,1,0
344,264,35866,1,0
368,240,35942,1,0
376,216,36020,6,2,B|400:168,3,52.5
392,144,36328,2,2,B|376:72,3,52.5
352,88,36635,2,2,B|312:56,3,52.5
264,32,36943,1,4
56,32,37251,1,4
312,32,37558,5,2
152,32,37712,1,2
312,104,37866,1,2
152,104,38020,1,2
232,240,38174,2,4,B|232:352|64:352,1,210
200,352,38790,5,2
360,352,38944,1,2
200,280,39097,1,2
360,280,39251,1,2
472,96,39405,5,4
440,104,39482,1,0
416,120,39558,1,0
392,144,39635,1,0
376,176,39712,1,4
360,200,39789,1,0
488,152,40020,5,4
464,168,40097,1,0
440,192,40174,1,0
416,216,40251,1,0
400,240,40328,1,4
384,264,40405,1,0
496,216,40635,5,4
472,240,40712,1,0
456,264,40789,1,0
440,288,40866,1,0
416,312,40942,1,4
384,304,41019,1,0
352,288,41096,1,0
320,272,41173,1,0
288,256,41250,1,4
256,264,41327,1,0
232,288,41405,5,0
200,280,41482,1,0
176,264,41557,1,4
144,272,41634,1,0
120,288,41711,1,4
96,280,41789,1,0
72,272,41866,1,8
272,176,42174,1,8
112,192,42482,5,2
112,88,42635,1,2
208,48,42789,1,2
16,232,43174,5,0
152,304,43404,1,2
256,304,43558,1,2
280,200,43711,2,0,B|192:200|168:272,1,105
288,200,44019,2,0,B|392:200|408:272,1,105
368,328,44328,1,4
88,88,49251,6,2,B|296:88,1,210
304,328,49866,2,2,B|72:328,1,210
200,144,50482,1,2
120,216,50635,1,8
224,248,50789,1,8
224,248,51097,1,2
120,216,51251,1,8
200,144,51405,1,8
328,48,51713,5,4
120,40,52021,1,4
328,136,52329,1,0
328,168,52405,1,0
328,200,52482,1,0
328,304,52636,1,2
128,120,52943,6,0,B|200:104|200:184,1,105
136,256,53251,2,0,B|144:296|224:320|256:256,1,105
328,280,53558,1,2
360,280,53635,1,2
392,280,53712,1,2
392,176,53865,1,8
248,80,54174,5,4
272,88,54251,1,0
296,96,54328,1,0
216,168,54482,1,4
240,176,54558,1,0
264,184,54635,1,0
424,224,54789,2,0,B|424:72,1,105
336,64,55097,2,0,B|192:96,1,105
216,192,55405,6,0,B|296:192|296:192|296:232,2,105
216,296,55866,1,0
128,264,56020,2,0,B|48:264|48:264|48:304|48:304,2,105
144,160,56481,1,0
176,64,56635,6,2,B|272:144|272:144|272:144,1,105
168,192,56943,2,0,B|88:112,1,105
184,64,57251,2,2,B|96:128,1,105
176,192,57558,2,0,B|288:96,1,105
336,64,57865,1,4
296,64,57942,1,0
264,64,58019,1,0
264,64,58173,1,4
472,104,58482,6,0,B|312:272,1,210
224,264,58943,1,2
120,248,59097,2,0,B|120:168,3,52.5
128,168,59404,2,0,B|176:136|176:136,3,52.5
192,128,59711,2,0,B|256:128,3,52.5
272,120,60019,2,0,B|336:136,3,52.5
368,112,60328,2,8,B|368:320,1,210
160,320,60943,2,8,B|160:104,1,210
312,256,61558,1,4
104,224,61866,1,4
192,168,62020,6,0,B|192:288,1,105
120,200,62328,2,0,B|120:88,1,105
296,208,62789,1,0
264,224,62866,1,0
240,240,62942,1,0
136,280,63097,2,0,B|136:128,1,105
232,32,63558,1,2
336,48,63712,1,2
264,120,63866,1,2
144,80,64097,5,0
152,120,64174,1,0
160,160,64251,1,0
168,200,64328,1,0
176,240,64405,1,0
184,280,64481,1,0
208,120,64634,5,0
216,152,64711,1,0
224,184,64788,1,0
232,216,64865,1,0
240,248,64942,1,0
248,280,65020,1,0
272,144,65174,5,0
280,176,65251,1,0
288,208,65328,1,0
296,240,65406,1,0
304,272,65482,1,0
312,304,65559,1,0
328,336,65636,1,0
360,328,65713,5,0
352,296,65790,1,0
336,264,65867,1,0
328,232,65943,1,0
320,200,66020,1,0
312,168,66097,1,0
304,136,66174,1,0
280,112,66327,1,0
80,192,66482,5,2
200,32,66789,2,0,B|352:32,1,105,8|0
357,32,67097,1,4
280,144,67328,1,0
424,288,67712,5,4
232,232,67866,2,8,B|128:232,1,105
136,32,68174,1,8
136,32,68328,1,2
136,32,68635,1,2
232,32,68866,5,0
232,32,68943,1,0
232,32,69020,1,0
136,80,69174,1,0
136,80,69251,1,0
136,80,69328,1,0
152,184,69482,5,0
152,184,69558,1,0
152,184,69634,1,0
80,256,69789,1,0
80,256,69866,1,0
80,256,69943,1,0
176,304,70097,5,0
176,304,70174,1,0
176,304,70251,1,0
280,320,70405,1,0
280,320,70482,1,0
280,320,70558,1,0
232,224,70712,1,0
232,224,70789,1,0
232,224,70866,1,0
128,208,71020,1,0
128,208,71097,1,0
128,208,71174,1,0
16,336,71405,5,8
320,336,71712,1,8
320,136,72020,1,4
320,136,72174,1,4
320,136,72328,1,4
56,48,72635,2,0,B|56:256,1,210
440,144,73251,1,0
440,144,73405,1,4
440,144,73558,1,0
440,144,73635,1,4
424,192,73712,5,0
408,240,73866,2,0,B|176:240|176:240,1,210
48,248,74481,1,0
48,216,74558,1,0
48,184,74635,1,0
336,104,74789,1,0
24,352,75097,6,0,B|240:352,1,210
416,120,75712,1,0
384,120,75789,1,0
352,120,75866,1,0
208,96,76019,1,0
296,328,76328,6,8,B|368:328,1,52.5
96,328,76635,2,8,B|32:328,1,52.5
288,256,76943,2,8,B|344:256,1,52.5
88,256,77251,2,8,B|24:256,1,52.5
96,184,77558,2,4,B|96:48,1,105
248,80,77866,2,2,B|368:80,1,105
352,232,78174,2,4,B|352:336,1,105
200,336,78482,2,2,B|80:336,1,105
160,192,78789,5,8
320,184,79020,2,4,B|448:184,1,105
384,336,79405,1,2
360,336,79482,1,2
336,336,79559,1,2
192,280,79712,1,2
112,168,80020,6,0,B|256:168,1,105
208,64,80328,2,0,B|336:64,1,105
416,72,80635,1,8
416,176,80789,1,8
416,280,80943,1,8
312,280,81097,1,8
304,192,81251,5,0
272,192,81328,1,0
240,192,81405,1,0
120,264,81558,2,0,B|120:144,1,105
208,88,81866,1,0
240,88,81943,1,0
272,88,82020,1,0
304,88,82096,1,0
336,88,82173,1,0
336,120,82250,1,0
336,152,82327,1,0
368,360,82482,6,2,B|216:360,1,105
256,304,82789,1,8
256,304,82943,1,8
360,120,83251,2,0,B|416:120|440:168|392:216,2,105
304,136,83674,5,0
272,136,83790,1,0
240,136,83867,1,0
208,136,83944,1,0
176,136,84021,1,0
144,144,84098,1,0
120,160,84174,1,0
96,176,84251,1,0
72,200,84328,1,0
72,232,84405,1,0
88,256,84482,1,0
112,280,84558,1,0
144,280,84635,1,0
176,280,84712,1,0
208,280,84789,1,0
240,280,84866,1,0
216,328,84943,6,2,B|328:328,1,105
304,256,85251,2,2,B|408:256,1,105
416,152,85558,2,2,B|296:152,1,105
272,56,85866,2,2,B|144:56,1,105
88,128,86174,6,8,B|200:128,1,105
192,128,86635,2,2,B|391:208|391:208,1,210
392,208,87174,1,0
360,160,87405,5,0
328,160,87482,1,0
296,160,87559,1,0
264,168,87636,1,0
232,176,87713,1,0
200,192,87789,1,0
176,208,87866,1,0
160,232,87943,1,0
136,256,88097,1,0
128,288,88174,1,0
144,312,88250,1,0
176,328,88327,1,0
200,344,88404,1,0
232,344,88481,1,0
264,344,88558,1,0
296,344,88635,1,4
128,304,98482,6,0,B|56:152|200:64|400:96,1,420
304,200,99405,1,0
176,248,99712,2,0,B|72:248,2,105
336,256,100328,1,8
336,256,100635,1,8
160,56,100943,6,0,B|376:56|376:56|376:64,1,210
192,168,101558,2,0,B|424:168,1,210
216,264,102174,2,0,B|464:264,1,210
232,344,102789,1,0
176,344,102866,1,2
120,344,102943,1,0
56,264,103097,2,8,B|56:120,1,105
104,80,103405,6,0,B|240:80,1,105
128,144,103712,2,0,B|248:144,1,105
152,208,104020,2,0,B|288:208,1,105
176,272,104328,2,0,B|312:272,1,105
272,168,104635,2,0,B|344:168|336:96,2,105
272,272,105097,1,4
272,376,105251,2,0,B|168:376|184:296|184:296,2,105
272,272,105712,1,4
368,224,105866,5,4
384,16,106174,1,4
176,16,106482,1,4
176,224,106789,1,4
344,104,107097,2,4,B|432:168,1,105
328,192,107405,2,4,B|240:256,1,105
344,272,107712,2,4,B|392:312,7,52.5
296,248,108328,5,0
296,248,108405,1,0
296,248,108482,1,0
264,144,108635,1,0
264,144,108713,1,0
264,144,108789,1,0
160,112,108943,1,0
160,112,109020,1,0
160,112,109097,1,0
88,192,109251,1,0
88,192,109328,1,0
88,192,109405,1,0
128,288,109559,5,0
128,288,109636,1,0
128,288,109712,1,0
232,296,109866,1,0
232,296,109943,1,0
232,296,110020,1,0
312,232,110174,1,0
312,232,110251,1,0
312,232,110328,1,0
216,200,110482,1,0
216,200,110559,1,0
216,200,110635,1,0
112,208,110789,6,0,B|40:144|48:64|152:72,3,210
448,336,112020,2,0,B|296:336,1,105
144,336,112328,2,0,B|288:336,1,105
440,272,112635,2,0,B|320:272,1,105
136,272,112943,2,0,B|248:272,1,105
272,192,113174,5,0
272,192,113251,1,0
272,192,113328,1,0
160,56,113558,2,0,B|368:56,1,210
184,136,114020,2,0,B|264:136|264:136|264:184,1,105
352,264,114482,5,0
352,264,114559,1,0
352,264,114636,1,0
432,200,114789,1,0
264,72,115097,2,0,B|168:80|256:168,2,105
112,88,115789,5,8
112,88,115866,1,8
152,176,116097,1,8
152,176,116174,1,8
216,248,116405,1,8
216,248,116482,1,8
296,296,116712,1,8
296,296,116789,1,8
344,256,117020,6,0,B|400:256|400:256|400:200|400:200,1,105,4|0
344,176,117328,2,0,B|240:176|240:176,1,105
176,176,117635,2,0,B|176:72,1,105
240,72,117943,2,0,B|296:72|296:72|344:104,1,105
432,104,118174,5,2
432,136,118251,1,2
432,168,118328,1,2
336,208,118482,1,8
336,208,118635,1,8
248,272,118789,2,2,B|168:272,2,52.5
96,224,119174,1,0
72,120,119328,5,4
112,120,119405,1,4
152,120,119482,1,4
312,112,119712,2,2,B|312:232,1,105
304,320,120020,2,2,B|376:320|376:320|376:240,1,105
392,184,120328,2,2,B|392:72,1,105
288,88,120635,5,4
288,128,120712,1,4
288,168,120789,1,4
240,264,120943,1,8
152,320,121097,1,8
88,240,121251,1,2
88,200,121328,1,2
88,160,121405,1,2
168,88,121558,1,0
272,88,121712,1,0
376,96,121866,6,8,B|376:216,1,105
296,136,122174,2,8,B|296:272,1,105
88,192,122635,2,4,B|32:200|16:240|16:240|64:256,2,105
240,240,123174,6,0,B|304:232,2,52.5
184,248,123405,2,0,B|104:264,2,52.5
192,200,123636,2,0,B|176:128,2,52.5
216,272,123866,2,0,B|232:320,3,52.5
352,304,124328,2,4,B|432:304|432:304|432:240,1,105
432,176,124635,2,8,B|432:120|432:120|352:96,1,105
280,112,124943,2,4,B|224:112|224:112|264:160,1,105
216,248,125251,2,8,B|216:304|216:304|272:304,1,105
160,192,125558,5,2
160,192,125712,1,2
88,336,125943,2,0,B|232:344|232:344|328:264,1,262.5
320,272,126482,1,0
264,128,126712,5,0
296,128,126790,1,0
328,128,126867,1,0
360,128,126943,1,0
384,144,127020,1,0
408,168,127097,1,0
424,200,127174,1,0
432,232,127251,1,0
432,264,127328,1,0
424,296,127405,2,0,B|368:336,3,52.5
352,344,127712,2,0,B|304:360,2,52.5
256,96,128328,5,4
