osu file format v9

[General]
AudioFilename: azul_re.mp3
AudioLeadIn: 0
PreviewTime: 49251
Countdown: 0
SampleSet: Soft
StackLeniency: 0.7
Mode: 0
LetterboxInBreaks: 1

[Editor]
Bookmarks: 15703,59286,65209
DistanceSpacing: 0.6
BeatDivisor: 2
GridSize: 16

[Metadata]
Title:Azul Remix
Artist:celas&AKITO
Creator:Copter-kun
Version:Easy
Source:BMS
Tags:Lunatic Rave 2 remix IIDX Beatmania Eva Meko Backfire

[Difficulty]
HPDrainRate:1
CircleSize:3
OverallDifficulty:1
ApproachRate:1
SliderMultiplier:0.9
SliderTickRate:1

[Events]
//Background and Video events
Video,1799,"Video.flv"
0,0,"azul_title.jpg"
//Break Periods
2,44528,47571
2,88835,96802
//Storyboard Layer 0 (Background)
//Storyboard Layer 1 (Fail)
//Storyboard Layer 2 (Pass)
//Storyboard Layer 3 (Foreground)
//Storyboard Sound Samples
//Background Colour Transformations
3,100,72,72,72

[TimingPoints]
2482,307.692307692308,4,2,0,45,1,0
4870,-100,4,1,0,45,0,0
5334,-100,4,2,0,45,0,0
6803,-100,4,1,0,45,0,0
7662,-100,4,2,0,45,0,0
9827,-100,4,1,0,45,0,0
10059,-100,4,2,0,45,0,0
11064,-100,4,1,0,45,0,0
13384,-100,4,2,0,45,0,0
14775,-100,4,1,0,45,0,0
14875,-100,4,2,0,45,0,0
16554,-100,4,1,0,45,0,0
17464,-100,4,2,0,45,0,0
19692,-100,4,1,0,45,0,0
19956,-100,4,2,0,45,0,0
76209,-100,4,2,0,60,0,0
102593,-100,4,1,0,45,0,0
108293,-100,4,2,0,60,0,0
115670,-100,4,2,0,45,0,0

[Colours]
Combo1 : 240,240,240
Combo2 : 108,107,114
Combo3 : 216,216,216

[HitObjects]
176,200,2482,2,0,B|272:200|272:200|296:200,1,90
32,64,3712,6,0,B|152:48|152:48,3,90
128,104,4943,1,0
128,208,5558,1,0
200,288,6174,6,0,B|312:232|248:104,1,180
360,96,7405,1,8
256,64,8020,6,0,B|64:64,1,180
56,168,9251,2,0,B|56:280|176:280|176:280,1,180
256,216,10482,1,0
224,112,11097,6,0,B|40:112,2,180,0|8|8
304,112,12789,1,4
288,248,13558,6,0,B|96:288,2,180,0|0|4
376,192,15405,1,0
312,80,16020,2,0,B|216:56|96:96,1,180,0|12
160,192,17251,1,8
256,248,17866,5,2
344,192,18482,1,8
256,128,19097,1,2
176,200,19712,6,0,B|24:296|24:296,1,180,4|0
64,192,20943,1,8
64,80,21558,1,8
176,80,22174,1,0
256,88,22789,1,6
488,312,24635,6,0,B|280:312,1,180
208,272,25866,2,0,B|64:272|64:128|176:128,1,180
240,160,27097,2,0,B|448:160,1,180
376,64,28328,2,0,B|296:8|168:56,1,180
144,128,29558,1,4
240,184,30174,5,0
328,240,30789,1,0
240,304,31405,1,0
152,240,32020,5,4
112,136,32635,1,0
192,64,33251,2,4,B|344:64|344:64,1,135
368,136,34174,1,0
368,192,34482,5,8
272,248,35097,1,8
160,248,35712,2,0,B|64:248|64:248,4,90,8|0|8|0|4
208,152,37558,5,0
312,152,38174,1,2
312,256,38789,1,4
224,320,39405,6,4,B|88:200|88:200|88:200,1,180
136,104,40635,2,0,B|232:104,4,90,0|8|0|8|2
128,216,42482,5,0
232,216,43097,2,0,B|424:216,1,180,4|0
376,112,44328,1,4
88,112,49251,5,4
192,112,49866,1,2
296,112,50482,2,0,B|296:304,1,180
192,264,51712,5,0
128,176,52328,1,2
136,72,52943,2,0,B|336:72,1,180
424,72,54174,5,4
368,168,54789,2,4,B|304:120|280:192|232:136|208:208|160:152,1,180,2|0
104,232,56020,1,2
104,128,56635,5,8
216,128,57251,2,0,B|224:8|272:160|296:8|328:160|376:24|376:24,1,180,0|4
392,136,58328,1,2
408,272,59097,6,0,B|216:328,1,180
136,288,60328,2,0,B|0:168|0:168|0:168,1,180
88,112,61558,2,0,B|280:112,2,180,0|8|0
136,208,63405,1,8
240,208,64020,6,0,B|424:208,1,180,4|0
408,104,65251,2,0,B|344:16|224:64|224:64,1,180
152,112,66482,5,4
152,216,67097,1,0
256,240,67712,2,4,B|392:240,1,135
448,120,68943,6,0,B|448:24|296:112|152:24|152:176|104:176,1,360
112,256,70789,1,0
208,304,71405,1,8
320,304,72020,1,0
392,224,72635,2,8,B|232:112,1,180
344,72,73866,5,4
240,64,74482,2,2,B|320:112|192:104|288:160|184:160|264:240,1,180
256,328,75712,1,8
336,256,76328,6,8,B|336:72,1,180
232,72,77558,2,4,B|40:176,1,180
136,248,78789,1,8
216,176,79405,5,0
120,136,80020,2,0,B|120:24|264:24,2,180
176,224,81866,1,0
280,216,82482,5,8
376,160,83097,1,4
304,80,83712,6,0,B|184:80|184:80,2,90
288,184,84943,2,0,B|416:184,2,90
232,272,86174,5,0
152,288,86635,2,0,B|80:240|80:128|160:80,1,225
256,80,88020,1,8
368,80,88635,1,4
112,112,98482,5,8
192,112,98943,1,8
328,112,99712,2,0,B|432:80|456:152|432:264|312:208,1,270
272,216,100943,5,0
168,216,101558,1,0
104,304,102174,2,0,B|320:304,1,180,0|4
336,208,103405,5,8
288,112,104020,2,8,B|104:112,2,180
392,72,105866,6,4,B|464:96|464:176|376:216,1,180
304,200,107097,1,4
200,200,107712,1,4
240,304,108328,6,0,B|440:304,1,180
408,192,109558,2,0,B|448:96|376:96,2,90
304,192,110789,5,0
200,192,111405,1,0
128,112,112020,2,0,B|48:112|48:272,1,180
136,272,113251,5,4
240,272,113866,2,0,B|424:272,1,180
376,176,115097,2,0,B|200:176|200:176,1,180
120,96,116328,5,8
224,96,116943,2,0,B|328:96|328:96,3,90,4|2|2|2
368,96,118174,5,4
400,200,118789,1,0
328,280,119405,2,0,B|208:240,2,90
232,336,120635,5,0
120,336,121251,1,8
56,248,121866,2,0,B|32:160|96:152|176:160,1,180,0|4
256,96,123097,6,0,B|400:208,2,180
152,88,124943,1,0
80,168,125558,6,0,B|40:224|56:272|96:288|168:288,1,180
256,280,126789,1,8
368,280,127405,1,8
256,168,128328,5,4
