osu file format v12

[General]
AudioFilename: []Celas-Azul(Remix) Original.mp3
AudioLeadIn: 2000
PreviewTime: 14707
Countdown: 0
SampleSet: Normal
StackLeniency: 0.7
Mode: 0
LetterboxInBreaks: 1

[Editor]
Bookmarks: 16399,55784,103784,105630
DistanceSpacing: 1
BeatDivisor: 4
GridSize: 4

[Metadata]
Title:Azul (Remix)
TitleUnicode:Azul (Remix)
Artist:celas
ArtistUnicode:celas
Creator:Revy
Version:Easy
Source:BMS
Tags:kyshiro xincrin kodora lundlerol
BeatmapID:220981
BeatmapSetID:77197

[Difficulty]
HPDrainRate:1
CircleSize:2
OverallDifficulty:1
ApproachRate:2
SliderMultiplier:0.6
SliderTickRate:1

[Events]
//Background and Video events
0,0,"Lakes_wallpapers_221.jpg",0,0
//Break Periods
2,42445,45607
//Storyboard Layer 0 (Background)
//Storyboard Layer 1 (Fail)
//Storyboard Layer 2 (Pass)
//Storyboard Layer 3 (Foreground)
//Storyboard Sound Samples
//Background Colour Transformations
3,100,163,162,255

[TimingPoints]
398,307.692307692308,4,1,1,50,1,0
66861,-100,4,1,1,50,0,1
76400,-100,4,1,0,5,0,0
76553,-100,4,1,1,50,0,0
106246,-100,4,1,1,50,0,1
115784,-100,4,1,1,50,0,0
123782,-100,4,1,1,5,0,0
126244,-100,4,1,1,50,0,0

[Colours]
Combo1 : 128,0,0
Combo2 : 0,255,255
Combo3 : 255,255,255
Combo4 : 128,0,255
Combo5 : 0,128,255

[HitObjects]
188,64,22551,2,0,P|124:112|104:148,2,120,4|0|0,0:0|0:0|0:0,0:0:0:0:
256,164,24398,1,8,0:0:0:0:
324,64,25013,2,0,P|388:112|408:148,2,120,0|0|0,0:0|0:0|0:0,0:0:0:0:
256,164,26859,1,0,0:0:0:0:
320,264,27474,6,0,P|384:288|440:276,2,120,4|0|8,0:0|0:0|0:0,0:0:0:0:
200,264,29321,2,0,P|136:288|80:276,2,120,0|4|0,0:0|0:0|0:0,0:0:0:0:
256,156,31167,1,12,0:0:0:0:
136,168,31782,6,0,P|162:110|214:65,1,120,4|4,0:0|0:0,0:0:0:0:
256,172,33013,1,0,0:0:0:0:
312,68,33628,2,0,P|358:99|394:152,1,120,8|0,0:0|0:0,0:0:0:0:
416,268,34859,6,0,L|320:348,1,120
276,236,36090,2,0,L|380:152,1,120,8|0,0:0|0:0,0:0:0:0:
316,52,37321,5,0,0:0:0:0:
196,52,37936,1,0,0:0:0:0:
256,156,38551,1,8,0:0:0:0:
316,260,39167,6,0,P|256:272|184:252,2,120,0|4|0,0:0|0:0|0:0,0:0:0:0:
256,156,41013,1,4,0:0:0:0:
196,52,41628,2,0,P|256:44|320:52,1,120,0|4,0:0|0:0,0:0:0:0:
200,36,47167,6,0,B|256:60|256:60|320:32,2,120,4|0|8,0:0|0:0|0:0,0:0:0:0:
96,96,49013,1,0,0:0:0:0:
168,192,49628,1,0,0:0:0:0:
256,108,50244,2,0,L|392:108,1,120,0|8,0:0|0:0,0:0:0:0:
456,200,51474,2,0,L|332:200,1,120,0|8,0:0|0:0,0:0:0:0:
256,292,52705,5,0,0:0:0:0:
200,184,53321,2,0,P|144:168|100:112,2,120,8|0|8,0:0|0:0|0:0,0:0:0:0:
320,184,55167,2,0,P|388:160|420:108,2,120,0|8|8,0:0|0:0|0:0,0:0:0:0:
256,80,57013,5,0,0:0:0:0:
204,188,57628,1,0,0:0:0:0:
256,296,58244,6,0,P|144:336|28:292,2,240
316,192,61321,1,0,0:0:0:0:
256,104,61936,6,0,L|128:104,2,120,0|0|8,0:0|0:0|0:0,0:0:0:0:
336,192,63782,2,0,L|468:192,2,120,0|4|8,0:0|0:0|0:0,0:0:0:0:
312,312,65628,2,0,P|255:326|192:308,2,120,4|8|4,0:0|0:0|0:0,0:0:0:0:
256,208,67474,5,0,0:0:0:0:
136,188,68090,2,0,L|136:60,1,120,8|0,0:0|0:0,0:0:0:0:
256,88,69321,2,0,L|256:220,2,120,8|0|0,0:0|0:0|0:0,0:0:0:0:
372,112,71167,1,0,0:0:0:0:
368,232,71782,6,0,P|420:284|424:336,1,120
308,352,73013,2,0,P|256:300|252:248,1,120,8|0,0:0|0:0,0:0:0:0:
256,192,74244,12,4,76705,0:0:0:0:
352,56,77936,6,0,P|408:96|416:160,2,120,0|0|8,0:0|0:0|0:0,0:0:0:0:
256,128,79782,1,0,0:0:0:0:
212,240,80398,2,0,P|160:284|104:288,2,120,0|4|8,0:0|0:0|0:0,0:0:0:0:
256,128,82244,5,0,0:0:0:0:
372,100,82859,2,0,P|396:160|448:192,1,120,8|0,0:0|0:0,0:0:0:0:
256,192,84090,12,4,86551,0:0:0:0:
140,316,89013,6,0,P|256:336|376:316,2,240
256,108,92705,2,0,P|136:88|20:108,2,240
108,296,96398,5,0,0:0:0:0:
172,192,97013,1,0,0:0:0:0:
288,216,97628,2,0,L|220:328,1,120
136,240,98859,2,0,L|52:140,1,120
172,104,100090,6,0,P|228:84|284:108,2,120
216,212,101936,2,0,P|164:232|108:208,1,120
172,104,103167,1,0,0:0:0:0:
256,192,103782,12,0,106244,0:0:0:0:
256,264,106859,5,0,0:0:0:0:
200,160,107474,2,0,P|148:184|80:184,2,120,8|0|0,0:0|0:0|0:0,0:0:0:0:
320,160,109321,2,0,P|372:184|440:184,2,120,8|0|0,0:0|0:0|0:0,0:0:0:0:
308,44,111167,6,0,P|256:20|192:52,1,120
196,164,112398,1,0,0:0:0:0:
316,164,113013,1,8,0:0:0:0:
256,192,113628,12,4,116090,0:0:0:0:
124,192,116705,5,0,0:0:0:0:
204,284,117321,2,0,P|256:324|312:332,1,120,8|0,0:0|0:0,0:0:0:0:
316,212,118551,2,0,P|264:172|208:164,1,120,8|0,0:0|0:0,0:0:0:0:
96,196,119782,1,8,0:0:0:0:
120,80,120398,1,0,0:0:0:0:
236,56,121013,5,4,0:0:0:0:
344,112,121628,1,0,0:0:0:0:
436,192,122244,2,0,P|392:256|344:268,2,120,8|0|4,0:0|0:0|0:0,0:0:0:0:
256,192,123782,12,4,126244,0:0:0:0:
