osu file format v9

[General]
AudioFilename: []Celas-Azul(Remix) Original.mp3
AudioLeadIn: 0
PreviewTime: 400
Countdown: 0
SampleSet: Normal
StackLeniency: 0.6
Mode: 0
LetterboxInBreaks: 0

[Editor]
Bookmarks: 22573,42266,47189,57035,66881,76727,86573,96400,106266,126266
DistanceSpacing: 0.6
BeatDivisor: 2
GridSize: 16

[Metadata]
Title:Azul (Remix)
Artist:celas
Creator:AngelHoney
Version:Normal
Source:BMS
Tags:TW-KUMA01 lepidopodus stream

[Difficulty]
HPDrainRate:2
CircleSize:3
OverallDifficulty:2
ApproachRate:3
SliderMultiplier:0.899999999999999
SliderTickRate:1

[Events]
//Background and Video events
0,0,"BG1.jpg"
//Break Periods
2,42446,45729
//Storyboard Layer 0 (Background)
//Storyboard Layer 1 (Fail)
//Storyboard Layer 2 (Pass)
//Storyboard Layer 3 (Foreground)
//Storyboard Sound Samples
//Background Colour Transformations
3,100,163,162,255

[TimingPoints]
400,307.692307692308,4,1,1,50,1,0
39707,-100,4,1,1,60,0,0
46861,-100,4,1,1,50,0,0
64323,-100,4,1,1,60,0,0
66630,-100,4,1,1,55,0,0
66861,-100,4,1,1,55,0,1
66900,-100,4,1,1,55,0,0
71323,-100,4,1,1,65,0,0
71707,-100,4,1,1,55,0,0
74169,-100,4,1,1,60,0,0
75015,-100,4,1,1,65,0,0
76669,-100,4,1,1,55,0,0
81092,-100,4,1,1,65,0,0
81553,-100,4,1,1,55,0,0
84053,-100,4,1,1,65,0,0
85246,-100,4,1,1,55,0,0
106246,-100,4,1,1,55,0,1
106284,-100,4,1,1,55,0,0
110669,-100,4,1,1,65,0,0
111130,-100,4,1,1,55,0,0
113553,-100,4,1,1,60,0,0
114476,-100,4,1,1,65,0,0
116053,-100,4,1,1,55,0,0
120515,-100,4,1,1,65,0,0
120976,-100,4,1,1,55,0,0
123400,-100,4,1,1,65,0,0
124630,-100,4,1,1,55,0,0
125438,-100,4,1,1,65,0,0
126246,-100,4,1,1,55,0,1
126323,-100,4,1,1,55,0,0

[Colours]
Combo1 : 248,211,171
Combo2 : 171,252,203
Combo3 : 175,221,254
Combo4 : 249,254,186
Combo5 : 240,80,80

[HitObjects]
288,96,22400,1,0
304,112,22553,6,0,B|384:112|432:64,2,135,4|0|0
208,160,23784,2,0,B|128:160|80:112,2,135
304,208,25015,2,0,B|384:208|432:160,2,135
208,256,26246,2,0,B|128:256|80:208,2,135
304,304,27476,6,0,B|400:304,1,89.9999999999999,4|8
208,176,28400,2,0,B|112:176,2,89.9999999999999,8|0|8
304,64,29630,1,8
384,128,29938,6,0,B|352:352|112:352,1,360,4|4
16,240,31784,1,4
144,112,32400,6,0,B|224:160|320:112,1,180,4|0
448,256,33630,2,0,B|352:208|272:256,1,180
64,256,34861,6,0,B|160:208|240:256,1,180,4|0
368,112,36092,2,0,B|272:160|192:112,1,180,4|0
48,192,37323,6,0,B|48:288,1,89.9999999999999,4|8
208,256,38246,2,0,B|208:352,2,89.9999999999999,0|0|8
368,192,39476,1,8
464,240,39784,6,0,B|496:176|464:96,2,135,4|2|2
368,192,41015,2,0,B|336:128|368:48,2,135,4|2|2
272,224,42246,1,4
48,64,47169,6,0,B|144:48|208:96,1,135,4|2
288,144,48092,1,8
160,256,48707,1,8
336,288,49323,1,8
432,320,49630,6,0,B|464:256|432:160,1,135,0|2
374,89,50553,1,8
192,112,51169,1,8
224,272,51784,1,8
272,352,52092,6,0,B|176:384|96:352,1,180,4|0
32,288,53015,1,8
128,128,53630,1,8
208,80,53938,2,0,B|304:48|384:80,1,180
464,128,54861,1,8
480,352,55476,1,8
400,320,55784,5,4
320,352,56092,1,8
240,320,56400,1,0
160,352,56707,1,8
80,320,57015,6,0,B|224:176|448:240,3,360,4|0|2|2
496,96,61323,1,0
416,112,61630,1,8
336,80,61938,6,0,B|208:80,1,89.9999999999999,0|10
272,160,62553,2,0,B|160:160,1,89.9999999999999,0|10
208,240,63169,2,0,B|80:240,1,89.9999999999999,0|10
128,320,63784,2,0,B|32:320,1,89.9999999999999,0|10
32,240,64400,6,0,B|-16:160|32:64,1,180,4|0
112,32,65323,1,8
208,32,65630,2,0,B|256:128|208:208,1,180,4|0
64,320,66861,6,0,B|192:176|416:240,3,360,4|0|2|2
496,112,71169,1,2
352,48,71784,6,0,B|208:176|-16:64,3,360,4|0|2|6
64,224,76092,1,2
176,304,76707,6,0,B|256:256|352:288,1,180,4|0
448,160,77938,2,0,B|368:208|256:160,1,180
160,48,79169,2,0,B|352:-16|496:128,1,360
512,256,81015,1,4
384,192,81630,6,0,B|336:272|400:384,1,180,4|0
256,320,82861,2,0,B|176:272|76:275,1,180
48,128,84092,2,0,B|128:128|192:160,2,135,4|2|2
96,48,85323,2,0,B|160:48|256:16,2,135,0|2|2
160,128,86553,5,4
240,160,89015,1,0
144,208,91476,5,0
64,288,93938,1,0
208,352,95169,5,0
320,352,95784,1,0
384,320,96092,1,8
432,272,96400,6,0,B|432:224,1,45,8|0
336,176,96861,2,0,B|336:240,1,45,0|2
176,256,97630,5,2
80,144,98246,1,2
208,48,98861,1,0
304,176,99476,1,2
176,256,100092,1,2
80,144,100707,1,2
208,48,101323,6,0,B|320:32,1,89.9999999999999,0|2
336,112,101938,2,0,B|224:128,1,89.9999999999999,0|2
224,208,102553,2,0,B|336:192,1,89.9999999999999,0|2
352,272,103169,2,0,B|240:288,1,89.9999999999999,0|2
240,368,103784,6,0,B|352:352,3,89.9999999999999,2|2|2|2
400,304,105015,2,0,B|512:288,3,89.9999999999999,2|2|2|2
464,208,106246,6,0,B|464:112,1,89.9999999999999,4|8
304,160,107169,2,0,B|304:48,2,89.9999999999999,8|0|8
144,208,108400,1,8
64,160,108707,2,0,B|48:112|64:64,2,89.9999999999999,0|8|0
144,208,109630,1,8
144,112,109938,2,0,B|160:64|144:16,2,89.9999999999999,0|8|0
240,160,110861,1,8
240,64,111169,6,0,B|336:64|432:16,1,180,4|0
304,192,112400,2,0,B|192:208|96:144,1,180
32,288,113630,6,0,B|128:256|224:288,3,180,4|0|4|0
400,208,116092,2,0,B|176:224|96:32,1,360,4|0
16,160,117938,1,0
96,272,118553,2,0,B|224:128|464:160,1,360,4|0
496,272,120400,1,0
368,352,121015,6,0,B|304:320|272:240,2,135,4|2|10
400,272,122246,2,0,B|400:160,1,89.9999999999999,0|8
288,64,123169,1,8
208,112,123476,6,0,B|144:64|80:112,2,135,4|2|8
144,176,124707,2,0,B|144:272,1,89.9999999999999,4|8
224,224,125323,2,0,B|224:320,1,89.9999999999999,8|8
448,272,126246,5,4
