osu file format v9

[General]
AudioFilename: []Celas-Azul(Remix) Original.mp3
AudioLeadIn: 0
PreviewTime: 400
Countdown: 0
SampleSet: Normal
StackLeniency: 0.6
Mode: 0
LetterboxInBreaks: 0

[Editor]
Bookmarks: 22573,42266,47189,57035,66881,76727,86573,96400,106266,126266
DistanceSpacing: 0.6
BeatDivisor: 2
GridSize: 16

[Metadata]
Title:Azul (Remix)
Artist:celas
Creator:AngelHoney
Version:Hyper
Source:BMS
Tags:TW-KUMA01 lepidopodus stream

[Difficulty]
HPDrainRate:4
CircleSize:4
OverallDifficulty:4
ApproachRate:6
SliderMultiplier:1.3
SliderTickRate:1

[Events]
//Background and Video events
0,0,"BG1.jpg"
//Break Periods
2,42446,46119
//Storyboard Layer 0 (Background)
//Storyboard Layer 1 (Fail)
//Storyboard Layer 2 (Pass)
//Storyboard Layer 3 (Foreground)
//Storyboard Sound Samples
//Background Colour Transformations
3,100,163,162,255

[TimingPoints]
400,307.692307692308,4,1,1,50,1,0
39707,-100,4,1,1,60,0,0
46861,-100,4,1,1,50,0,0
64323,-100,4,1,1,60,0,0
66630,-100,4,1,1,55,0,0
66861,-100,4,1,1,55,0,1
66900,-100,4,1,1,55,0,0
71323,-100,4,1,1,65,0,0
71707,-100,4,1,1,55,0,0
74169,-100,4,1,1,60,0,0
75015,-100,4,1,1,65,0,0
76669,-100,4,1,1,55,0,0
81092,-100,4,1,1,65,0,0
81553,-100,4,1,1,55,0,0
84053,-100,4,1,1,65,0,0
85246,-100,4,1,1,55,0,0
106246,-100,4,1,1,55,0,1
106284,-100,4,1,1,55,0,0
110669,-100,4,1,1,65,0,0
111130,-100,4,1,1,55,0,0
113553,-100,4,1,1,60,0,0
114476,-100,4,1,1,65,0,0
116053,-100,4,1,1,55,0,0
120515,-100,4,1,1,65,0,0
120976,-100,4,1,1,55,0,0
123400,-100,4,1,1,65,0,0
124630,-100,4,1,1,55,0,0
125438,-100,4,1,1,65,0,0
126246,-100,4,1,1,55,0,1
126323,-100,4,1,1,55,0,0

[Colours]
Combo1 : 248,211,171
Combo2 : 171,252,203
Combo3 : 175,221,254
Combo4 : 249,254,186
Combo5 : 240,80,80

[HitObjects]
80,64,22400,5,0
96,80,22553,6,0,B|165:87|224:64,1,130,4|8
336,176,23169,2,0,B|272:192|192:160,1,130,0|8
96,208,23784,1,0
80,224,23938,1,0
64,240,24092,1,8
160,288,24400,1,0
176,304,24553,1,0
192,320,24707,1,8
304,304,25015,6,0,B|368:336|464:304,1,130,0|8
496,208,25630,2,0,B|448:176|352:192,1,130,0|8
256,208,26246,1,0
240,192,26400,1,0
224,176,26553,1,8
128,128,26861,1,0
144,112,27015,1,0
160,96,27169,1,8
272,48,27476,6,0,B|336:80|416:64,1,130,4|8
480,144,28092,2,0,B|512:240,2,65,0|0|8
368,176,28707,2,0,B|384:240|352:304,1,130,0|8
240,288,29323,2,0,B|256:368,2,65,0|0|8
256,176,29938,6,0,B|192:144|96:160,1,130,4|8
64,256,30553,2,0,B|128:288|208:256,1,130,0|8
304,224,31169,2,0,B|288:304|336:368,1,130,4|8
432,272,31784,2,0,B|448:192|384:128,1,130,0|8
320,80,32400,6,0,B|256:96|192:64,1,130,4|8
176,48,32861,2,0,B|208:128|144:208,1,130,2|2
160,192,33323,1,8
80,288,33630,2,0,B|160:288|224:352,1,130,0|8
224,336,34092,2,0,B|288:288|369:300,1,130,2|2
368,304,34553,1,8
464,240,34861,6,0,B|400:144|288:144,2,195,4|2|8
352,288,36092,2,0,B|272:224|160:240,2,195,0|2|8
464,304,37323,6,0,B|480:384,2,65,4|2|10
432,192,37938,2,0,B|416:112,2,65,0|2|10
368,288,38553,2,0,B|384:368,2,65,0|2|10
336,176,39169,2,0,B|320:96,2,65,0|2|10
272,272,39784,6,0,B|224:240|128:256,1,130,4|10
128,256,40246,1,2
112,256,40400,2,0,B|48:192|80:112,1,130,2|8
144,48,41015,2,0,B|208:16|288:48,1,130,0|2
288,48,41476,1,2
306,57,41630,1,2
384,128,41938,1,8
304,208,42246,5,4
64,128,47169,6,0,B|128:144|208:96,1,130,4|8
208,96,47630,2,0,B|272:64|368:96,1,130
352,96,48092,1,8
448,160,48400,1,0
464,176,48553,1,0
480,192,48707,1,8
384,256,49015,1,0
400,272,49169,1,0
416,288,49323,1,8
304,336,49630,6,0,B|240:288|160:304,1,130,0|8
160,304,50092,2,0,B|112:336|0:320,1,130
16,316,50553,1,8
64,208,50861,1,0
80,192,51015,1,0
96,176,51169,2,0,B|176:160|224:96,1,130,8|0
224,96,51630,1,0
240,80,51784,1,8
336,144,52092,6,0,B|400:112|496:128,1,130,4|8
496,240,52707,1,0
473,231,52861,2,0,B|400:208,1,65,0|8
320,272,53323,2,0,B|256:240|160:256,1,130,0|8
176,256,53784,2,0,B|112:272|32:224,1,130
32,224,54246,1,8
16,112,54553,5,0
128,128,54861,1,8
144,112,55015,1,0
256,128,55323,1,0
272,112,55476,1,8
368,176,55784,2,0,B|450:193|496:256,1,130,4|8
496,256,56246,1,0
512,272,56400,2,0,B|448:320|352:304,1,130,0|8
288,336,57015,6,0,B|272:272,1,65,4|2
256,256,57323,2,0,B|240:192,1,65,8|2
224,176,57630,2,0,B|208:112,1,65,0|2
192,96,57938,2,0,B|176:32,1,65,8|2
144,32,58246,6,0,B|96:80,1,65,0|2
80,96,58553,2,0,B|16:160,1,65,8|2
16,160,58861,2,0,B|80:224,1,65,2|2
80,224,59169,2,0,B|128:272,1,65,10|2
144,288,59476,6,0,B|224:288|272:240,1,130,0|10
288,240,59938,2,0,B|352:208|464:224,1,130,2|2
442,224,60400,1,8
512,112,60707,2,0,B|448:112|384:80,1,130,0|10
366,73,61169,2,0,B|304:48|222:73,1,130,2|2
221,75,61630,1,8
128,128,61938,5,4
112,144,62092,1,2
96,160,62246,1,10
192,208,62553,1,0
176,224,62707,1,2
160,240,62861,1,10
288,256,63169,5,0
272,272,63323,1,2
256,288,63476,1,8
240,304,63630,1,2
224,320,63784,1,2
208,336,63938,1,2
192,352,64092,1,8
96,304,64400,6,0,B|64:224|96:144,1,130,4|10
106,158,64861,2,0,B|186:126,1,65,2|2
400,224,65630,2,0,B|432:144|400:64,1,130,4|10
390,78,66091,2,0,B|310:46,1,65,2|2
112,48,66861,6,0,B|48:80|32:160,1,130,4|8
32,176,67323,1,2
32,208,67476,2,0,B|80:176|176:176,1,130,2|8
160,288,68092,2,0,B|224:272|304:304,1,130,0|8
311,310,68553,1,2
336,320,68707,2,0,B|400:352|480:320,1,130,2|8
400,224,69323,6,0,B|464:176|480:96,1,130,0|10
480,96,69784,2,0,B|416:112|320:80,1,130,2|2
336,80,70246,2,0,B|288:64|256:64,1,65,8|2
256,64,70553,2,0,B|176:80|96:64,1,130,0|8
112,64,71015,2,0,B|32:128|48:192,1,130,2|2
48,192,71476,2,0,B|160:224,1,65,8|2
128,224,71784,6,0,B|144:288|112:368,1,130,4|10
112,368,72246,1,2
224,336,72553,2,0,B|304:320,1,65,2|8
400,352,73015,2,0,B|368:288|384:208,1,130,0|10
384,208,73476,1,2
272,176,73784,2,0,B|192:144,1,65,2|8
128,64,74246,6,0,B|112:16,1,43.3333333333333,4|2
208,32,74553,2,0,B|208:80,1,43.3333333333333,0|2
304,64,74861,2,0,B|288:16,1,43.3333333333333,0|2
384,32,75169,2,0,B|384:80,1,43.3333333333333,0|2
448,144,75476,6,0,B|496:144,1,43.3333333333333,0|2
416,224,75784,2,0,B|416:272,1,43.3333333333333,0|2
336,192,76092,2,0,B|288:192,1,43.3333333333333,0|2
368,112,76400,2,0,B|368:48,1,43.3333333333333,0|2
272,80,76707,6,0,B|208:96|144:80,1,130,4|10
123,74,77169,1,2
16,112,77476,1,2
32,128,77630,1,8
48,144,77784,1,2
64,160,77938,6,0,B|144:176|208:144,1,130,0|10
208,144,78400,1,2
304,192,78707,1,2
320,176,78861,1,8
336,160,79015,1,2
352,144,79169,6,0,B|432:144,1,65,0|2
432,144,79476,2,0,B|480:208,1,65,0|2
480,208,79784,2,0,B|448:272,1,65,0|2
432,272,80092,2,0,B|368:272,1,65,8|2
352,272,80400,6,0,B|304:336,1,65,0|2
304,336,80707,2,0,B|224:336,1,65,8|2
224,320,81015,2,0,B|160:320,1,65,10|2
144,336,81323,2,0,B|48:336,1,65,2|2
64,320,81630,6,0,B|16:272|16:176,1,130,4|10
32,192,82092,2,0,B|80:160|160:160,1,130,2|2
176,160,82553,1,8
192,160,82707,1,2
208,160,82861,2,0,B|288:160|352:192,1,130,0|10
352,192,83323,2,0,B|416:224|464:288,1,130,2|0
464,288,83784,1,8
480,304,83938,1,2
491,320,84092,6,0,B|432:384,1,65,4|2
336,352,84553,2,0,B|352:208,2,130,2|2|2
304,352,85323,2,0,B|192:304,3,65,0|2|8|2
224,304,85938,2,0,B|160:272,3,65,8|2|10|2
144,256,86553,5,4
64,224,89015,1,0
16,160,91015,1,0
32,144,91169,2,0,B|96:128|176:144,1,130,8|0
224,160,93938,5,0
160,224,95169,1,0
240,272,95784,2,0,B|304:288|384:272,1,130,0|8
464,224,96400,6,0,B|496:128,1,65,0|2
368,176,96861,2,0,B|352:96,1,65,2|0
240,32,97630,5,2
112,96,98246,1,2
64,224,98861,1,0
144,336,99476,1,2
288,352,100092,1,2
416,288,100707,1,2
432,272,100861,1,2
448,256,101015,1,8
464,240,101169,1,2
480,224,101323,6,0,B|496:192|496:160,2,65,0|2|2
400,160,101938,2,0,B|412:125|416:80,2,65,0|2|2
304,112,102553,2,0,B|304:80|288:32,2,65,0|2|2
192,80,103169,2,0,B|176:48|144:0,2,65,0|2|2
80,128,103784,6,0,B|64:192,1,65,0|2
64,208,104092,2,0,B|128:256,1,65,0|2
128,256,104400,2,0,B|208:224,1,65,0|2
208,224,104707,2,0,B|240:288,1,65,0|2
256,288,105015,6,0,B|368:288,6,65,0|2|0|2|2|2|2
400,352,106246,6,0,B|480:304|496:208,1,130,4|8
448,160,106861,1,0
432,144,107015,1,2
416,128,107169,1,10
320,160,107476,2,0,B|256:192|176:192,1,130,0|8
96,160,108092,1,0
104,144,108246,1,2
112,128,108400,1,10
208,48,108707,6,0,B|272:32,1,65,0|2
288,48,109015,2,0,B|352:32,1,65,8|2
368,48,109323,2,0,B|432:32,1,65,0|2
448,48,109630,2,0,B|512:32,1,65,8|2
512,64,109938,6,0,B|480:144,1,65,0|2
464,144,110246,2,0,B|432:224,1,65,8|2
416,224,110553,2,0,B|384:304,1,65,2|2
368,304,110861,2,0,B|336:384,1,65,10|2
320,352,111169,6,0,B|256:336|160:352,1,130,4|10
166,352,111630,1,2
48,352,111938,1,2
40,336,112092,1,8
32,320,112246,1,2
24,304,112400,2,0,B|0:240|32:160,1,130,0|10
32,160,112861,1,2
128,112,113169,1,2
136,128,113323,1,8
144,144,113476,1,2
152,160,113630,6,0,B|216:160,1,43.3333333333333,0|2
272,208,113938,2,0,B|272:288,1,43.3333333333333,0|2
208,320,114246,2,0,B|128:320,1,43.3333333333333,0|2
96,272,114553,2,0,B|96:224,1,43.3333333333333,0|2
48,144,114861,6,0,B|-16:144,1,43.3333333333333,0|2
80,64,115169,2,0,B|80:0,1,43.3333333333333,0|2
160,112,115476,2,0,B|224:112,1,43.3333333333333,0|2
128,192,115784,2,0,B|128:240,1,43.3333333333333,0|2
192,304,116092,6,0,B|256:336|352:304,1,130,4|10
336,304,116553,2,0,B|400:288|448:192,1,130,2|2
439,200,117015,1,8
320,192,117323,2,0,B|368:144|384:64,1,130,0|10
383,61,117784,2,0,B|320:64|255:29,1,130,2|2
236,23,118246,1,8
240,128,118553,6,0,B|176:96|112:96,1,130,0|10
92,96,119015,1,2
16,192,119323,1,2
32,208,119476,2,0,B|112:224|176:208,1,130,10|0
139,328,120092,1,10
160,320,120246,2,0,B|224:288|304:304,1,130,2|2
304,304,120707,2,0,B|384:320|448:288,1,130,10|4
464,192,121323,5,8
448,176,121476,1,2
336,176,121784,1,2
320,160,121938,1,8
208,160,122246,2,0,B|192:96,2,65,0|2|8
192,176,122707,1,2
176,192,122861,2,0,B|192:256,2,65,0|0|10
80,224,123476,6,0,B|16:256,1,65,4|2
96,320,123938,2,0,B|176:304|256:336,2,130,2|2|2
80,304,124707,2,0,B|80:240,1,65,4|2
96,240,125015,2,0,B|96:160,1,65,8|2
80,160,125323,2,0,B|80:96,1,65,0|2
96,80,125630,2,0,B|96:0,1,65,8|2
256,80,126246,5,4
