osu file format v9

[General]
AudioFilename: []Celas-Azul(Remix) Original.mp3
AudioLeadIn: 0
PreviewTime: 400
Countdown: 0
SampleSet: Normal
StackLeniency: 0.6
Mode: 0
LetterboxInBreaks: 0

[Editor]
Bookmarks: 22573,42266,47189,57035,66881,76727,86573,96400,106266,126266
DistanceSpacing: 0.6
BeatDivisor: 2
GridSize: 16

[Metadata]
Title:Azul (Remix)
Artist:celas
Creator:AngelHoney
Version:Extra
Source:BMS
Tags:TW-KUMA01 lepidopodus stream

[Difficulty]
HPDrainRate:6
CircleSize:5
OverallDifficulty:7
ApproachRate:9
SliderMultiplier:2.1
SliderTickRate:1

[Events]
//Background and Video events
0,0,"BG1.jpg"
//Break Periods
2,42446,46569
//Storyboard Layer 0 (Background)
//Storyboard Layer 1 (Fail)
//Storyboard Layer 2 (Pass)
//Storyboard Layer 3 (Foreground)
//Storyboard Sound Samples
//Background Colour Transformations
3,100,163,162,255

[TimingPoints]
400,307.692307692308,4,1,1,50,1,0
39707,-100,4,1,1,60,0,0
46861,-100,4,1,1,50,0,0
64323,-100,4,1,1,60,0,0
66630,-100,4,1,1,55,0,0
66861,-100,4,1,1,55,0,1
66900,-100,4,1,1,55,0,0
71323,-100,4,1,1,65,0,0
71707,-100,4,1,1,55,0,0
74169,-100,4,1,1,60,0,0
75015,-100,4,1,1,65,0,0
76669,-100,4,1,1,55,0,0
81092,-100,4,1,1,65,0,0
81553,-100,4,1,1,55,0,0
84053,-100,4,1,1,65,0,0
85246,-100,4,1,1,55,0,0
106246,-100,4,1,1,55,0,1
106284,-100,4,1,1,55,0,0
110669,-100,4,1,1,65,0,0
111130,-100,4,1,1,55,0,0
113553,-100,4,1,1,60,0,0
114476,-100,4,1,1,65,0,0
116053,-100,4,1,1,55,0,0
120515,-100,4,1,1,65,0,0
120976,-100,4,1,1,55,0,0
123400,-100,4,1,1,65,0,0
124630,-100,4,1,1,55,0,0
125438,-100,4,1,1,65,0,0
126246,-100,4,1,1,55,0,1
126323,-100,4,1,1,55,0,0

[Colours]
Combo1 : 248,211,171
Combo2 : 171,252,203
Combo3 : 175,221,254
Combo4 : 249,254,186
Combo5 : 240,80,80

[HitObjects]
384,80,22400,1,0
384,80,22553,6,0,B|272:80|240:176|240:176|272:208,1,210,4|8
384,176,23015,2,0,B|320:96|240:96|240:96|224:48,1,210
128,32,23476,1,8
32,288,23784,2,0,B|48:320|48:320|89:306|160:320,1,105
384,320,24092,2,0,B|360:340|360:340|320:304|272:320,1,105,8|0
112,208,24400,2,0,B|192:160|192:48|192:48|224:32,1,210,0|8
304,80,24861,1,0
352,192,25015,6,0,B|272:144|192:160|192:160|144:80,1,210,0|8
48,272,25476,2,0,B|112:288|112:288|176:240|272:240,1,210
240,336,25938,1,8
240,336,26246,1,0
224,240,26400,2,0,B|191:227|191:227|192:208|112:224,1,105,0|8
256,144,26707,2,0,B|304:160|304:144|304:144|368:96|480:160,1,210
496,224,27169,1,8
411,291,27323,1,0
272,240,27476,6,0,B|176:240|112:288|112:288|32:272,1,210,4|8
208,336,27938,2,0,B|176:240|96:208|96:208|112:144,1,210
128,80,28400,1,8
448,128,28707,2,0,B|384:128|336:64,1,105
288,160,29015,1,8
240,304,29169,2,0,B|288:256|368:240,1,105
160,224,29476,2,0,B|112:192|32:192,1,105,0|8
16,112,29784,1,0
128,80,29938,6,0,B|176:96|176:96|224:32|352:80,1,210,4|8
240,208,30400,2,0,B|272:176|272:176|368:240|464:192,1,210
512,160,30861,1,8
402,108,31015,1,0
208,80,31169,2,0,B|240:80|240:80|288:80|336:32,1,105,4|0
144,160,31476,1,8
256,256,31630,2,0,B|224:240|224:240|144:304|48:272,1,210,4|0
16,100,32092,1,10
36,111,32169,1,2
56,122,32246,1,2
76,133,32323,1,0
96,144,32400,6,0,B|205:179|311:82,1,210,4|10
480,288,32861,2,0,B|384:224|256:240,1,210,2|2
9,304,33323,1,10
32,300,33400,1,0
54,296,33476,1,2
76,292,33553,1,2
97,286,33630,2,0,B|160:272|204:216,1,105,2|2
320,96,33938,2,0,B|288:80|288:80|204:132|112:96,1,210,10|0
32,48,34400,1,2
32,256,34553,2,0,B|96:256|160:208,1,105,8|2
160,208,34784,1,0
192,192,34861,6,0,B|247:159|247:159|336:208|432:176,1,210,4|8
496,112,35323,1,2
480,96,35400,1,0
464,80,35476,2,0,B|416:48|336:48,1,105,0|2
240,48,35784,1,8
96,208,35938,1,2
128,192,36015,1,0
160,176,36092,2,0,B|272:144|384:192,1,210,0|10
240,304,36553,2,0,B|272:320|272:320|352:272|464:288,1,210,2|4
496,144,37015,1,8
480,160,37092,1,0
464,176,37169,1,2
320,160,37323,5,4
288,144,37400,1,0
256,128,37476,1,0
224,112,37553,1,0
192,96,37630,1,8
64,144,37784,1,2
10,290,37938,1,0
43,277,38015,1,0
77,265,38092,1,0
110,252,38169,1,0
144,240,38246,1,8
272,320,38400,1,2
432,352,38553,5,0
448,320,38630,1,0
464,288,38707,1,2
480,256,38784,1,0
480,224,38861,1,8
464,192,38938,1,0
448,160,39015,1,2
432,128,39092,1,0
448,96,39169,1,2
464,64,39246,1,0
448,32,39323,1,2
416,16,39400,1,0
384,32,39476,1,10
240,128,39630,1,2
208,304,39784,6,0,B|160:288|160:288|144:240|-16:256,1,210,4|8
160,144,40246,1,2
160,144,40400,2,0,B|197:142|197:142|224:176|384:112,1,210,2|8
496,288,40861,1,2
496,288,41015,2,0,B|464:304|464:304|384:256|288:272,1,210,6|8
80,208,41476,2,0,B|128:192|128:192|176:144|304:160,1,210,2|2
432,208,41938,1,8
272,320,42092,1,2
256,320,42169,1,2
240,320,42246,1,6
448,112,47169,6,0,B|464:144|464:144|320:80|240:96,1,210,4|8
144,208,47630,2,0,B|131:236|131:236|256:192|352:224,1,210
432,256,48092,1,8
96,336,48400,1,0
16,256,48553,2,0,B|16:240|16:240|48:208|48:144,1,105,0|8
224,208,48861,2,0,B|208:160|208:160|128:96|128:0,1,210
272,64,49323,2,0,B|332:57|416:16,1,105,8|0
464,96,49630,5,0
416,192,49784,2,0,B|416:224|416:224|384:240|384:304,1,105,0|8
240,288,50092,2,0,B|192:304|192:304|128:256|16:320,1,210
64,192,50553,1,8
336,96,50861,1,0
288,192,51015,1,0
400,176,51169,2,0,B|448:144|512:144,1,105,8|0
464,256,51476,2,0,B|432:320|448:368,1,105
352,272,51784,1,8
256,336,51938,1,0
224,320,52015,1,0
192,304,52092,6,0,B|128:288|128:288|48:304|-16:256,1,210,4|8
80,160,52553,2,0,B|110:158|128:144|128:144|176:80|288:80,1,210
368,192,53015,2,0,B|320:208|224:208,1,105,8|0
256,320,53323,2,0,B|256:352|256:352|384:288|464:320,1,210,0|8
512,240,53784,1,0
448,112,53938,2,0,B|429:172|384:208,1,105
208,128,54246,2,0,B|256:96|336:112,1,105,8|0
288,224,54553,6,0,B|208:304|64:304,1,210,0|8
16,240,55015,1,0
16,240,55323,1,0
108,174,55476,2,0,B|48:160|12:110,1,105,8|0
80,48,55784,1,4
208,32,55938,1,0
336,80,56092,1,8
304,256,56246,2,0,B|352:240|400:208,1,105
464,112,56553,1,0
272,32,56707,1,8
96,112,56861,1,0
48,272,57015,5,4
208,336,57169,1,2
224,320,57246,1,2
240,304,57323,2,0,B|304:240|288:144,1,157.5,8|0
272,144,57630,2,0,B|352:176|432:144,1,157.5
448,128,57938,2,0,B|336:128|288:32,1,157.5,10|0
288,48,58246,2,0,B|240:80|160:96,1,105,2|2
128,96,58476,1,2
128,96,58553,2,0,B|128:160|96:208,1,105,10|2
64,272,58784,1,2
64,272,58861,2,0,B|121:277|176:320,1,105,0|2
336,304,59092,1,2
336,304,59169,2,0,B|288:272|208:272,1,105,8|2
416,320,59400,1,2
416,320,59476,6,0,B|432:304|432:304|352:208|416:96,1,210,0|10
224,224,59938,2,0,B|208:208|208:208|272:112|208:32,1,210,2|0
64,96,60400,1,10
16,224,60553,1,2
48,240,60630,1,2
80,256,60707,2,0,B|176:272|240:208,1,157.5,0|2
256,240,61015,2,0,B|304:224|384:224,1,105,8|2
384,240,61246,1,2
409,253,61323,1,0
272,336,61476,1,2
144,224,61630,2,0,B|80:240|16:288,1,105,8|2
240,144,61938,5,6
264,128,62015,1,0
288,112,62092,1,0
312,96,62169,1,0
336,80,62246,2,0,B|384:64|464:64,1,105,8|2
304,288,62553,1,2
280,272,62630,1,0
256,256,62707,1,0
232,240,62784,1,0
208,224,62861,2,0,B|160:208|80:208,1,105,8|2
408,84,63169,5,2
384,96,63246,1,0
360,104,63323,1,2
336,108,63400,1,0
312,104,63476,1,8
288,100,63553,1,0
264,92,63630,1,2
240,84,63707,1,0
216,76,63784,1,2
188,72,63861,1,0
164,76,63938,1,2
140,84,64015,1,0
116,96,64092,2,0,B|44:116|-16:76,1,105,10|2
80,272,64400,6,0,B|128:256|128:256|176:192|288:224,1,210,4|10
464,256,64861,1,2
400,320,65015,1,0
400,320,65092,2,0,B|304:304|224:320,1,157.5,2|8
480,128,65630,2,0,B|432:112|432:112|384:48|256:80,1,210,4|10
80,128,66092,1,2
128,192,66246,1,0
128,192,66323,2,0,B|240:176|288:192,1,157.5,2|8
464,240,66707,5,2
440,252,66784,1,2
416,260,66861,1,4
392,264,66938,1,2
368,256,67015,1,2
344,244,67092,1,0
320,232,67169,1,12
296,224,67246,1,0
268,228,67323,1,2
244,236,67400,1,0
220,240,67476,1,2
192,240,67553,1,0
168,232,67630,1,2
144,224,67707,1,0
116,224,67784,1,10
16,320,67938,1,2
48,112,68092,5,0
72,124,68169,1,0
100,128,68246,1,2
124,116,68323,1,0
144,100,68400,1,8
164,80,68476,1,0
188,68,68553,1,2
216,64,68630,1,0
240,76,68707,1,2
264,88,68784,1,0
288,92,68861,1,2
312,88,68938,1,0
336,80,69015,1,10
480,160,69169,1,2
376,304,69323,5,0
352,296,69400,1,2
328,288,69476,1,2
304,284,69553,1,0
276,280,69630,1,8
248,280,69707,1,2
220,284,69784,1,2
192,288,69861,1,0
168,296,69938,1,0
140,296,70015,1,2
116,288,70092,1,2
92,276,70169,1,0
76,256,70246,1,8
68,232,70323,1,2
68,204,70400,1,2
80,180,70476,1,0
92,156,70553,1,0
92,128,70630,1,2
84,104,70707,1,2
68,84,70784,1,0
44,76,70861,1,8
20,80,70938,1,2
0,100,71015,1,2
4,128,71092,1,0
16,152,71169,1,2
36,168,71246,1,2
60,176,71323,1,2
88,180,71400,1,2
112,176,71476,1,10
136,168,71553,1,2
160,160,71630,1,2
396,28,71784,5,4
384,52,71861,1,0
376,76,71938,1,2
372,104,72015,1,0
376,132,72092,1,8
388,156,72169,1,0
396,180,72246,1,2
404,204,72323,1,0
408,232,72400,1,2
392,256,72476,1,0
372,272,72553,1,2
360,296,72630,1,0
356,324,72707,1,10
368,348,72784,1,0
388,364,72861,1,2
156,40,73015,5,0
144,64,73092,1,0
128,84,73169,1,2
120,108,73246,1,0
124,136,73323,1,8
132,160,73400,1,0
148,184,73476,1,2
156,208,73553,1,0
148,236,73630,1,2
128,260,73707,1,0
108,276,73784,1,2
92,300,73861,1,0
96,328,73938,1,10
112,348,74015,1,0
132,360,74092,1,2
320,256,74246,5,0
320,256,74348,2,0,B|224:288,1,70,2|0
384,176,74553,1,8
384,176,74656,2,0,B|480:192,1,70,2|0
304,80,74861,1,0
304,80,74964,2,0,B|368:48,1,70,2|2
176,176,75169,1,8
176,176,75271,2,0,B|256:192,1,70,2|2
96,80,75476,1,4
96,80,75579,2,0,B|16:96,1,70,2|2
272,128,75784,1,8
272,128,75887,2,0,B|352:144,1,70,2|2
496,208,76092,1,8
496,208,76194,2,0,B|432:240,1,70,2|2
288,304,76400,1,8
288,304,76502,2,0,B|384:336,1,70,2|2
160,336,76707,5,4
32,288,76861,1,2
144,224,77015,1,8
9,183,77169,1,2
28,171,77246,1,2
48,160,77323,1,0
67,148,77400,1,2
86,136,77477,1,2
16,64,77630,1,8
160,32,77784,1,2
256,112,77938,5,0
288,120,78015,1,0
320,128,78092,1,2
464,208,78246,1,8
432,216,78323,1,0
400,224,78400,1,2
192,304,78553,1,2
216,312,78630,1,2
244,316,78707,1,0
272,316,78784,1,0
296,312,78861,1,10
320,304,78938,1,0
344,296,79015,1,2
412,100,79169,5,0
392,84,79246,1,0
368,76,79323,1,2
344,68,79400,1,0
320,64,79476,1,10
292,64,79553,1,2
264,68,79630,1,2
240,76,79707,1,0
220,92,79784,1,0
204,112,79861,1,0
188,132,79938,1,2
168,152,80015,1,0
144,164,80092,1,10
120,168,80169,1,2
92,168,80246,1,2
68,160,80323,1,0
48,144,80400,1,0
32,124,80476,1,0
24,100,80553,1,2
24,72,80630,1,0
36,48,80707,1,10
56,32,80784,1,2
80,20,80861,1,2
108,16,80938,1,0
132,24,81015,1,4
256,168,81169,5,2
280,172,81246,1,2
308,172,81323,1,2
332,164,81400,1,2
356,152,81476,1,10
416,304,81630,5,0
392,292,81707,1,0
368,284,81784,1,2
340,280,81861,1,0
312,280,81938,1,8
288,284,82015,1,0
260,288,82092,1,2
236,292,82169,1,0
208,292,82246,1,2
184,288,82323,1,0
160,280,82400,1,2
136,268,82476,1,0
116,252,82553,1,10
100,232,82630,1,0
92,208,82707,1,2
88,184,82784,1,0
84,156,82861,1,0
188,52,83015,1,2
312,112,83169,5,8
300,136,83246,1,0
280,152,83323,1,2
260,168,83400,1,0
236,176,83476,1,0
212,184,83553,1,0
184,184,83630,1,2
156,180,83707,1,0
132,176,83784,1,10
108,168,83861,1,0
84,156,83938,1,2
64,140,84015,1,0
44,124,84092,5,6
32,32,84246,1,2
224,64,84553,1,2
160,272,84861,1,2
384,224,85169,1,2
384,224,85323,5,0
364,240,85400,1,0
340,252,85476,1,2
316,260,85553,1,0
288,260,85630,1,8
264,252,85707,1,0
240,244,85784,1,2
216,236,85861,1,0
188,236,85938,1,12
164,244,86015,1,0
144,260,86092,1,2
120,272,86169,1,2
92,272,86246,1,2
68,264,86323,1,2
44,252,86400,1,2
24,236,86476,1,2
12,212,86553,1,4
112,256,89015,5,0
192,224,91015,5,0
192,224,91169,1,8
272,272,91476,5,0
272,272,91630,1,0
352,256,93938,1,0
432,288,95169,1,0
480,224,95784,5,0
432,160,96092,1,8
384,96,96400,5,8
384,96,96553,1,2
272,160,96861,1,2
272,160,97015,1,0
160,112,97476,1,2
160,112,97630,1,0
64,208,98092,1,2
64,208,98246,1,0
0,112,98707,1,2
0,112,98861,1,0
208,96,99323,1,2
208,96,99476,1,0
416,80,99938,1,2
416,80,100092,1,0
336,208,100553,1,2
336,208,100707,1,0
416,240,100861,1,2
416,240,101015,1,8
496,272,101169,1,2
496,272,101246,1,2
496,272,101323,5,0
416,320,101476,1,2
416,320,101630,1,2
272,272,101938,1,0
192,320,102092,1,2
192,320,102246,1,2
144,208,102553,1,0
64,256,102707,1,2
64,256,102861,1,2
160,96,103169,1,0
256,128,103323,1,2
256,128,103476,1,2
384,80,103784,5,0
384,80,103861,1,0
384,80,103938,1,2
320,176,104092,1,0
320,176,104169,1,0
320,176,104246,1,2
208,240,104400,1,0
208,240,104476,1,0
208,240,104553,1,2
80,256,104707,1,0
80,256,104784,1,0
80,256,104861,1,2
16,144,105015,6,0,B|0:64,1,52.5
96,64,105169,2,0,B|80:144,1,52.5,2|0
160,144,105323,2,0,B|176:96,1,52.5
240,128,105476,2,0,B|256:208,1,52.5,2|0
320,160,105630,1,8
336,160,105707,1,8
352,160,105784,1,10
368,160,105861,1,8
384,160,105938,1,8
400,160,106015,1,8
416,160,106092,1,10
432,160,106169,1,8
448,160,106246,5,4
440,192,106323,1,0
420,216,106400,1,2
392,232,106476,1,0
360,240,106553,1,12
328,240,106630,1,0
296,232,106707,1,2
264,224,106784,1,0
232,220,106861,1,2
200,228,106938,1,0
168,236,107015,1,2
48,296,107169,1,8
16,128,107323,5,2
44,136,107400,1,0
76,136,107476,1,0
108,132,107553,1,0
136,120,107630,1,2
164,108,107707,1,0
192,96,107784,1,8
224,88,107861,1,0
256,80,107938,1,2
288,80,108015,1,0
320,88,108092,1,2
348,100,108169,1,0
376,112,108246,1,2
480,216,108400,1,8
352,348,108553,5,2
360,316,108630,1,2
364,284,108707,1,0
356,252,108784,1,0
340,224,108861,1,2
320,200,108938,1,0
296,180,109015,1,8
268,168,109092,1,0
236,164,109169,1,2
204,172,109246,1,0
176,188,109323,1,0
152,212,109400,1,0
140,240,109476,1,2
140,272,109553,1,0
152,300,109630,1,8
176,320,109707,1,0
204,332,109784,1,2
236,328,109861,1,0
264,316,109938,1,0
288,296,110015,1,0
300,268,110092,1,2
304,236,110169,1,0
300,204,110246,1,8
288,176,110323,1,0
268,152,110400,1,2
248,128,110476,1,0
220,112,110553,1,0
188,104,110630,1,0
156,100,110707,1,2
124,100,110784,1,2
92,108,110861,1,10
64,120,110938,1,2
40,140,111015,1,10
20,164,111092,1,2
16,196,111169,5,0
32,232,111246,1,0
48,264,111323,1,2
256,256,111476,1,8
240,224,111553,1,0
224,192,111630,1,2
440,160,111784,1,2
432,200,111861,1,0
416,232,111938,1,2
400,264,112015,1,0
376,288,112092,1,10
344,304,112169,1,0
312,312,112246,1,2
120,304,112400,5,0
152,288,112476,1,0
184,272,112553,1,2
104,192,112707,1,8
72,176,112784,1,0
40,160,112861,1,2
184,44,113015,1,2
208,72,113092,1,0
224,104,113169,1,2
232,140,113246,1,0
220,176,113323,1,10
204,208,113400,1,0
176,228,113476,1,2
384,208,113630,5,4
384,208,113733,2,0,B|464:192,1,70,2|0
288,80,113938,1,8
288,80,114040,2,0,B|368:64,1,70,2|0
288,288,114245,1,0
288,288,114348,2,0,B|208:272,1,70,2|2
96,96,114553,1,8
96,96,114656,2,0,B|172:80,1,70,2|2
80,224,114861,1,4
80,224,114964,2,0,B|0:208,1,70,2|2
144,352,115169,1,12
144,352,115271,2,0,B|224:336,1,70,2|2
288,224,115476,1,12
288,224,115579,2,0,B|208:208,1,70,2|2
384,176,115784,1,12
384,176,115887,2,0,B|452:164,1,70,2|2
480,120,116092,5,4
452,104,116169,1,0
420,96,116246,1,2
388,100,116323,1,0
360,116,116400,1,8
332,128,116476,1,0
300,136,116553,1,2
268,132,116630,1,0
240,116,116707,1,2
212,104,116784,1,0
180,96,116861,1,2
148,100,116938,1,0
116,108,117015,1,10
88,124,117092,1,0
64,144,117169,1,2
44,168,117246,1,0
28,196,117323,1,0
24,228,117400,1,0
32,260,117476,1,2
52,284,117553,1,0
76,304,117630,1,8
104,316,117707,1,0
136,316,117784,1,2
164,304,117861,1,0
192,288,117938,1,2
212,264,118015,1,0
228,236,118092,1,2
248,212,118169,1,0
272,192,118246,1,10
296,172,118323,1,0
324,156,118400,1,2
356,148,118476,1,0
384,144,118553,6,0,B|460:128,1,52.5,6|0
352,80,118707,2,0,B|416:32,1,52.5,2|0
288,64,118861,2,0,B|304:16,1,52.5,10|0
224,48,119015,2,0,B|192:-16,1,52.5,2|0
160,80,119169,2,0,B|112:48,1,52.5,2|0
96,128,119323,2,0,B|16:112,1,52.5,2|0
64,192,119476,2,0,B|16:208,1,52.5,10|0
96,272,119630,2,0,B|64:320,1,52.5,2|0
176,288,119784,5,0
200,288,119861,1,0
224,288,119938,1,2
248,288,120015,1,0
272,288,120092,1,8
296,288,120169,1,0
320,288,120246,1,2
344,288,120323,1,0
368,288,120400,1,0
392,288,120476,1,0
416,288,120553,2,0,B|392:216,1,52.5,2|0
336,224,120707,2,0,B|312:152,1,52.5,10|0
256,160,120861,2,0,B|232:88,1,52.5,2|0
176,80,121015,5,4
40,192,121169,1,2
68,208,121246,1,0
96,220,121323,1,8
128,228,121400,1,0
160,232,121476,1,2
192,224,121553,1,0
224,216,121630,1,0
252,200,121707,1,0
280,192,121784,1,2
312,188,121861,1,0
344,196,121938,1,10
372,208,122015,1,0
400,224,122092,1,2
480,336,122246,5,0
328,344,122400,1,2
308,320,122476,1,0
292,292,122553,1,8
284,260,122630,1,0
292,228,122707,1,2
308,200,122784,1,0
324,172,122861,1,0
336,144,122938,1,0
328,112,123015,1,2
312,84,123092,1,0
288,64,123169,1,10
256,56,123246,1,0
224,60,123323,1,2
80,112,123476,5,4
112,192,123630,1,2
368,256,123938,1,2
80,304,124246,1,2
400,144,124553,1,2
480,260,124707,5,4
452,244,124784,1,0
428,224,124861,1,2
400,208,124938,1,0
372,196,125015,1,8
344,184,125092,1,0
312,180,125169,1,2
280,180,125246,1,0
248,184,125323,1,8
216,192,125400,1,0
184,204,125476,1,2
156,220,125553,1,2
132,240,125630,1,2
112,264,125707,1,2
96,292,125784,1,2
80,320,125861,1,2
288,272,126246,5,4
