osu file format v7

[General]
AudioFilename: cc-Departure.mp3
AudioLeadIn: 0
PreviewTime: 49900
Countdown: 0
SampleSet: Soft
StackLeniency: 0.7
Mode: 0
LetterboxInBreaks: 1

[Editor]
Bookmarks: 1902,5102,17902,30702,43502,56302,69102,83502
DistanceSpacing: 0.899999976158142
BeatDivisor: 4
GridSize: 8

[Metadata]
Title:Departure
Artist:cc
Creator:impossiblexu
Version:Normal+
Source:Fantasia Sango 3
Tags:Dongzhen Chufa Userjoy FS3

[Difficulty]
HPDrainRate:5
CircleSize:4
OverallDifficulty:5
SliderMultiplier:1.2
SliderTickRate:2

[Events]
//Background and Video events
0,0,"BG2.jpg"
Video,0,"MV.flv"
//Break Periods
//Storyboard Layer 0 (Background)
//Storyboard Layer 1 (Fail)
//Storyboard Layer 2 (Pass)
//Storyboard Layer 3 (Foreground)
//Storyboard Sound Samples
//Background Colour Transformations
3,100,163,162,255

[TimingPoints]
1902,400,4,1,1,31,1,0
17052,-100,4,2,1,54,0,0
18002,-100,4,1,1,31,0,0
26232,-100,4,1,2,31,0,0
26372,-100,4,1,1,31,0,0
39032,-100,4,1,2,31,0,0
39172,-100,4,1,1,31,0,0
45402,-100,4,1,2,31,0,0
45602,-100,4,1,1,31,0,0
56302,-100,4,1,1,31,0,1
61402,-100,4,1,2,31,0,1
61602,-100,4,1,1,31,0,1
80302,-100,4,1,1,31,0,0
80502,-100,4,2,1,0,0,0

[Colours]
Combo1 : 0,255,255
Combo2 : 255,0,255
Combo3 : 250,197,35
Combo4 : 255,0,0

[HitObjects]
204,73,5102,2,0,B|242:127|328:129,1,120,4|8
324,178,5702,1,0
369,148,5902,2,0,B|412:200|395:278,1,120,0|8
358,297,6502,2,0,B|300:268|238:298,1,120
127,298,7302,2,0,B|184:326|242:297,1,120
242,242,7902,1,8
208,199,8102,1,0
238,154,8302,6,0,B|303:162|369:122,1,120,0|8
375,80,8902,1,0
427,68,9102,2,0,B|433:104|463:116,3,60,0|0|8|0
479,165,9902,2,0,B|461:234|381:247,2,120,0|8|0
424,165,10902,1,0
370,165,11102,1,8
270,124,11502,6,0,B|229:183|274:246,1,120,4|8
160,226,12302,1,0
187,179,12502,1,0
155,135,12702,1,8
126,180,12902,2,0,B|69:151|9:186,1,120
32,234,13502,1,8
7,282,13702,2,0,B|64:315|121:286,1,120
167,314,14302,1,8
205,351,14502,6,0,B|300:375|397:335,1,180,0|8
404,291,15302,1,0
357,263,15502,2,0,B|317:210|346:140,1,120,0|8
237,174,16302,2,0,B|285:122|263:52,1,120,0|8
158,62,17102,6,2,B|167:123|54:101|107:179,2,120,2|2|2
190,105,18102,6,0,B|220:163|298:186,1,120
329,158,18702,1,0
366,196,18902,1,0
406,159,19102,1,8
445,195,19302,2,0,B|446:331,1,120
403,281,19902,5,8
362,316,20102,2,0,B|360:188,1,120
312,222,20702,1,8
264,197,20902,1,0
279,145,21102,2,0,B|240:92|169:92,1,120,0|8
83,141,21902,5,0
37,170,22102,1,0
83,141,22302,1,8
37,170,22502,2,0,B|99:208|74:285,1,120
126,250,23102,1,8
166,214,23302,2,0,B|208:263|186:330,1,120
235,349,23902,1,8
280,319,24102,6,0,B|340:294|402:324,1,120
428,278,24702,2,0,B|390:222|436:155,1,120,8|0
429,165,25302,1,0
429,165,25502,1,8
347,95,25902,5,0
347,95,26102,2,0,B|296:57|229:64,1,120
234,63,26702,2,0,B|226:133|152:168,1,120,0|8
118,179,27302,1,0
118,179,27502,6,0,B|187:221|177:307,1,120,4|8
125,265,28102,2,0,B|173:224|244:244,1,120,4|0
261,291,28702,1,8
293,334,28902,2,0,B|356:351|413:316,2,120,4|4|4
331,295,29902,5,0
354,245,30102,1,0
353,191,30302,2,0,B|388:174,2,30,8|0|0
324,145,30702,2,0,B|272:106|205:126,1,120,4|8
103,139,31502,5,0
72,183,31702,1,0
85,235,31902,1,8
115,279,32102,2,0,B|147:338|225:344,1,120
247,302,32702,1,8
280,344,32902,6,0,B|344:339|376:280,1,120
345,236,33502,2,0,B|353:164|438:149,1,120,8|0
337,82,34302,1,8
230,70,34702,5,0
204,118,34902,1,0
150,112,35102,1,8
140,165,35302,2,0,B|112:166|87:199|107:234|141:257|178:231|200:198|175:162|144:162,1,180,0|8
212,172,36102,2,0,B|249:229|344:218,1,120
362,192,36702,1,8
414,203,36902,1,0
477,290,37302,5,0
425,304,37502,1,8
376,281,37702,1,0
338,322,37902,1,0
287,301,38102,1,0
248,339,38302,1,8
201,310,38502,6,0,B|169:327|138:302,1,60
178,264,38902,2,0,B|162:198|219:143|296:150,1,180
267,201,39702,1,0
290,249,39902,2,0,B|327:234|329:193,2,60,8|0|4
395,271,40702,5,8
395,271,40902,1,0
429,168,41302,1,0
429,168,41502,1,8
429,168,41702,2,0,B|408:101|323:99,1,120,0|4
231,90,42502,5,0
231,90,42702,2,0,B|231:167,1,60,4|0
231,150,43102,2,0,B|230:281,1,120,0|4
330,313,43902,5,8
381,330,44102,1,0
422,295,44302,2,0,B|386:234|449:177,1,120,0|8
488,210,44902,2,0,B|455:150|374:166,2,120
480,156,45902,2,0,B|509:97|466:42,1,120,0|8
358,57,46702,6,0,B|316:97|241:93,1,120,4|8
222,141,47302,1,0
190,185,47502,2,0,B|142:222|71:212,1,120,0|8
33,245,48102,1,0
45,297,48302,6,0,B|144:244|77:346,1,120,0|8
136,348,48902,2,0,B|186:246|187:368,1,120
239,368,49502,1,8
292,366,49702,1,0
343,348,49902,6,0,B|385:299|472:310,1,120,4|8
473,258,50502,1,0
473,258,50702,1,0
457,151,51102,1,8
457,151,51302,1,0
384,71,51702,5,0
384,71,51902,2,8,B|353:51|308:62,2,60,8|0|0
353,115,52502,1,0
340,167,52702,2,0,B|286:201|211:170,1,120,8|4
118,174,53502,5,8
71,202,53702,1,0
75,255,53902,2,2,B|114:307|199:311,1,120,6|8
223,281,54502,1,0
247,233,54702,6,2,B|284:162|388:141|468:211|443:320,1,300,6|2
396,277,55902,1,8
356,239,56102,1,0
311,269,56302,6,0,B|318:313|299:340|264:352|234:338,1,120,4|8
153,278,57102,2,0,B|142:233|97:211|48:236,1,120,0|8
34,183,57702,1,0
69,141,57902,2,0,B|129:170|201:134,1,120,0|8
302,141,58702,2,0,B|242:170|170:134,1,120,0|8
155,244,59502,6,0,B|147:287|185:324|243:330,1,120,0|8
224,326,60102,2,0,B|266:341|311:329|336:297,1,120
333,299,60702,1,8
310,193,61102,2,0,B|378:155|305:123|193:124|129:158|228:199,1,240
120,127,62302,5,8
181,38,62702,2,8,B|225:83|298:87,1,120,0|8
298,139,63302,2,0,B|353:175|429:158,1,120
451,198,63902,1,8
411,298,64302,5,0
307,329,64702,1,8
307,329,64902,1,0
201,351,65302,1,0
201,351,65502,1,8
107,297,65902,6,0,B|90:269|54:266,2,60,0|0|8
160,287,66502,2,0,B|229:287|277:229,1,120
266,240,67102,1,8
211,147,67502,6,0,B|271:99|323:156,1,120,0|8
318,150,68102,2,0,B|378:198|430:141,1,120
472,176,68702,1,8
472,176,68902,1,0
472,176,69102,6,4,B|449:235|467:315,1,120,4|8
358,267,69902,2,0,B|294:248|239:276,1,120,0|8
136,307,70702,2,0,B|87:264|116:196,1,120,0|8
160,224,71302,2,0,B|196:161|138:105,1,120
104,79,71902,1,8
208,38,72302,6,0,B|267:73|339:34,1,120,0|8
262,131,73102,1,0
364,164,73502,1,8
364,164,73702,1,0
364,164,73902,2,0,B|340:222|394:224|357:282,1,120,0|8
261,327,74702,5,0
261,327,74902,1,0
261,327,75102,1,8
261,327,75302,1,0
261,327,75502,6,2,B|208:294|141:307,1,120,2|10
170,354,76102,2,2,B|211:299|189:214,1,120,2|2
247,229,76702,1,8
249,121,77102,6,2,B|273:60|350:49,1,120,2|10
339,50,77702,2,2,B|406:68|430:137,1,120,2|2
376,149,78302,1,8
340,189,78502,1,0
381,223,78702,6,2,B|271:301|146:227,1,240,2|0
182,185,79702,1,2
219,146,79902,1,2
269,126,80102,1,2
322,134,80302,1,4
256,192,80502,12,0,83502
