osu file format v7

[General]
AudioFilename: cc-Departure.mp3
AudioLeadIn: 0
PreviewTime: 49900
Countdown: 0
SampleSet: Normal
StackLeniency: 0.7
Mode: 0
LetterboxInBreaks: 1

[Editor]
Bookmarks: 1902,5102,17902,30702,43502,56302,69102,83502
DistanceSpacing: 1.20000004768372
BeatDivisor: 4
GridSize: 8

[Metadata]
Title:Departure
Artist:cc
Creator:impossiblexu
Version:Hard
Source:Fantasia Sango 3
Tags:Dongzhen Chufa Userjoy FS3

[Difficulty]
HPDrainRate:7
CircleSize:4
OverallDifficulty:6
SliderMultiplier:1.6
SliderTickRate:2

[Events]
//Background and Video events
0,0,"BG3.jpg"
Video,0,"MV.flv"
//Break Periods
//Storyboard Layer 0 (Background)
//Storyboard Layer 1 (Fail)
//Storyboard Layer 2 (Pass)
//Storyboard Layer 3 (Foreground)
//Storyboard Sound Samples
//Background Colour Transformations
3,100,163,162,255

[TimingPoints]
1902,400,4,1,1,31,1,0
10652,-100,4,1,1,13,0,0
11052,-100,4,1,1,22,0,0
11452,-100,4,1,1,31,0,0
26202,-100,4,1,2,31,0,0
26402,-100,4,1,1,31,0,0
36602,-100,4,1,2,31,0,0
36802,-100,4,1,1,31,0,0
56302,-100,4,1,1,31,0,1
71802,-100,4,1,2,31,0,1
72002,-100,4,1,1,31,0,1
80302,-100,4,1,1,31,0,0
80502,-100,4,2,1,0,0,0

[Colours]
Combo1 : 0,255,255
Combo2 : 255,0,255
Combo3 : 250,197,35
Combo4 : 255,0,0

[HitObjects]
32,32,1902,1,12
32,352,2502,1,12
480,352,3102,1,12
480,32,3702,1,12
256,192,4302,5,4
256,192,4502,1,4
67,63,5102,6,0,B|32:138|55:240,1,160,4|8
90,306,5702,1,0
90,306,5802,1,0
90,306,5902,2,0,B|137:301|171:259,1,80
185,179,6302,1,8
217,88,6502,2,0,B|308:73|362:151,1,160
264,171,7102,5,8
184,224,7302,2,0,B|238:279|337:263,1,160
377,348,7902,1,8
430,268,8102,1,0
377,187,8302,1,4
220,75,8702,6,0,B|181:99|121:90,1,80,8|0
112,128,9002,1,0
66,142,9102,2,0,B|39:181|49:234,1,80,0|0
94,301,9502,2,0,B|136:282|192:282,1,80,8|0
171,282,9802,1,0
171,282,9902,5,0
308,327,10102,1,0
440,271,10302,1,8
418,128,10502,1,0
293,56,10702,5,0
281,52,10802,1,0
269,49,10902,1,0
257,49,11002,1,0
245,51,11102,1,8
233,51,11202,1,0
221,52,11302,1,0
209,54,11402,1,0
197,58,11502,6,0,B|147:127|47:129,1,160,4|8
114,312,12302,2,0,B|164:308|209:336,1,80
276,280,12702,1,8
330,358,12902,2,0,B|397:307|389:197,1,160
308,164,13502,5,8
212,177,13702,2,0,B|211:90|317:33,1,160
382,82,14302,1,8
399,176,14502,1,0
399,176,14602,1,0
399,176,14702,6,0,B|408:216|383:264,1,80
294,276,15102,2,0,B|276:320|286:363,1,80,8|0
188,360,15502,2,0,B|150:341|98:348,3,80,0|0|8|0
21,292,16302,5,0
34,188,16502,1,0
102,109,16702,1,8
196,66,16902,1,0
254,152,17102,5,2
129,375,17502,1,2
384,376,17902,1,2
472,338,18102,6,0,B|426:271|450:176,1,160
371,125,18702,1,0
371,125,18802,1,0
371,125,18902,1,0
291,70,19102,1,8
209,120,19302,2,0,B|131:179|52:115,1,160
101,210,19902,5,8
149,292,20102,2,0,B|168:281|189:281,2,40
231,341,20502,1,0
325,355,20702,1,8
416,326,20902,2,0,B|358:299|330:219|379:159|454:153,1,240,0|8
372,92,21702,5,0
276,103,21902,2,0,B|201:142|113:101,1,160,0|8
125,200,22502,2,0,B|204:162|279:201,1,160
278,200,23002,5,0
278,200,23102,1,8
225,280,23302,2,0,B|268:354|380:348,1,160
379,257,23902,1,8
466,217,24102,2,0,B|426:191|426:137,1,80
471,65,24502,1,0
471,65,24602,1,0
471,65,24702,1,8
362,133,24902,5,0
271,42,25102,1,0
180,132,25302,1,0
89,41,25502,1,8
35,120,25702,5,0
35,120,25802,1,0
35,120,25902,1,0
16,216,26102,2,0,B|37:251|86:268|133:251|153:208,1,160
100,128,26702,2,0,B|162:104|184:169|268:136,1,160,0|8
288,232,27302,5,0
288,232,27502,1,4
480,232,27902,1,0
480,232,28102,1,4
363,79,28502,1,0
285,22,28702,1,0
210,79,28902,6,4,B|257:151|362:134,2,160
129,131,29902,1,0
151,224,30102,1,0
226,286,30302,2,0,B|225:327,2,40,8|0|0
321,297,30702,5,4
321,297,31102,1,8
434,142,31502,6,0,B|402:109|416:60,1,80
324,33,31902,1,8
300,126,32102,2,0,B|222:153|130:125,1,160
77,199,32702,1,8
142,255,32902,2,0,B|222:231|300:258,1,160
374,197,33502,5,8
415,110,33702,2,0,B|485:113|523:179|508:258|432:284,1,240,0|8
350,248,34502,1,0
277,310,34702,6,0,B|237:284|195:313,1,80
201,308,35002,1,0
201,308,35102,1,8
106,295,35302,2,0,B|115:209|33:140,1,160
105,76,35902,5,8
195,43,36102,2,0,B|195:-3,2,40
289,61,36502,2,0,B|235:137|294:217,2,160
396,131,37502,5,8
479,228,37702,1,0
400,329,37902,1,0
276,295,38102,1,0
270,167,38302,1,8
184,120,38502,5,0
96,160,38702,2,0,B|40:240|104:320,1,160,0|8
183,268,39302,1,0
228,352,39502,2,0,B|308:386|393:349,1,160,0|8
451,284,40102,1,0
440,192,40302,6,0,B|410:40|385:203,1,160,0|8
288,192,40902,2,0,B|258:344|233:181,1,160
136,192,41502,1,8
70,121,41702,6,0,B|93:84|137:69|177:80|210:129,1,160,0|4
292,82,42302,1,0
381,116,42502,2,0,B|423:115,2,40
387,211,42902,2,0,B|365:343|196:363,1,240,4|4
54,262,43902,5,8
89,172,44102,1,0
89,172,44202,1,0
89,172,44302,2,0,B|177:156|212:68,1,160,0|8
267,151,44902,2,0,B|358:165|428:109,1,160
468,198,45502,6,0,B|516:197,2,40,8|0|0
435,288,45902,2,0,B|368:343|272:337,1,160,0|8
190,337,46502,1,0
111,281,46702,1,4
88,90,47102,5,8
174,130,47302,1,0
174,130,47402,1,0
174,130,47502,2,0,B|253:157|341:129,1,160,0|8
414,84,48102,1,0
389,176,48302,6,0,B|447:195|478:233|435:249|366:230,1,160,0|8
293,286,48902,2,0,B|334:331|342:379|297:372|246:322,1,160
155,330,49502,1,8
87,261,49702,1,0
76,165,49902,2,0,B|164:161|227:92,1,160,4|8
280,174,50502,5,0
360,128,50702,2,0,B|360:216,1,80
360,288,51102,2,0,B|360:206,1,80,8|0
280,262,51502,1,0
192,300,51702,1,0
99,323,51902,6,0,B|85:277|36:270,1,80,8|0
43,271,52202,1,0
43,271,52302,1,0
26,176,52502,1,0
106,123,52702,1,8
283,50,53102,5,4
207,327,53502,5,8
345,288,53702,1,0
301,150,53902,1,4
163,191,54102,1,0
410,42,54502,5,2
119,39,54902,1,2
45,251,55902,5,0
107,323,56102,1,0
202,334,56302,2,0,B|240:304|285:313,1,80,4|0
368,337,56702,1,8
368,337,56802,1,0
368,337,56902,1,0
428,262,57102,2,0,B|409:222|424:181,1,80
360,110,57502,1,8
360,110,57602,1,0
360,110,57702,1,0
293,40,57902,6,0,B|219:77|132:37,1,160,0|8
138,136,58502,2,0,B|218:98|292:135,1,160
265,227,59102,1,8
169,231,59302,1,0
91,287,59502,6,0,B|118:324|172:321,1,80
160,321,59802,1,0
160,321,59902,1,8
256,319,60102,2,0,B|298:321|325:284,1,80
324,286,60402,1,0
324,286,60502,1,0
383,210,60702,5,8
355,118,60902,1,0
288,49,61102,2,0,B|112:49,1,160,0|8
54,110,61702,2,0,B|222:110,1,160
160,192,62302,5,8
160,288,62502,1,0
255,288,62702,2,0,B|333:324|416:283,1,160,0|8
331,229,63302,1,0
331,229,63402,1,0
331,229,63502,1,0
331,133,63702,1,0
327,37,63902,2,0,B|371:10|408:39,1,80,8|0
452,116,64302,6,0,B|413:197|454:272,1,160,0|8
394,346,64902,1,0
298,339,65102,2,0,B|272:376,2,40
222,279,65502,1,8
222,279,65702,1,0
187,189,65902,6,0,B|82:187,1,80
73,152,66202,1,0
44,113,66302,1,8
97,33,66502,2,0,B|176:67|262:24,1,160
310,104,67102,1,8
401,134,67302,5,0
401,134,67402,1,0
401,134,67502,2,0,B|449:209|399:290,1,160,0|8
337,213,68102,2,0,B|316:306|219:322,1,160
96,256,68702,1,8
72,216,68802,1,0
120,216,68902,1,0
128,120,69102,6,0,B|216:78|299:129,1,160,4|8
232,201,69702,1,0
316,246,69902,2,0,B|316:298,2,40
411,230,70302,1,8
411,230,70502,1,0
469,153,70702,6,0,B|389:138|329:65,1,160,0|8
240,51,71302,1,0
144,64,71502,1,0
64,118,71702,2,0,B|84:201|10:266,1,160
82,330,72302,5,0
176,348,72502,1,0
176,348,72602,1,0
176,348,72702,1,8
271,347,72902,1,0
361,315,73102,1,0
436,255,73302,1,0
436,255,73402,1,0
436,255,73502,1,8
451,160,73702,5,0
409,73,73902,2,0,B|334:119|247:68,1,160,0|8
168,37,74502,2,0,B|111:114|171:194,1,160
237,248,75102,5,8
237,248,75302,1,0
179,324,75502,6,2,B|101:360|15:322,1,160
26,229,76102,2,2,B|103:194|187:227,1,160
185,128,76702,1,8
185,128,76902,1,0
275,96,77102,6,2,B|313:171|269:255,1,160
368,249,77702,2,2,B|326:170|364:95,1,160
460,100,78302,1,8
496,188,78502,1,0
476,282,78702,6,2,B|411:344|288:373|177:349|101:275,1,400
64,144,79902,1,2
173,50,80102,1,2
311,88,80302,1,4
256,192,80502,12,0,83502
