osu file format v7

[General]
AudioFilename: cc-Departure.mp3
AudioLeadIn: 0
PreviewTime: 49900
Countdown: 0
SampleSet: Normal
StackLeniency: 0.7
Mode: 0
LetterboxInBreaks: 1

[Editor]
Bookmarks: 1902,5102,17902,30702,43502,56302,69102,83502
DistanceSpacing: 0.800000011920929
BeatDivisor: 2
GridSize: 8

[Metadata]
Title:Departure
Artist:cc
Creator:impossiblexu
Version:Easy
Source:Fantasia Sango 3
Tags:Dongzhen Chufa Userjoy FS3

[Difficulty]
HPDrainRate:2
CircleSize:3
OverallDifficulty:2
SliderMultiplier:0.8
SliderTickRate:1

[Events]
//Background and Video events
0,0,"BG1.jpg"
Video,0,"MV.flv"
//Break Periods
//Storyboard Layer 0 (Background)
//Storyboard Layer 1 (Fail)
//Storyboard Layer 2 (Pass)
//Storyboard Layer 3 (Foreground)
//Storyboard Sound Samples
//Background Colour Transformations
3,100,163,162,255

[TimingPoints]
1902,400,4,1,1,31,1,0
26602,-100,4,1,2,31,0,0
26802,-100,4,1,1,31,0,0
39402,-100,4,1,2,31,0,0
39602,-100,4,1,1,31,0,0
56302,-100,4,1,1,31,0,1
80302,-100,4,1,1,31,0,0
80502,-100,4,2,1,0,0,0

[Colours]
Combo1 : 0,255,255
Combo2 : 255,0,255
Combo3 : 250,197,35
Combo4 : 255,0,0

[HitObjects]
130,33,5102,1,4
256,56,5902,2,0,B|204:55|169:106|206:154|277:152,2,160,8|0|8
300,101,7902,1,0
358,126,8302,6,0,B|417:191|521:189,1,160,0|8
391,256,9902,2,0,B|339:326|228:328,1,160,0|8
190,340,11102,1,8
127,325,11502,5,4
66,212,12302,2,0,B|161:204|191:114,1,160,8|0
242,89,13502,1,0
282,138,13902,2,0,B|314:176|370:166,2,80,8|0|0
251,262,15502,6,0,B|340:266|388:358,1,160,8|0
439,319,16702,1,0
480,270,17102,1,8
451,212,17502,1,8
394,181,17902,5,4
291,103,18702,2,0,B|210:144|122:101,1,160,8|0
95,156,19902,1,0
75,217,20302,2,0,B|56:266|91:310,2,80,8|0|0
177,293,21902,5,8
302,318,22702,2,0,B|290:230|386:189,1,160,0|8
426,235,23902,1,0
425,298,24302,2,0,B|507:264|494:160,1,160,0|8
403,78,25902,5,0
340,65,26302,2,0,B|306:49|258:69|235:110|251:146|281:173|341:171|369:126,1,240,0|0
409,254,28302,1,8
295,310,29102,2,4,B|251:294|216:310,2,80,4|0|8
257,187,30702,5,4
218,71,31502,2,0,B|224:19|253:-34|284:15|287:75,1,160,8|0
253,126,32702,1,0
215,177,33102,2,0,B|241:197|264:197|294:175,2,80,8|0|0
111,252,34702,6,0,B|159:246|185:289,1,80,8|0
118,316,35502,2,0,B|154:367|220:374|276:353,1,160,0|8
238,297,36702,1,0
223,234,37102,2,0,B|256:206|308:224,2,80,0|0|8
178,113,38702,5,0
232,78,39102,2,0,B|246:85|246:85|254:73|254:73|264:88|264:88|272:72|272:72|280:88|280:88|288:72|288:72|296:88|296:88|304:72|304:72|312:88|312:88|320:72|320:72|328:88|328:88|336:72|336:72|344:88|344:88|354:75|354:75,1,240,0|0
414,188,41102,1,8
308,260,41902,1,0
308,260,42302,1,0
308,260,42702,1,8
180,258,43502,5,4
69,192,44302,2,0,B|162:196|204:92,1,160,8|0
248,147,45502,1,0
303,128,45902,1,8
347,167,46302,1,0
405,140,46702,6,0,B|505:164|479:291,1,160,4|8
421,279,47902,1,0
359,261,48302,2,0,B|318:237|281:264,1,80,0|0
325,315,49102,2,0,B|276:351|208:343|164:298,1,160,8|4
150,250,50302,5,0
194,204,50702,2,0,B|286:182|293:72,1,160,8|0
335,137,51902,1,0
378,90,52302,2,0,B|383:181|475:203,1,160,8|4
488,264,53502,5,0
451,316,53902,2,0,B|453:289|432:262|398:253|364:261|341:287|348:314,2,160,14|6|12
391,339,55902,5,0
333,367,56302,2,2,B|258:326|158:347,1,160,6|10
122,311,57502,1,0
90,254,57902,2,2,B|62:172|122:86,1,160,2|8
238,112,59502,6,2,B|246:179|306:201|368:173,1,160,2|10
347,114,60702,1,0
344,50,61102,2,2,B|406:55|439:112|398:169,1,160,2|8
429,222,62302,5,0
474,266,62702,2,2,B|411:328|316:299,1,160,2|10
278,258,63902,1,0
233,304,64302,2,2,B|145:326|81:266,1,160,2|8
75,140,65902,6,2,B|88:99|136:84,1,80,2|0
144,149,66702,2,2,B|157:190|207:204,1,80,10|0
235,148,67502,2,2,B|405:148,1,160,2|10
445,265,69102,5,4
332,326,69902,1,10
210,287,70702,2,2,B|148:226|52:246,1,160,2|10
90,186,71902,1,0
150,165,72302,2,6,B|182:85|287:73,2,160,6|8|6
266,217,74702,5,8
315,257,75102,1,0
365,217,75502,2,2,B|372:122|482:111,1,160,2|10
457,176,76702,1,0
441,238,77102,2,2,B|484:252|487:302,3,80,2|2|10|2
422,299,78702,6,2,B|349:358|191:358|111:298,1,320,2|6
256,192,80502,12,0,83502
