osu file format v6

[General]
AudioFilename: capsule - Sugarless GiRL.mp3
AudioLeadIn: 0
PreviewTime: 88831
Countdown: 0
SampleSet: Soft
StackLeniency: 0.7
Mode: 0
LetterboxInBreaks: 1

[Editor]
DistanceSpacing: 0.800000011920929
BeatDivisor: 4
GridSize: 8

[Metadata]
Title:Sugarless GiRL
Artist:capsule
Creator:haisha_
Version:Normal
Source:
Tags:

[Difficulty]
HPDrainRate:3
CircleSize:4
OverallDifficulty:4
SliderMultiplier:1.5
SliderTickRate:1

[Events]
//Background and Video events
0,0,"Sugarless%20GiRL%202.jpg"
//Break Periods
2,40992,50823
//Storyboard Layer 0 (Background)
//Storyboard Layer 1 (Fail)
//Storyboard Layer 2 (Pass)
//Storyboard Layer 3 (Foreground)
//Storyboard Sound Samples
//Background Colour Transformations
3,100,128,128,128

[TimingPoints]
20,463.320463320463,4,2,0,100,1,0
88777,-100,4,2,0,100,0,1
102908,-100,4,2,0,100,0,0

[Colours]
Combo1 : 86,191,241
Combo2 : 234,234,234

[HitObjects]
416,64,14846,2,8,C|416:139|337:139,1,150,0|8
288,256,15772,6,8,C|233:311|166:235,1,150,0|8
128,128,16699,6,8,C|53:128|52:45,1,150,2|8
224,56,17626,6,2,C|313:56,5,75,2|2|2|2|10|10
224,192,19247,5,8
224,192,19479,1,8
224,193,19710,1,8
224,328,20174,6,2,C|304:328,1,75
376,328,20637,1,2
384,192,21100,6,0,C|288:192,1,75,0|8
240,192,21564,2,0,C|128:192,1,75,0|8
96,192,22027,2,0,C|96:272,2,75,0|8|8
104,64,22954,5,10
176,64,23185,1,2
248,64,23417,1,2
376,64,23880,5,10
376,136,24112,1,10
376,208,24344,1,10
248,208,24807,6,0,C|249:120,2,75
176,208,25502,2,8,C|98:208,1,75,0|8
96,136,25965,2,8,B|192:136,1,75
312,144,26660,5,8
312,144,26892,1,8
312,144,27124,1,2
256,192,27587,12,4,29209
80,144,29672,6,2,B|128:112|176:168,1,75
288,144,30367,1,0
288,144,30598,1,2
288,144,30830,1,2
288,272,31293,1,0
288,272,31525,1,2
288,272,31757,1,2
288,144,32220,6,0,B|320:112|368:152,1,75,0|0
352,272,32915,1,0
352,272,33378,1,0
320,80,34073,5,2
320,80,34305,1,2
320,80,34537,1,2
176,80,35000,5,2
176,80,35232,1,2
176,80,35463,1,2
176,224,36158,5,0
320,224,36622,1,0
464,224,37085,1,0
464,224,37780,5,2
464,224,38012,1,2
464,224,38243,1,2
320,224,38707,5,2
320,224,38938,1,2
320,224,39170,1,2
176,224,39865,5,0
176,80,40328,1,0
320,80,40792,1,0
72,208,52143,5,2
144,208,52375,1,2
272,208,52838,1,2
144,96,53996,6,8,C|98:188|144:228,1,150
200,240,54691,2,8,C|246:310|329:281,1,150
376,280,55386,1,8
384,96,55849,5,8
312,96,56081,1,8
240,96,56313,1,8
168,96,56544,1,8
96,96,56776,1,8
256,192,57239,12,4,58861
176,192,59788,5,8
336,192,60251,1,10
126,111,61409,6,2,C|177:68|262:104,1,150
256,168,62104,2,2,C|316:217|387:142,1,150
368,96,62799,1,2
160,256,63263,6,8,L|256:256,1,75
304,256,63726,2,0,L|400:256,1,75
376,256,64189,1,0
240,128,65116,6,2,C|160:96|80:128,1,150
96,192,65811,6,2,C|176:224|256:192,1,150
192,96,66969,6,8,B|288:96,1,75
336,96,67432,2,8,B|240:96,1,75
264,96,67896,1,8
256,224,68822,6,2,C|256:304,2,75
256,224,69517,5,2
256,224,69749,1,2
256,152,69981,1,2
256,152,70212,1,8
96,200,70676,6,8,B|96:104,1,75
96,56,71139,1,8
168,56,71371,1,8
240,56,71602,1,8
312,56,71834,2,8,B|312:152,1,75
256,192,72529,12,0,73687
256,192,74382,6,2,B|256:272,2,75
256,192,75077,6,0,C|368:192,2,75
256,192,75772,6,2,C|256:96,2,75
256,192,76467,6,8,C|160:192,2,75
96,96,77394,6,8,C|192:96,1,75,8|0
176,168,77857,2,8,C|256:168,1,75,8|0
256,96,78320,2,8,C|336:96,1,75,8|0
336,168,78784,6,8,C|336:259,1,75,8|0
264,240,79247,6,8,C|184:240,1,75,8|0
184,168,79710,2,8,C|98:166,1,75,8|0
40,168,80174,2,8,C|40:76,1,75,8|0
112,88,80637,2,8,C|224:88|272:88,1,150,8|4
456,160,81796,6,0,B|368:160,1,75
304,160,82259,1,0
232,160,82491,1,0
160,160,82722,2,0,B|160:272,2,75
232,160,83417,2,0,B|408:160,1,150
336,272,84344,6,0,B|176:272,1,150
240,160,85270,1,0
240,160,85734,1,0
240,160,86197,1,0
240,160,86660,1,0
256,192,87124,12,0,88514
104,96,88745,5,2
176,96,88977,1,2
248,96,89209,1,2
384,96,89672,5,8
384,168,89904,1,8
384,240,90135,1,8
232,240,90598,5,2
160,240,90830,1,2
88,240,91062,1,2
112,112,91525,6,8,C|24:112,6,75
256,112,93378,5,2
256,112,93610,1,2
256,112,93842,1,4
400,112,94305,6,8,C|496:112,2,75
240,160,95232,6,8,B|240:64,1,75
168,88,95695,6,8,B|72:88,1,75
88,160,96158,6,8,B|88:248,1,75
88,304,96622,1,0
224,304,97085,5,8
224,304,97317,1,10
224,304,97548,1,10
224,160,98012,2,8,C|147:103,2,75
352,176,98938,5,0
352,248,99170,1,0
352,320,99402,1,0
280,320,99633,1,2
208,320,99865,1,2
136,320,100097,1,2
136,248,100328,1,2
144,112,100792,6,8,C|215:71,2,75,8|8|8
256,192,101718,12,4,102645
