osu file format v5

[General]
AudioFilename: 01 Sora Tobu Toshi Keikaku.mp3
AudioLeadIn: 0
PreviewTime: 87629
Countdown: 1
SampleSet: Normal
StackLeniency: 0.7
Mode: 0
EditorBookmarks: 13220,116921

[Metadata]
Title:Sora Tobu Toshi Keikaku
Artist:capsule
Creator:silasw
Version:Easy
Source:
Tags:

[Difficulty]
HPDrainRate:2
CircleSize:2
OverallDifficulty:3
SliderMultiplier:1.2
SliderTickRate:1

[Events]
//Background and Video events
0,0,"Sora Tobu Toshi Keikaku (1).PNG"
//Break Periods
2,26420,42024
2,72010,87378
//Storyboard Layer 0 (Background)
//Storyboard Layer 1 (Failing)
//Storyboard Layer 2 (Passing)
//Storyboard Layer 3 (Foreground)
//Storyboard Sound Samples
//Background Colour Transformations
3,100,163,162,255

[TimingPoints]
8,472.44094488189,4,1,0,100

[HitObjects]
416,192,13236,1,0
416,288,13708,1,0
320,288,14181,1,0
176,288,14889,5,0
176,192,15362,1,0
176,48,16070,5,0
80,48,16543,1,0
80,144,17015,5,0
80,240,17488,1,0
80,336,17960,1,0
224,336,18669,1,0
408,72,20795,6,0,C|408:240,2,120
264,72,22448,1,0
168,72,22921,1,0
168,216,23630,5,0
264,216,24102,1,0
264,312,24574,5,0
360,312,25047,1,0
456,312,25519,1,0
456,168,26228,1,0
72,312,43472,5,0
136,240,43945,1,0
200,168,44417,1,0
264,96,44889,1,0
360,96,45362,5,0
360,240,46070,1,0
72,72,47252,5,0
136,144,47724,1,0
200,216,48196,1,0
264,288,48669,1,0
360,288,49141,5,0
360,144,49850,1,0
120,192,51031,5,0
120,96,51504,1,0
216,96,51976,1,0
216,192,52448,1,0
216,288,52921,1,2
72,288,53630,1,2
312,288,54811,5,0
408,288,55283,1,0
408,192,55756,1,0
312,192,56228,1,0
312,96,56700,1,2
456,96,57409,1,2
216,64,58590,6,0,C|56:136|246:316|104:344,1,600
56,256,61425,2,0,C|192:184,1,120
256,224,62370,2,0,C|368:328|488:144,2,360
256,128,65677,5,0
328,64,66149,2,0,C|448:144|301:204|388:296|200:312,1,600
128,304,68984,2,0,C|64:176,1,120
96,104,69929,2,0,C|272:80|336:256|216:184,1,480
424,88,88826,6,0,C|424:256,1,120
424,304,89771,2,0,C|344:304,1,60
264,304,90480,2,0,C|88:304,1,120
48,304,91425,2,2,C|48:240,3,60
48,144,92606,6,0,C|168:144,1,120
264,144,93551,2,2,C|328:144,1,60
416,144,94259,1,2
72,72,96385,5,0
168,72,96858,1,0
264,72,97330,2,0,C|360:72,1,60
416,72,98039,1,0
416,168,98511,1,0
320,168,98984,2,2,C|232:168,3,60
160,168,100165,6,0,C|160:304,1,120
256,288,101110,2,2,C|328:288,1,60
408,288,101819,1,2
80,312,103945,6,0,C|80:184,2,120
224,312,105598,2,0,C|224:176,1,120
224,48,106779,1,0
320,48,107252,1,0
416,48,107724,6,0,C|416:208,2,120
272,48,109378,1,0
256,192,111504,12,0,114811
112,88,115283,1,0
208,88,115756,1,0
304,88,116228,1,0
304,88,116464,1,0
400,88,116937,1,4
