osu file format v8

[General]
AudioFilename: CAPSULE - Jumper.mp3
AudioLeadIn: 0
PreviewTime: 106225
Countdown: 0
SampleSet: Soft
StackLeniency: 0.3
Mode: 0
LetterboxInBreaks: 1
StoryFireInFront: 0

[Editor]
Bookmarks: 32363,43440,47132,61901,76671,91440,120978,135748,150517,165286,180055,194825,209594,224363,237978
DistanceSpacing: 1.4
BeatDivisor: 4
GridSize: 8

[Metadata]
Title:JUMPER
Artist:capsule
Creator:Mafiamaster
Version:Insane
Source:
Tags:Verdisphena Rokodo Roko-Don Licnect

[Difficulty]
HPDrainRate:7
CircleSize:5
OverallDifficulty:7
ApproachRate:7
SliderMultiplier:1.2
SliderTickRate:2

[Events]
//Background and Video events
0,0,"Ok.jpg"
Video,0,"Do it from behind.avi"
//Break Periods
2,165531,179200
//Storyboard Layer 0 (Background)
//Storyboard Layer 1 (Fail)
//Storyboard Layer 2 (Pass)
//Storyboard Layer 3 (Foreground)
//Storyboard Sound Samples
//Background Colour Transformations
3,100,0,0,0

[TimingPoints]
2870,461.538461538462,4,2,1,100,1,0
74754,-100,4,1,1,40,0,0
76555,-100,4,2,1,100,0,0
104248,-100,4,2,1,50,0,0
106094,-100,4,2,1,100,0,0
106254,-100,4,2,1,100,0,1
106341,-100,4,2,1,100,0,0
146940,-100,4,2,1,0,0,0
147171,-100,4,2,1,100,0,0
147863,-100,4,2,1,0,0,0
148094,-100,4,2,1,100,0,0
150562,-100,4,2,1,100,0,1
150648,-100,4,2,1,100,0,0
165171,-100,4,1,1,70,0,0
165401,-100,4,2,1,100,0,0
217094,-100,4,2,1,0,0,0
217325,-100,4,2,1,100,0,0
218017,-100,4,2,1,0,0,0
218248,-100,4,2,1,100,0,0
218478,-100,4,2,1,0,0,0
218709,-100,4,2,1,100,0,0
220786,-100,4,2,1,0,0,0
221017,-100,4,2,1,100,0,0
221709,-100,4,2,1,0,0,0
221940,-100,4,2,1,100,0,0
222401,-200,4,2,1,100,0,0
222863,-200,4,2,1,0,0,0
223094,-100,4,2,1,100,0,0
223440,-200,4,2,1,0,0,0
223671,-66.6666666666667,4,2,1,100,0,0
224248,-100,4,2,1,100,0,0
230709,-100,4,2,1,0,0,0
230940,-100,4,2,1,100,0,0
231401,-100,4,2,1,0,0,0
231632,-100,4,2,1,100,0,0

[HitObjects]
64,192,32408,2,0,B|0:192,2,60,4|0|8
96,112,33100,1,0
192,192,33446,1,0
96,272,33793,1,8
256,320,34254,6,0,B|256:384,2,60,0|0|8
176,288,34946,1,0
256,192,35293,1,0
336,288,35639,1,8
448,192,36100,6,0,B|512:192,2,60,0|0|8
416,112,36793,1,0
320,192,37139,1,0
416,272,37485,1,8
256,192,37946,6,0,B|256:128,2,60,0|0|8
176,160,38639,1,0
336,160,38985,1,0
256,256,39331,1,8
256,256,39446,2,0,B|256:320,1,60
256,360,39793,5,4
192,304,40023,1,0
320,304,40254,1,8
336,224,40485,5,0
176,224,40831,1,0
256,88,41177,1,8
320,144,41408,5,0
192,144,41639,1,0
256,264,41870,1,0
256,176,42100,1,8
256,88,42331,5,0
176,224,42677,1,0
336,224,43023,1,8
256,192,43485,12,0,46716
256,192,47177,5,4
168,264,47408,2,0,B|192:296|216:264,1,60,0|8
216,120,47870,2,0,B|192:88|168:120,1,60
295,263,48331,2,0,B|320:296|344:264,1,60,0|8
344,120,48793,2,0,B|320:88|296:120,1,60
168,264,49254,6,0,B|192:296|216:264,1,60,0|8
344,120,49716,2,0,B|320:88|296:120,1,60
295,263,50177,2,0,B|320:296|344:264,1,60,8|8
216,120,50639,2,0,B|192:88|168:120,1,60
208,344,51100,6,0,B|224:376|256:384|288:376|304:344,1,120
96,144,52023,2,0,B|64:160|56:192|64:224|96:240,1,120
304,40,52946,2,0,B|288:8|256:0|224:8|208:40,1,120
408,240,53870,2,0,B|440:224|448:192|440:160|408:144,1,120,8|0
344,264,54793,6,0,B|320:296|296:264,1,60,0|8
296,120,55254,2,0,B|320:88|344:120,1,60
216,264,55716,2,0,B|192:296|168:264,1,60,0|8
168,120,56177,2,0,B|192:88|216:120,1,60
344,264,56639,6,0,B|320:296|296:264,1,60,0|8
168,120,57100,2,0,B|192:88|216:120,1,60
216,264,57562,2,0,B|192:296|168:264,1,60,8|8
296,120,58023,2,0,B|320:88|344:120,1,60,0|0
312,32,58485,6,0,B|280:40|256:20|256:20|232:40|200:32,1,120,0|0
416,248,59408,2,0,B|408:216|428:192|428:192|408:168|416:136,1,120
200,352,60331,2,0,B|232:344|256:364|256:364|280:344|312:352,1,120
96,136,61254,2,0,B|104:168|84:192|84:192|104:216|96:248,1,120,8|0
128,320,61946,5,4
168,256,62177,2,0,B|168:192,1,60,0|8
344,128,62639,2,0,B|344:192,1,60
184,248,63100,2,0,B|184:184,1,60,0|8
328,136,63562,2,0,B|328:200,1,60
200,240,64023,2,0,B|200:176,1,60,0|8
312,144,64485,2,0,B|312:208,1,60
216,232,64946,2,0,B|216:172,1,60,8|8
296,152,65408,2,0,B|296:212,1,60
232,328,65870,6,0,B|216:368|256:392|296:368|280:328,1,120
120,168,66793,2,0,B|80:152|56:192|80:232|120:216,1,120
280,56,67716,2,0,B|296:16|256:-8|216:16|232:56,1,120
392,216,68639,2,0,B|432:232|456:192|432:152|392:168,1,120,8|0
216,212,69562,6,0,B|216:152,1,60,0|8
296,172,70023,2,0,B|296:232,1,60
200,204,70485,2,0,B|200:144,1,60,0|8
312,180,70946,2,0,B|312:240,1,60
184,196,71408,2,0,B|184:136,1,60,0|8
328,188,71870,2,0,B|328:248,1,60
168,188,72331,2,0,B|168:128,1,60,8|8
344,196,72793,2,0,B|344:256,1,60
192,384,73254,6,0,B|160:368|152:336|160:304|192:288,1,120
320,288,74177,2,0,B|352:304|360:336|352:368|320:384,1,120,0|0
256,344,74870,5,0
256,344,75216,1,0
256,344,75562,1,0
256,344,75908,1,0
256,224,76254,1,0
256,144,76485,1,0
256,64,76716,5,4
184,32,76946,1,0
104,32,77177,1,0
32,64,77408,1,0
32,144,77639,2,0,B|104:144,1,60,0|0
32,240,78100,2,0,B|104:240,1,60
32,320,78562,5,0
104,352,78793,1,0
184,352,79023,1,0
256,320,79254,1,0
256,240,79485,2,0,B|196:240,1,60,0|0
256,144,79946,2,0,B|196:144,1,60
256,64,80408,5,0
328,32,80639,1,0
408,32,80869,1,0
480,64,81100,1,0
480,144,81331,2,0,B|408:144,1,60,0|0
480,240,81793,2,0,B|408:240,1,60
480,336,82254,2,0,B|408:336,3,60,0|0|0|0
168,336,83177,5,0
344,336,83408,1,0
256,184,83639,1,0
256,224,83754,2,0,B|256:304,1,60
256,320,84100,6,0,B|192:312,1,60,0|0
256,320,84562,2,0,B|320:312,1,60,8|0
120,288,85023,2,0,B|88:264|120:240,1,60
392,288,85485,2,0,B|424:264|392:240,1,60,8|0
184,192,85946,2,0,B|120:160,1,60
328,192,86408,2,0,B|392:160,1,60,8|0
200,72,86869,2,0,B|216:136,1,60,0|8
312,72,87331,2,0,B|296:136,1,60,8|0
256,200,87793,6,0,B|192:192,1,60
256,200,88254,2,0,B|320:192,1,60,8|0
256,200,88716,2,0,B|208:240,1,60
256,200,89177,2,0,B|304:240,1,60,8|0
256,304,89639,2,0,B|256:368,3,60,0|0|8|0
168,336,90562,5,0
344,336,90793,1,8
168,336,91023,1,8
344,336,91254,1,0
24,136,91485,6,0,L|40:136|64:152|88:152,1,60,4|0
80,232,91946,2,0,L|64:232|40:248|16:248,1,60,8|0
216,136,92408,2,0,L|200:136|176:152|152:152,1,60
160,232,92869,2,0,L|176:232|200:248|224:248,1,60,8|0
296,248,93331,6,0,L|312:248|336:232|352:232,1,60
351,152,93793,2,0,L|336:152|312:136|296:136,1,60,8|0
487,248,94254,2,0,L|472:248|448:232|432:232,1,60,0|8
432,152,94716,2,0,L|448:152|472:136|488:136,1,60,8|0
392,48,95177,6,0,L|376:48|352:32|336:32,3,60,0|0|8|0
120,48,96100,2,0,L|135:48|159:32|175:32,3,60,0|0|8|0
256,16,97023,2,0,L|256:80,3,60,0|0|8|0
168,48,97946,5,0
344,48,98177,1,8
168,48,98408,1,8
344,48,98639,1,0
111,171,98869,6,0,B|105:139|136:120,1,60,4|0
377,120,99331,2,0,B|407:139|400:171,1,60,8|0
200,152,99793,2,0,B|206:184|175:203,1,60
312,152,100254,2,0,B|305:184|336:203,1,60,8|0
192,80,100716,2,0,B|160:64|120:88,1,60
320,80,101177,2,0,B|352:64|392:88,1,60,8|0
212,208,101639,2,0,B|188:184|204:136,1,60,0|8
300,208,102100,2,0,B|324:184|308:136,1,60,8|0
128,288,102562,6,0,B|80:328,1,60,8|0
208,320,103023,2,0,B|192:384,1,60,8|0
304,320,103485,2,0,B|318:378,1,60,8|0
384,288,103946,2,0,B|430:326,1,60,8|0
280,224,104408,2,0,B|256:192|232:224,3,60
152,192,105331,5,0
256,296,105562,1,0
360,192,105793,1,0
256,88,106023,1,0
176,112,106254,5,6
176,272,106485,1,0
336,272,106716,1,8
336,112,106946,1,0
256,88,107177,6,0,B|256:24,1,60
152,192,107639,2,0,B|88:192,1,60,8|0
256,296,108100,2,0,B|256:360,1,60,0|0
360,192,108562,2,0,B|424:192,1,60,8|0
216,152,109023,5,0
296,152,109254,1,8
296,232,109485,1,8
216,232,109716,1,0
144,120,109946,6,0,B|144:88|177:77,1,60
333,76,110408,2,0,B|367:87|367:119,1,60,8|0
367,264,110869,2,0,B|367:296|333:308,1,60
179,308,111331,2,0,B|144:296|144:264,1,60,8|0
184,192,111793,6,0,B|104:192,1,60
328,192,112254,2,0,B|408:192,1,60,8|0
256,80,112716,5,0
256,304,112946,1,8
256,80,113177,1,8
256,304,113408,1,0
256,192,113639,5,0
328,264,113869,1,0
184,120,114100,1,8
184,264,114331,1,0
328,120,114562,1,0
256,80,114793,6,0,B|256:152,1,60,0|8
144,192,115254,2,0,B|216:192,1,60
256,304,115716,2,0,B|256:232,1,60,0|8
368,192,116177,2,0,B|296:192,1,60
336,112,116639,1,8
256,80,116869,1,8
184,120,117100,1,0
144,192,117331,6,0,B|216:192,1,60
160,264,117793,2,0,B|120:280|88:240,1,60,8|0
368,192,118254,2,0,B|296:192,1,60
352,264,118716,2,0,B|392:280|424:240,1,60,8|0
352,120,119177,6,0,B|392:104|424:144,1,60
160,120,119639,2,0,B|120:104|88:144,1,60,8|0
144,192,120100,5,0
368,192,120331,1,8
176,48,120562,1,8
336,48,120793,1,0
256,320,121023,5,4
184,272,121254,2,0,B|136:328,1,60,0|8
328,272,121716,2,0,B|376:328,1,60
256,224,122177,2,0,B|256:152,2,60,0|8|0
256,120,122869,5,0
128,128,123100,5,0
176,192,123331,1,8
256,32,123562,1,0
256,120,123793,1,0
384,128,124023,1,8
336,192,124254,1,8
208,264,124485,5,0
304,264,124716,1,0
208,360,124946,1,0
304,360,125177,1,8
400,264,125408,2,0,B|424:328,1,60
112,264,125869,2,0,B|88:328,2,60,0|8|0
168,120,126562,5,0
216,56,126793,1,0
296,56,127023,1,8
344,120,127254,1,0
120,56,127485,5,0
392,56,127716,1,8
256,192,127946,1,8
120,232,128408,5,0
176,288,128639,1,0
256,296,128869,2,0,B|256:356,1,60,8|0
392,232,129331,5,0
336,288,129562,1,0
256,296,129793,2,0,B|256:356,1,60,8|0
392,152,130254,5,0
336,96,130485,1,0
256,88,130716,2,0,B|256:28,1,60,8|0
120,152,131177,5,0
176,96,131408,1,8
256,88,131639,2,0,B|256:28,1,60,8|0
216,160,132100,5,0
160,216,132331,1,0
352,216,132562,1,8
296,160,132793,1,0
216,352,133023,5,0
160,296,133254,1,0
352,296,133485,1,8
296,352,133716,1,0
216,256,133946,5,0
296,256,134177,1,0
216,256,134408,1,8
296,256,134639,1,0
376,256,134869,5,0
136,256,135100,1,8
376,256,135331,1,8
136,256,135562,1,0
200,112,135793,5,4
312,112,136023,1,0
184,128,136254,1,8
328,128,136485,1,0
168,144,136716,1,0
344,144,136946,1,0
152,160,137177,1,8
360,160,137408,1,0
136,176,137639,5,0
376,176,137869,1,0
400,248,138100,1,8
368,320,138331,1,0
296,352,138562,1,0
216,352,138793,1,8
144,320,139023,1,8
112,248,139254,1,0
136,176,139485,6,0,B|96:120,1,60
376,176,139946,2,0,B|416:120,1,60,8|0
184,68,140408,2,0,B|192:128,1,60
327,68,140869,2,0,B|320:128,1,60,8|0
296,208,141331,6,0,B|320:272,1,60
216,208,141793,2,0,B|192:272,1,60,8|0
328,336,142254,1,0
184,336,142485,1,8
128,264,142716,1,8
384,264,142946,1,0
376,176,143177,5,0
136,176,143408,1,0
360,160,143639,1,8
152,160,143869,1,0
344,144,144100,1,0
168,144,144331,1,0
328,128,144562,1,8
184,128,144793,1,0
312,112,145023,5,0
200,112,145254,1,0
216,32,145485,2,0,B|152:48,2,60,8|0|0
296,32,146177,2,0,B|360:48,2,60,8|8|0
192,192,146869,6,0,B|160:208|152:240|160:272|192:288,1,120,0|8
256,240,147562,1,0
320,192,147793,2,0,B|352:208|360:240|352:272|320:288,1,120,0|8
256,240,148485,1,0
256,320,148716,2,0,B|256:384,3,60,0|0|8|0
112,352,149639,6,0,B|80:280,1,60,0|8
400,352,150100,2,0,B|432:280,1,60,8|0
424,216,150562,6,0,B|392:192|400:160,1,60,4|0
328,144,151023,2,0,B|336:112|376:91,1,60,8|0
256,112,151485,2,0,B|256:40,1,60
184,144,151946,2,0,B|176:112|136:91,1,60,8|0
88,216,152408,2,0,B|120:192|112:160,1,60
125,309,152869,6,0,B|152:256,1,60,8|0
256,256,153331,2,0,B|256:192,1,60
386,309,153793,2,0,B|360:256,1,60,8|0
328,184,154254,5,0
296,112,154485,1,0
256,40,154716,1,8
216,112,154946,1,0
184,184,155177,1,0
216,256,155408,1,0
256,328,155639,1,8
296,256,155869,1,0
328,184,156100,6,0,B|400:184,1,60
184,184,156562,2,0,B|112:184,1,60,8|0
216,256,157023,1,0
296,256,157254,1,0
256,152,157485,1,8
120,184,157946,5,0
120,104,158177,1,0
120,264,158408,2,0,L|120:280|104:304|104:328,1,60,8|0
392,184,158869,5,0
392,104,159100,1,0
392,264,159331,2,0,L|392:280|408:304|408:328,1,60,8|0
192,184,159793,5,0
192,264,160023,1,0
192,104,160254,2,0,L|192:88|176:64|176:40,1,60,8|0
320,184,160716,5,0
320,264,160946,1,0
320,104,161177,2,0,L|320:88|336:64|336:40,1,60,8|0
256,32,161639,6,0,B|256:96,1,60
256,92,162100,2,0,B|256:152,1,60,8|0
256,152,162562,2,0,B|256:216,1,60
256,212,163023,2,0,B|256:272,1,60,8|0
200,328,163485,6,0,B|168:272,1,60
312,328,163946,2,0,B|344:272,1,60,8|0
80,160,164408,2,0,B|104:80,1,60
432,160,164870,2,0,B|408:80,1,60,8|0
256,192,165331,5,4
128,216,180100,6,0,B|96:200|88:168|96:136|128:120,1,120,0|0
168,280,181023,2,0,B|136:288|112:312|112:312|72:296|40:312,1,120,0|8
384,216,181946,2,0,B|416:200|424:168|416:136|384:120,1,120
344,280,182870,2,0,B|376:288|400:312|400:312|440:296|472:312,1,120,0|8
208,80,183793,2,0,B|184:56|176:24|176:24|144:16|104:72,1,120
304,80,184716,2,0,B|328:56|336:24|336:24|368:16|408:72,1,120,0|8
176,327,185639,2,0,B|104:336|101:258,1,120
335,327,186562,2,0,B|408:336|410:258,1,120,0|8
128,216,187485,6,0,B|88:232|64:192|88:152|128:168,1,120
256,64,188408,1,8
256,64,188870,1,8
384,168,189331,2,0,B|423:152|447:192|423:232|383:216,1,120
256,320,190254,1,8
256,320,190716,1,8
128,192,191177,5,0
256,64,191639,1,8
384,192,192100,1,0
256,320,192562,1,8
88,104,193023,5,0
424,104,193485,1,8
88,104,193946,1,0
424,104,194408,1,8
256,192,194870,5,4
256,112,195100,2,0,L|256:96|272:72|272:48,1,60,0|8
176,192,195562,2,0,L|160:192|136:176|112:176,1,60,0|0
256,272,196023,2,0,L|256:288|240:312|240:336,1,60,0|8
336,192,196485,2,0,L|352:192|376:208|400:208,1,60,0|0
352,319,196946,6,0,L|352:304|336:280|336:264,1,60,0|8
120,280,197408,2,0,L|136:280|160:264|176:264,1,60,0|0
160,64,197870,2,0,L|160:80|176:104|176:120,1,60,8|8
391,104,198331,2,0,L|376:104|352:120|336:120,1,60,0|0
256,104,198793,5,0
256,192,199023,1,8
168,192,199254,1,0
168,280,199485,1,0
256,280,199716,5,0
256,192,199946,1,8
344,192,200177,1,0
344,104,200408,1,0
168,104,200639,5,0
344,280,200870,1,8
168,104,201100,1,0
344,280,201331,1,0
168,280,201562,5,8
344,104,201793,1,8
168,280,202023,1,0
344,104,202254,1,0
512,192,202485,6,0,B|512:256,1,60,0|8
440,192,202946,1,0
440,112,203177,1,0
368,192,203408,2,0,B|368:252,1,60,0|8
296,192,203870,1,0
296,112,204100,1,0
216,192,204331,6,0,B|216:256,1,60,0|8
144,192,204793,1,0
144,112,205023,1,0
72,192,205254,2,0,B|72:256,1,60,0|8
0,192,205716,1,0
0,112,205946,1,0
16,272,206177,5,0
16,352,206408,1,8
96,352,206639,2,0,B|168:352,2,60
104,272,207331,2,0,B|176:272,1,60,8|0
96,192,207793,1,0
328,136,208023,6,0,B|336:168|316:192|316:192|336:216|328:248,1,120
256,280,208716,1,0
184,136,208946,2,0,B|176:168|196:192|196:192|176:216|184:248,1,120,8|0
256,208,209639,5,4
256,128,209870,2,0,B|256:56,1,60,0|8
192,24,210331,1,0
320,24,210562,1,0
184,96,210793,2,0,B|128:136,1,60,0|8
328,96,211254,2,0,B|384:136,1,60
376,130,211716,6,0,B|328:168,1,60,0|8
136,130,212177,2,0,B|184:168,1,60
168,248,212639,1,8
216,312,212870,1,8
296,312,213100,1,0
344,248,213331,1,0
256,88,213562,6,0,B|256:16,1,60,0|8
152,192,214023,2,0,B|80:192,1,60
256,296,214485,2,0,B|256:368,1,60,0|8
360,192,214946,2,0,B|432:192,1,60
336,112,215408,5,0
176,112,215639,1,8
176,272,215870,1,0
336,272,216100,1,0
256,88,216331,1,8
152,192,216562,1,8
256,296,216793,1,0
360,192,217023,6,0,B|376:160|408:152|440:160|456:192,1,120,0|8
408,264,217716,1,0
456,336,217946,2,0,B|440:368|408:376|376:368|360:336,2,120,0|8|0
408,264,219100,2,0,B|344:264,1,60,0|8
288,312,219562,2,0,B|296:376,1,60
288,216,220023,2,0,B|296:152,2,60,8|8|0
152,192,220716,6,0,B|136:160|104:152|72:160|56:192,1,120,0|8
104,264,221408,1,0
56,336,221639,2,0,B|72:368|104:376|136:368|152:336,1,120,0|8
104,264,222331,1,0
144,192,222562,2,0,B|136:152|104:144|72:152|64:192,1,120,0|0
256,384,223946,6,0,B|256:280,1,89.9999973177911,2|0
328,336,224408,6,0,B|384:296,1,60,4|0
320,240,224870,2,0,B|344:168,1,60,8|0
192,240,225331,2,0,B|168:168,1,60,0|8
184,336,225793,2,0,B|128:296,1,60,8|0
104,224,226254,6,0,B|48:264,1,60
104,136,226716,2,0,B|80:80,1,60,8|0
408,136,227177,2,0,B|432:80,1,60,0|8
408,224,227639,2,0,B|464:264,1,60,8|0
336,104,228100,5,0
304,24,228331,1,0
208,24,228562,1,8
176,104,228793,1,0
208,184,229023,1,0
304,184,229254,1,8
256,248,229485,2,0,B|256:312,1,60,8|0
256,128,229946,5,0
208,64,230177,2,0,B|224:32|256:24|288:32|304:64,2,120
208,192,231331,2,0,B|224:224|256:232|288:224|304:192,1,120,8|0
344,128,232023,6,0,B|392:184,1,60,0|8
168,128,232485,2,0,B|120:184,1,60
184,56,232946,1,8
256,24,233177,1,8
328,56,233408,1,0
216,184,233639,6,0,B|200:264,1,60
296,184,234100,2,0,B|312:264,1,60,8|0
213,302,234562,2,0,B|204:242,1,60,0|8
298,302,235023,2,0,B|307:242,1,60,8|0
456,192,235485,5,0
432,120,235716,1,0
368,80,235946,1,8
296,56,236177,1,0
216,56,236408,1,0
144,80,236639,1,8
80,120,236870,1,8
56,192,237100,1,0
256,192,237331,5,0
256,280,237562,1,0
256,280,238023,1,0
