osu file format v5

[General]
AudioFilename: capsule - 5iVE STAR.mp3
AudioLeadIn: 0
PreviewTime: -1
Countdown: 1
SampleSet: Normal
StackLeniency: 0.7
Mode: 0

[Metadata]
Title:5iVE STAR
Artist:capsule
Creator:silasw
Version:Easy

[Difficulty]
HPDrainRate:3
CircleSize:2
OverallDifficulty:4
SliderMultiplier:1.4
SliderTickRate:1

[Events]
//Background and Video events
0,0,"5iVE STAR.jpg"
//Break Periods
2,90637,104471
//Storyboard Layer 0 (Background)
//Storyboard Layer 1 (Failing)
//Storyboard Layer 2 (Passing)
//Storyboard Layer 3 (Foreground)
//Storyboard Sound Samples
//Background Colour Transformations
3,100,128,64,64

[TimingPoints]
30256,472.813238770686,4,1,0,100

[HitObjects]
96,192,30256,1,0
416,192,32147,1,0
256,32,34038,1,0
256,352,35929,1,0
32,64,37821,6,0,B|519:95|-4:312|515:320|515:320,2,560
176,128,44440,6,0,B|176:288,2,140
88,192,45858,5,0
200,192,46331,1,0
312,192,46804,1,0
424,192,47277,1,0
424,192,49168,5,0
312,192,49641,1,0
200,192,50114,1,0
88,192,50586,1,0
320,40,51769,2,0,B|512:232|512:232,1,210
128,64,53423,5,0
208,144,53896,1,0
288,224,54369,1,0
368,296,54842,1,0
456,152,55551,6,0,B|325:-45|168:152,1,350
256,192,57206,12,0,59097
256,128,60043,6,4,B|256:224,1,70
104,128,60988,5,0
104,240,61461,1,0
216,240,61934,1,0
328,240,62407,1,0
328,128,62880,1,0
104,128,63825,2,4,B|104:288,1,140
256,192,64771,5,0
256,192,65716,1,0
256,192,68081,1,0
360,152,68553,6,0,B|168:-8|-56:152|136:312|304:304,1,560
384,304,70917,1,0
456,224,71390,1,0
256,192,72336,12,0,74227
256,192,74936,5,0
368,184,75409,2,0,B|88:-42|6:199|232:402|523:392|464:56,2,840
256,192,81556,6,0,B|160:192,3,70
256,104,82738,1,0
200,104,82974,1,0
144,104,83211,5,0
144,216,83683,1,0
144,328,84156,1,0
256,328,84629,1,0
368,328,85102,1,0
456,264,85575,1,0
456,152,86047,1,0
456,64,86402,1,0
368,64,86757,6,0,B|80:64|81:279|81:279,1,350
256,64,89830,5,0
256,176,90303,2,4,B|256:272,1,70
256,192,105906,5,0
368,192,106378,1,0
368,80,106851,1,0
256,80,107324,1,0
144,80,107797,1,0
144,192,108270,1,0
144,304,108742,1,0
256,64,110161,5,0
368,64,110634,1,0
368,176,111107,1,0
360,288,111579,1,0
248,288,112052,1,0
136,288,112525,2,0,B|8:96|264:96,1,280
328,104,113943,5,0
256,192,114416,1,0
176,272,114889,1,0
256,352,115362,1,0
296,312,115598,1,0
376,232,116071,2,0,B|472:104|88:104,1,350
72,200,117726,5,0
160,272,118199,1,0
248,336,118672,1,0
328,256,119144,1,0
240,192,119617,1,0
152,120,120090,1,0
360,192,121036,5,0
360,80,121508,1,0
360,80,121745,1,0
360,80,121981,1,0
360,80,122218,1,0
248,80,122690,2,0,B|248:240,1,140
320,304,123636,2,0,B|96:304,1,210
80,104,125055,5,0
80,104,125291,1,0
80,200,125764,1,0
80,296,126237,2,0,B|176:296,1,70
240,296,126946,2,0,B|240:200,2,70
256,64,128837,5,0
224,112,129073,1,0
192,160,129310,1,0
160,208,129546,1,0
160,320,130019,1,0
272,320,130492,2,0,B|368:320,1,70
456,320,131201,1,0
456,208,131674,2,0,B|456:48|328:48,1,210
224,96,132856,5,0
144,176,133329,1,0
224,256,133802,1,0
304,176,134274,1,0
384,104,134747,2,0,B|448:168,1,70
472,256,135456,5,0
472,144,135929,2,0,B|248:48|24:144|24:336,3,560
128,64,142076,1,0
168,104,142312,1,0
208,144,142549,1,0
248,184,142785,1,0
320,264,143258,5,0
376,264,143494,2,0,B|577:69|216:40|56:296,2,560
256,192,148459,12,0,150350
256,40,151296,5,0
224,88,151532,1,0
192,136,151769,1,0
264,208,152241,2,0,B|264:320,1,105
400,344,153187,5,0
448,248,153660,1,0
376,160,154133,1,0
296,80,154605,1,0
128,80,155315,2,0,B|32:80,3,70
72,248,156733,1,0
416,0,158861,6,0,B|34:-48|5:44|16:205|440:138|517:225|544:366|385:363|0:288,2,1120
