osu file format v11

[General]
AudioFilename: owo.mp3
AudioLeadIn: 1000
PreviewTime: 58152
Countdown: 0
SampleSet: Soft
StackLeniency: 0.7
Mode: 0
LetterboxInBreaks: 0

[Editor]
DistanceSpacing: 1
BeatDivisor: 4
GridSize: 4

[Metadata]
Title:Yoiduki Maiuta
TitleUnicode:宵月舞唄
Artist:capitaro
ArtistUnicode:かぴたろう
Creator:Amamiya Yuko
Version:Normal
Source:Vocaloid
Tags:Hatsune Miku hs714 Skystar tanaka
BeatmapID:204886
BeatmapSetID:70057

[Difficulty]
HPDrainRate:4
CircleSize:3
OverallDifficulty:4
ApproachRate:5
SliderMultiplier:0.999999999999999
SliderTickRate:1

[Events]
//Background and Video events
0,0,"BG.jpg"
Video,0,"video.avi"
//Break Periods
2,144470,148540
2,155556,156658
//Storyboard Layer 0 (Background)
//Storyboard Layer 1 (Fail)
//Storyboard Layer 2 (Pass)
//Storyboard Layer 3 (Foreground)
//Storyboard Sound Samples
//Background Colour Transformations
3,100,163,162,255

[TimingPoints]
270,352.941176470588,4,1,0,70,1,0
1681,-100,4,1,2,60,0,0
4328,-100,4,1,0,70,0,0
4505,-100,4,1,2,60,0,0
7152,-100,4,1,0,70,0,0
7328,-100,4,1,2,70,0,0
8564,-100,4,1,0,70,0,0
8740,-100,4,1,2,70,0,0
9975,-100,4,1,0,70,0,0
10152,-100,4,1,2,70,0,0
10681,-100,4,1,0,70,0,0
10858,-100,4,1,2,70,0,0
11387,-100,4,1,0,70,0,0
11564,-100,4,1,1,70,0,0
12622,-100,4,3,1,70,0,0
12975,-100,4,1,2,70,0,0
17211,-100,4,1,1,70,0,0
18622,-100,4,1,2,70,0,0
22858,-100,4,1,1,70,0,0
24269,-100,4,3,1,60,0,0
28152,-100,4,2,2,50,0,0
28240,-100,4,3,1,60,0,0
33799,-100,4,2,2,50,0,0
33887,-100,4,3,1,60,0,0
35564,-100,4,3,1,70,0,0
36622,-100,4,2,2,60,0,0
36711,-100,4,3,1,70,0,0
38034,-100,4,2,2,60,0,0
38122,-100,4,3,1,70,0,0
39446,-100,4,2,2,60,0,0
39534,-100,4,3,1,70,0,0
40858,-100,4,2,2,60,0,0
40946,-100,4,3,1,70,0,0
42269,-100,4,2,2,60,0,0
42358,-100,4,3,1,70,0,0
43681,-100,4,2,2,60,0,0
43769,-100,4,3,1,70,0,0
45093,-100,4,2,2,60,0,0
45181,-100,4,3,1,70,0,0
46328,-100,4,1,1,60,0,0
55681,-100,4,2,2,50,0,0
55769,-100,4,1,1,60,0,0
56387,-100,4,2,2,50,0,0
56475,-100,4,1,1,60,0,0
57093,-100,4,2,3,60,0,0
57181,-100,4,1,1,60,0,0
58152,-100,4,1,1,70,0,1
61328,-100,4,2,2,60,0,1
61417,-100,4,1,1,70,0,1
63093,-100,4,3,1,70,0,1
63799,-100,4,1,1,70,0,1
68387,-100,4,2,3,70,0,1
68475,-100,4,1,1,70,0,1
69446,-100,4,1,1,70,0,0
70858,-100,4,3,1,60,0,0
82152,-100,4,3,1,70,0,0
82505,-100,4,2,3,70,0,0
82593,-100,4,3,1,70,0,0
83211,-100,4,2,3,70,0,0
83299,-100,4,3,1,70,0,0
83917,-100,4,2,3,70,0,0
84005,-100,4,3,1,70,0,0
84622,-100,4,2,3,70,0,0
84711,-100,4,3,1,70,0,0
88152,-100,4,2,3,70,0,0
88240,-100,4,3,1,70,0,0
88858,-100,4,2,3,70,0,0
88946,-100,4,3,1,70,0,0
89564,-100,4,2,3,70,0,0
89652,-100,4,3,1,70,0,0
90269,-100,4,2,3,70,0,0
90358,-100,4,3,1,70,0,0
92917,-100,4,1,1,60,0,0
102269,-100,4,2,2,50,0,0
102358,-100,4,1,1,60,0,0
102975,-100,4,2,2,50,0,0
103064,-100,4,1,1,60,0,0
103681,-100,4,2,3,60,0,0
103769,-100,4,1,1,60,0,0
104034,-100,4,2,3,60,0,0
104122,-100,4,1,0,50,0,0
104740,-100,4,1,1,70,0,1
107917,-100,4,2,2,60,0,1
108005,-100,4,1,1,70,0,1
109681,-100,4,3,1,70,0,1
110387,-100,4,1,1,70,0,1
114975,-100,4,2,3,70,0,1
115064,-100,4,1,1,70,0,1
115328,-100,4,1,1,70,0,0
116034,-100,4,1,1,70,0,1
119211,-100,4,2,2,60,0,1
119299,-100,4,1,1,70,0,1
120975,-100,4,3,1,70,0,1
121681,-100,4,1,1,70,0,1
126269,-100,4,2,3,70,0,1
126358,-100,4,1,1,70,0,1
127328,-100,4,1,1,70,0,0
128564,-100,4,1,0,70,0,0
128740,-100,4,1,2,70,0,0
129975,-100,4,1,0,60,0,0
130152,-100,4,1,2,70,0,0
130681,-100,4,1,0,60,0,0
130858,-100,4,1,2,70,0,0
131387,-100,4,1,0,60,0,0
131564,-100,4,1,2,60,0,0
132975,-100,4,1,1,60,0,0
133328,-100,4,1,2,60,0,0
133681,-100,4,1,1,60,0,0
134034,-100,4,1,2,60,0,0
134387,-100,4,1,1,60,0,0
134917,-100,4,1,2,60,0,0
135093,-100,4,1,1,60,0,0
136152,-100,4,1,2,60,0,0
136505,-100,4,1,1,60,0,0
136858,-100,4,1,2,60,0,0
137211,-100,4,1,1,60,0,0
138975,-100,4,2,3,70,0,0
139064,-100,4,1,1,70,0,0
139681,-100,4,2,3,70,0,0
139769,-100,4,1,1,70,0,0
144269,-100,4,2,1,70,0,0
149740,-100,4,2,0,40,0,0
154152,-100,4,2,1,50,0,0
154328,-100,4,2,1,5,0,0
157858,-100,4,1,1,70,0,0
158387,-100,4,1,1,70,0,1
158740,-100,4,2,2,60,0,1
158828,-100,4,1,1,70,0,1
166152,-100,4,1,1,70,0,0
166858,-100,4,1,1,70,0,1
170034,-100,4,2,2,60,0,1
170122,-100,4,1,1,70,0,1
171799,-100,4,3,1,70,0,1
172505,-100,4,1,1,70,0,1
178152,-100,4,1,1,60,0,0
178505,-100,4,2,3,60,0,0
178593,-100,4,1,1,60,0,0
179211,-100,4,2,3,60,0,0
179299,-100,4,1,1,60,0,0
180269,-100,4,1,1,80,0,1
180622,-100,4,1,1,80,0,0
180975,-100,4,1,1,60,0,0
181328,-100,4,2,3,60,0,0
181417,-100,4,1,1,60,0,0
182034,-100,4,2,3,60,0,0
182122,-100,4,1,1,60,0,0
183093,-100,4,1,1,80,0,1
183446,-100,4,1,1,80,0,0
183799,-100,4,1,1,60,0,0
184152,-100,4,2,3,60,0,0
184240,-100,4,1,1,60,0,0
184858,-100,4,2,3,60,0,0
184946,-100,4,1,1,60,0,0
185917,-100,4,1,1,80,0,1
186269,-100,4,1,1,80,0,0
186622,-100,4,1,1,60,0,0
186975,-100,4,2,3,60,0,0
187064,-100,4,1,1,60,0,0
187328,-100,4,1,1,65,0,0
187681,-100,4,2,3,65,0,0
187769,-100,4,1,1,65,0,0
188034,-100,4,1,1,70,0,0
188740,-100,4,1,1,90,0,1
189093,-100,4,1,1,90,0,0

[Colours]
Combo1 : 255,0,128
Combo2 : 255,128,192
Combo3 : 255,128,255
Combo4 : 255,0,255

[HitObjects]
124,112,1505,2,0,P|172:132,1,50,0|2,0:0|0:0,0:0:0
392,124,4328,6,0,P|344:104,1,50,0|2,0:0|0:0,0:0:0
184,256,7152,6,0,P|232:236,1,50,0|2,0:0|0:0,0:0:0
404,248,8564,6,0,P|356:268,1,50,0|2,0:0|0:0,0:0:0
396,96,9975,6,0,P|444:116,1,50,0|2,0:0|0:0,0:0:0
296,144,10681,6,0,P|344:164,1,50,0|2,0:0|0:0,0:0:0
196,192,11387,6,0,P|244:212,1,50,0|2,0:0|0:0,0:0:0
332,256,11917,2,0,P|312:292|312:292|256:312,1,99.9999999999999,2|2,0:0|0:0,0:0:0
160,292,12622,1,0,0:0:0
160,292,12975,6,0,P|120:260|72:248,1,99.9999999999999,6|0,0:0|0:0,0:0:0
56,148,13681,2,0,P|160:152,1,99.9999999999999,2|0,0:0|0:0,0:0:0
240,204,14387,2,0,P|284:160|344:176|344:176|384:160,2,150,2|2|0,0:0|0:0|0:0,0:0:0
312,272,15799,6,0,P|304:376,1,99.9999999999999,2|0,0:0|0:0,0:0:0
404,356,16505,2,0,P|396:256,1,99.9999999999999,2|0,0:0|0:0,0:0:0
464,180,17211,1,2,0:0:0
312,52,17917,1,2,0:0:0
136,148,18622,6,0,P|104:120|92:64,1,99.9999999999999,2|0,0:0|0:0,0:0:0
192,60,19328,2,0,P|224:88|236:144,1,99.9999999999999,2|0,0:0|0:0,0:0:0
264,240,20034,2,0,P|100:240,2,150,2|2|0,0:0|0:0|0:0,0:0:0
340,304,21446,6,0,P|388:304|432:336,1,99.9999999999999,2|0,0:0|0:0,0:0:0
488,252,22152,2,0,P|464:210|469:156,1,99.9999999999999,2|0,0:0|0:0,0:0:0
368,149,22858,2,0,P|344:190|294:212,2,99.9999999999999,2|2|2,0:0|0:0|0:0,0:0:0
180,80,24269,6,0,P|152:124|152:124|192:160|200:224|172:260,1,200
88,204,25328,1,8,0:0:0
76,304,25681,2,0,P|160:352|260:320,1,200
308,240,26740,1,8,0:0:0
384,172,27093,6,0,P|480:132,1,99.9999999999999,2|0,0:0|0:0,0:0:0
420,52,27799,2,0,P|344:72|268:44,2,150,2|10|0,0:0|0:0|0:0,0:0:0
476,136,29211,2,0,P|496:240,1,99.9999999999999,2|8,0:0|0:0,0:0:0
420,304,29917,6,0,P|320:280|232:324,1,200,0|0,0:0|0:0,0:0:0
140,344,30975,1,8,0:0:0
140,344,31328,2,0,P|116:296|116:296|68:280|40:228|52:176,1,200
148,200,32387,1,8,0:0:0
228,140,32740,6,0,P|327:136,1,99.9999999999999,2|0,0:0|0:0,0:0:0
364,44,33446,2,0,P|416:88|420:168,2,150,2|10|0,0:0|0:0|0:0,0:0:0
264,40,34858,2,0,P|165:44,1,99.9999999999999,2|0,0:0|0:0,0:0:0
64,64,35564,6,0,P|84:128|144:140|144:140|152:184,1,150,2|2,0:0|0:0,0:0:0
160,220,36270,2,0,P|312:280,1,150,2|10,0:0|0:0,0:0:0
336,312,36975,2,0,P|380:248|456:236,1,150,2|2,0:0|0:0,0:0:0
496,240,37681,2,0,P|448:200|456:136|456:136|416:128,1,150,2|10,0:0|0:0,0:0:0
396,88,38387,6,0,P|344:96|344:96|296:88|296:88|240:96,1,150,2|2,0:0|0:0,0:0:0
232,144,39093,2,0,P|183:137|183:137|135:145|135:145|83:137,1,150,2|10,0:0|0:0,0:0:0
60,184,39799,2,0,P|112:324,1,150,2|2,0:0|0:0,0:0:0
132,372,40505,2,0,P|200:336|276:352,1,150,2|10,0:0|0:0,0:0:0
312,376,41211,6,0,P|372:296,1,99.9999999999999,2|0,0:0|0:0,0:0:0
416,204,41917,2,0,P|468:260|464:336,2,150,2|10|0,0:0|0:0|0:0,0:0:0
336,144,43328,2,0,P|448:40,2,150,2|10|0,0:0|0:0|0:0,0:0:0
276,64,44740,6,0,P|200:80|132:56,2,150,2|10|0,0:0|0:0|0:0,0:0:0
276,64,45975,1,8,0:0:0
372,32,46328,6,0,P|464:160,1,150,0|4,0:0|0:0,0:0:0
444,304,47387,2,0,P|392:292|336:308,1,99.9999999999999,8|8,0:0|0:0,0:0:0
200,320,48270,6,0,P|120:324|76:272,1,150,4|8,0:2|0:0,0:0:0
96,76,49505,1,8,0:0:0
96,76,49681,6,0,P|240:128,1,150,4|8,0:2|0:0,0:0:0
324,176,50564,1,8,0:0:0
396,308,51093,6,0,P|320:328|252:308,1,150,4|8,0:2|0:0,0:0:0
60,252,52328,1,8,0:0:0
60,252,52505,6,0,P|104:108,1,150,4|8,0:2|0:0,0:0:0
192,64,53387,1,8,0:0:0
344,64,53917,6,0,P|388:128|464:144,1,150,4|8,0:2|0:0,0:0:0
432,344,55152,1,8,0:0:0
432,344,55328,6,0,P|360:320|288:348,1,150,2|2,0:0|0:0,0:0:0
252,312,56034,2,0,P|180:336|108:308,1,150,2|2,0:0|0:0,0:0:0
64,316,56740,6,0,P|52:260|52:260|100:248|136:208|136:152,1,200,2|0,0:0|0:0,0:0:0
328,104,58152,6,0,P|392:192,1,99.9999999999999,6|8,0:0|0:0,0:0:0
392,236,58681,2,0,P|456:324,1,99.9999999999999,2|8,0:0|0:0,0:0:0
356,348,59387,2,0,P|308:320|248:348|248:348|192:348,2,150,14|8|10,0:0|0:0|0:0,0:0:0
400,372,60622,1,12,0:0:0
464,296,60975,6,0,P|444:244|472:196|472:196|456:152,2,150,4|2|10,0:0|0:0|0:0,0:0:0
432,336,62211,1,12,0:0:0
308,252,62740,2,0,P|204:260,1,99.9999999999999,8|0,0:0|0:0,0:0:0
108,260,63446,1,0,0:0:0
156,172,63799,6,0,P|255:164,1,99.9999999999999,6|8,0:0|0:0,0:0:0
296,136,64328,2,0,P|395:128,1,99.9999999999999,2|8,0:0|0:0,0:0:0
460,204,65034,2,0,P|500:168|492:104|492:104|504:56,2,150,14|8|10,0:0|0:0|0:0,0:0:0
412,208,66270,1,12,0:0:0
316,232,66622,6,0,P|344:280|384:304,1,99.9999999999999,4|8,0:0|0:0,0:0:0
296,360,67328,2,0,P|192:356,1,99.9999999999999,0|8,0:0|0:0,0:0:0
152,268,68034,2,0,P|168:212|112:188|112:188|56:200|20:160,2,200,2|2|0,0:0|0:0|0:0,0:0:0
368,96,70858,5,0,0:0:0
432,288,71564,1,0,0:0:0
244,360,72270,2,0,P|40:340,1,200
52,140,73681,6,0,P|96:100|96:100|136:132|184:140|228:120,2,200,0|2|0,0:0|0:0|0:0,0:0:0
76,236,75446,1,2,0:0:0
168,276,75799,2,0,P|220:272|268:248,1,99.9999999999999,2|0,0:0|0:0,0:0:0
312,164,76505,5,0,0:0:0
500,92,77211,1,0,0:0:0
468,292,77917,2,0,P|412:336|344:308|344:308|272:332,1,200
232,136,79328,6,0,P|24:120,2,200,0|2|0,0:0|0:0|0:0,0:0:0
292,216,81093,1,2,0:0:0
192,220,81446,2,0,P|88:212,1,99.9999999999999,2|0,0:0|0:0,0:0:0
36,296,82152,6,0,P|187:307,1,150,0|2,0:0|0:0,0:0:0
220,344,82858,2,0,P|296:320|360:344,1,150,2|2,0:0|0:0,0:0:0
408,360,83564,2,0,P|464:320|460:240,1,150,2|2,0:0|0:0,0:0:0
416,224,84270,2,0,P|456:76,1,150,2|2,0:0|0:0,0:0:0
456,80,84975,5,2,0:0:0
356,68,85328,2,0,P|364:16,2,50,2|2|2,0:0|0:0|0:0,0:0:0
264,108,86034,2,0,P|256:157,2,50,2|2|2,0:0|0:0|0:0,0:0:0
176,56,86740,2,0,P|184:4,2,50,2|2|2,0:0|0:0|0:0,0:0:0
20,180,87799,6,0,P|56:328,1,150,0|2,0:0|0:0,0:0:0
92,292,88505,2,0,P|132:284|132:284|172:328|232:304,1,150,2|2,0:0|0:0,0:0:0
280,304,89211,2,0,P|340:328|380:284|380:284|420:292,1,150,2|2,0:0|0:0,0:0:0
456,325,89917,2,0,P|492:180,1,150,2|2,0:0|0:0,0:0:0
492,180,90622,5,2,0:0:0
424,108,90975,2,0,P|460:72,2,50,2|2|2,0:0|0:0|0:0,0:0:0
344,48,91681,2,0,P|308:84,2,50,2|2|2,0:0|0:0|0:0,0:0:0
324,196,92564,1,8,0:0:0
276,284,92917,6,0,P|204:288|136:248,1,150,8|4,0:0|0:0,0:0:0
16,164,93975,2,0,P|68:76,1,99.9999999999999,8|8,0:0|0:0,0:0:0
212,40,94858,6,0,P|284:60|360:44,1,150,4|8,0:2|0:0,0:0:0
468,216,96093,1,8,0:0:0
468,216,96270,6,0,P|432:364,1,150,4|8,0:2|0:0,0:0:0
332,368,97152,1,8,0:0:0
184,336,97681,6,0,P|128:324|88:352|88:352|32:348,1,150,4|8,0:2|0:0,0:0:0
172,200,98917,1,8,0:0:0
172,200,99093,6,0,P|180:48,1,150,4|8,0:2|0:0,0:0:0
179,50,99975,1,8,0:0:0
328,48,100505,6,0,P|384:60|424:32|424:32|480:36,1,150,4|8,0:2|0:0,0:0:0
340,184,101740,1,8,0:0:0
340,184,101917,6,0,P|332:336,1,150,2|2,0:0|0:0,0:0:0
380,352,102622,2,0,P|300:368|236:340,1,150,2|2,0:0|0:0,0:0:0
188,352,103328,6,0,P|184:312|160:288|160:288|104:296|40:240|48:176,1,250,2|0,0:0|0:0,0:0:0
80,84,104564,1,0,0:0:0
80,84,104740,6,0,P|184:76,1,99.9999999999999,6|8,0:0|0:0,0:0:0
228,96,105270,2,0,P|327:88,1,99.9999999999999,2|8,0:0|0:0,0:0:0
388,8,105975,2,0,P|428:44|432:92|420:120|420:120|424:156,2,150,14|8|10,0:0|0:0|0:0,0:0:0
336,8,107211,1,8,0:0:0
276,88,107564,6,0,P|120:116,2,150,4|2|10,0:0|0:0|0:0,0:0:0
320,112,108799,1,12,0:0:0
452,180,109328,2,0,P|408:208|396:252,1,99.9999999999999,8|0,0:0|0:0,0:0:0
324,320,110034,1,0,0:0:0
228,348,110387,6,0,P|176:352|132:332,1,99.9999999999999,6|8,0:0|0:0,0:0:0
96,296,110917,2,0,P|92:244|111:201,1,99.9999999999999,2|8,0:0|0:0,0:0:0
144,108,111622,2,0,P|200:132|208:192|208:192|236:224,2,150,14|8|10,0:0|0:0|0:0,0:0:0
96,100,112858,1,8,0:0:0
168,32,113211,6,0,P|268:36,1,99.9999999999999,4|8,0:0|0:0,0:0:0
356,84,113917,2,0,P|456:88,1,99.9999999999999,0|8,0:0|0:0,0:0:0
468,188,114622,2,0,P|416:192|396:240|396:240|416:304|368:336,1,200,2|2,0:0|0:0,0:0:0
168,340,116034,6,0,P|152:312|152:312|84:284,1,99.9999999999999,6|8,0:0|0:0,0:0:0
92,236,116564,2,0,P|61:225|61:225|22:163,1,99.9999999999999,2|8,0:0|0:0,0:0:0
68,76,117270,2,0,P|184:88|184:88|220:68,2,150,14|8|10,0:0|0:0|0:0,0:0:0
28,108,118505,1,8,0:0:0
112,164,118858,6,0,P|264:180,2,150,4|2|10,0:0|0:0|0:0,0:0:0
68,192,120093,1,12,0:0:0
204,256,120622,2,0,P|308:268,1,99.9999999999999,8|0,0:0|0:0,0:0:0
404,280,121328,1,0,0:0:0
464,200,121681,6,0,P|424:164|412:116,1,99.9999999999999,6|8,0:0|0:0,0:0:0
392,76,122211,2,0,P|356:116|308:128,1,99.9999999999999,2|8,0:0|0:0,0:0:0
232,68,122917,2,0,P|160:88|88:68,2,150,14|8|10,0:0|0:0|0:0,0:0:0
244,116,124152,1,8,0:0:0
276,212,124505,6,0,P|252:320,1,99.9999999999999,4|8,0:0|0:0,0:0:0
156,328,125211,2,0,P|177:230,1,99.9999999999999,0|8,0:0|0:0,0:0:0
204,136,125917,2,0,P|248:104|304:112|304:112|344:136|400:128,2,200,2|2|0,0:0|0:0|0:0,0:0:0
452,296,128564,6,0,P|500:272,1,50,0|2,0:0|0:0,0:0:0
240,328,129975,6,0,P|288:304,1,50,0|2,0:0|0:0,0:0:0
136,276,130681,6,0,P|184:252,1,50,0|2,0:0|0:0,0:0:0
32,224,131387,6,0,P|80:200,1,50,0|2,0:0|0:0,0:0:0
256,72,132975,6,0,P|300:96|352:92,1,99.9999999999999,2|2,0:0|0:0,0:0:0
440,52,133681,2,0,P|464:168,1,99.9999999999999,2|2,0:0|0:0,0:0:0
444,248,134387,2,0,P|392:244|352:280|352:280|372:292|384:320,2,150,2|2|2,0:0|0:0|0:0,0:0:0
380,172,135799,6,0,P|332:188|288:220,1,99.9999999999999,2|2,0:0|0:0,0:0:0
280,116,136505,2,0,P|238:144|205:188,1,99.9999999999999,2|2,0:0|0:0,0:0:0
176,276,137211,1,2,0:0:0
364,344,137917,1,2,0:0:0
476,180,138622,6,0,P|448:132|448:132|400:152|352:152|312:112,2,200,2|2|2,0:0|0:0|0:0,0:0:0
448,276,140387,1,2,0:0:0
364,328,140740,2,0,P|256:328,1,99.9999999999999,2|2,0:0|0:0,0:0:0
168,304,141446,5,2,0:0:0
40,152,142152,1,2,0:0:0
236,118,142858,2,0,P|396:120,1,150,2|2,0:0|0:0,0:0:0
428,236,144270,5,4,0:0:0
88,160,149740,6,0,P|144:144,1,50,2|4,0:0|0:1,0:0:0
304,192,151152,6,0,P|248:208,1,50,2|4,0:0|0:1,0:0:0
112,304,152564,6,0,P|168:320,1,50,2|4,0:0|0:1,0:0:0
356,348,154152,6,0,P|400:328|388:276|388:276|432:280|472:252|476:216,1,200,4|0,0:0|0:0,0:0:0
256,76,157858,6,0,P|264:136,1,50,2|2,0:0|0:0,0:0:0
280,224,158387,6,0,P|328:312|328:312|316:336|320:368,2,150,4|2|10,0:0|0:0|0:0,0:0:0
232,212,159622,1,8,0:0:0
88,260,160152,2,0,P|64:156,2,99.9999999999999,8|0|0,0:0|0:0|0:0,0:0:0
88,360,161211,6,0,P|140:348|176:312,1,99.9999999999999,6|8,0:0|0:0,0:0:0
208,280,161740,2,0,P|260:292|296:328,1,99.9999999999999,2|8,0:0|0:0,0:0:0
392,348,162446,2,0,P|436:188,2,150,14|8|10,0:0|0:0|0:0,0:0:0
344,360,163681,1,8,0:0:0
268,296,164034,6,0,P|216:208,1,99.9999999999999,4|8,0:0|0:0,0:0:0
116,204,164740,2,0,P|64:116,1,99.9999999999999,0|8,0:0|0:0,0:0:0
116,32,165446,2,0,P|160:72|208:40|208:40|260:44|292:88,1,200,2|2,0:0|0:0,0:0:0
444,216,166858,6,0,P|412:256|412:256|352:268,1,99.9999999999999,6|8,0:0|0:0,0:0:0
316,272,167387,2,0,P|268:281|268:281|236:321,1,99.9999999999999,2|8,0:0|0:0,0:0:0
136,336,168093,2,0,P|64:300|64:300|40:228,2,150,14|8|10,0:0|0:0|0:0,0:0:0
180,316,169328,1,8,0:0:0
160,220,169681,6,0,P|144:172|144:172|187:81,2,150,4|2|10,0:0|0:0|0:0,0:0:0
204,244,170917,1,8,0:0:0
344,300,171446,2,0,P|448:304,2,99.9999999999999,8|0|0,0:0|0:0|0:0,0:0:0
288,216,172505,6,0,P|312:176|308:120,1,99.9999999999999,6|8,0:0|0:0,0:0:0
260,120,173034,2,0,P|262:68|238:28,1,99.9999999999999,2|8,0:0|0:0,0:0:0
164,96,173740,2,0,P|88:112|88:112|72:152|32:160,2,150,14|8|10,0:0|0:0|0:0,0:0:0
204,128,174975,1,8,0:0:0
176,224,175328,6,0,P|228:224|272:204,1,99.9999999999999,4|8,0:0|0:0,0:0:0
372,204,176034,2,0,P|415:223|467:223,1,99.9999999999999,0|8,0:0|0:0,0:0:0
420,312,176740,5,2,0:0:0
320,312,177093,1,2,0:0:0
220,312,177446,1,10,0:0:0
120,312,177799,1,8,0:0:0
20,312,178152,6,0,P|24:248|80:220|80:220|64:136,2,200,2|2|2,0:0|0:0|0:0,0:0:0
120,312,179917,1,0,0:0:0
220,312,180270,2,0,P|272:312,2,50,2|8|12,0:0|0:0|0:0,0:0:0
120,312,180975,6,0,P|124:248|180:220|180:220|196:136,2,200,2|2|2,0:0|0:0|0:0,0:0:0
220,312,182740,1,0,0:0:0
320,312,183093,2,0,P|372:312,2,50,2|8|12,0:0|0:0|0:0,0:0:0
220,312,183799,6,0,P|224:248|280:220|280:220|280:136,2,200,2|2|2,0:0|0:0|0:0,0:0:0
320,312,185564,1,0,0:0:0
420,312,185917,2,0,P|472:312,2,50,2|8|12,0:0|0:0|0:0,0:0:0
320,312,186622,6,0,P|324:248|380:220|380:220|364:136,2,200,2|2|2,0:0|0:0|0:0,0:0:0
420,312,188387,1,2,0:0:0
476,228,188740,2,0,P|464:168,1,50,2|8,0:0|0:0,0:0:0
456,128,189093,1,12,0:0:0
