osu file format v11

[General]
AudioFilename: owo.mp3
AudioLeadIn: 1000
PreviewTime: 58152
Countdown: 0
SampleSet: Normal
StackLeniency: 0.7
Mode: 0
LetterboxInBreaks: 0

[Editor]
DistanceSpacing: 0.6
BeatDivisor: 4
GridSize: 4

[Metadata]
Title:Yoiduki Maiuta
TitleUnicode:宵月舞唄
Artist:capitaro
ArtistUnicode:かぴたろう
Creator:Amamiya Yuko
Version:Insane
Source:Vocaloid
Tags:Hatsune Miku hs714 Skystar tanaka
BeatmapID:201601
BeatmapSetID:70057

[Difficulty]
HPDrainRate:6
CircleSize:4
OverallDifficulty:8
ApproachRate:9
SliderMultiplier:2
SliderTickRate:1

[Events]
//Background and Video events
0,0,"BG.jpg"
Video,0,"video.avi"
//Break Periods
2,144469,149140
//Storyboard Layer 0 (Background)
//Storyboard Layer 1 (Fail)
//Storyboard Layer 2 (Pass)
//Storyboard Layer 3 (Foreground)
//Storyboard Sound Samples
//Background Colour Transformations
3,100,163,162,255

[TimingPoints]
270,352.941176470588,4,1,0,70,1,0
1681,-100,4,1,2,60,0,0
4328,-100,4,1,0,70,0,0
4505,-100,4,1,2,60,0,0
5917,-100,4,1,1,60,0,0
7152,-100,4,1,0,70,0,0
7328,-100,4,1,2,70,0,0
8564,-100,4,1,0,70,0,0
8740,-100,4,1,2,70,0,0
9975,-100,4,1,0,70,0,0
10152,-100,4,1,2,70,0,0
10681,-100,4,1,0,70,0,0
10858,-100,4,1,2,70,0,0
11387,-100,4,1,0,70,0,0
11564,-100,4,1,1,70,0,0
12269,-200,4,1,1,70,0,0
12622,-200,4,3,1,70,0,0
12975,-100,4,1,2,70,0,0
17211,-100,4,1,1,70,0,0
18622,-100,4,1,2,70,0,0
22858,-100,4,1,1,70,0,0
23917,-200,4,1,1,70,0,0
24269,-125,4,3,1,60,0,0
35564,-125,4,3,1,70,0,0
46328,-125,4,1,1,60,0,0
57799,-100,4,2,1,60,0,0
57975,-100,4,1,0,40,0,0
58152,-100,4,1,1,70,0,1
60622,-200,4,1,1,70,0,1
60975,-100,4,1,1,70,0,1
63093,-100,4,3,1,70,0,1
63799,-100,4,1,1,70,0,1
66269,-200,4,1,1,70,0,1
66622,-100,4,1,1,70,0,1
69093,-200,4,1,1,70,0,1
69446,-100,4,1,1,70,0,0
70858,-125,4,3,1,60,0,0
82152,-125,4,3,1,70,0,0
92917,-125,4,1,1,60,0,0
104211,-125,4,1,0,50,0,0
104740,-100,4,1,1,70,0,1
107211,-200,4,1,1,70,0,1
107564,-100,4,1,1,70,0,1
109681,-100,4,3,1,70,0,1
110387,-100,4,1,1,70,0,1
112858,-200,4,1,1,70,0,1
113211,-100,4,1,1,70,0,1
115328,-100,4,1,1,70,0,0
116034,-100,4,1,1,70,0,1
118505,-200,4,1,1,70,0,1
118858,-100,4,1,1,70,0,1
120975,-100,4,3,1,70,0,1
121681,-100,4,1,1,70,0,1
124152,-200,4,1,1,70,0,1
124505,-100,4,1,1,70,0,1
126975,-200,4,1,1,70,0,1
127328,-100,4,1,1,70,0,0
128564,-100,4,1,0,70,0,0
128740,-100,4,1,2,70,0,0
129975,-100,4,1,0,70,0,0
130152,-100,4,1,2,70,0,0
130681,-100,4,1,0,70,0,0
130858,-100,4,1,2,70,0,0
131387,-100,4,1,0,70,0,0
131564,-100,4,1,1,60,0,0
131917,-100,4,1,1,40,0,0
132093,-100,4,1,1,50,0,0
132269,-100,4,1,1,60,0,0
132446,-100,4,1,1,70,0,0
143917,-200,4,3,1,70,0,0
144269,-200,4,2,1,70,0,0
149740,-200,4,2,0,50,0,0
150269,-200,4,2,0,5,0,0
151152,-200,4,2,0,50,0,0
151681,-200,4,2,0,5,0,0
152564,-200,4,2,0,50,0,0
153093,-200,4,2,0,5,0,0
153975,-200,4,2,0,50,0,0
154152,-200,4,2,1,50,0,0
154328,-200,4,2,1,5,0,0
155564,-200,4,2,1,40,0,0
157858,-200,4,1,1,70,0,0
158387,-100,4,1,1,70,0,1
160505,-100,4,3,1,70,0,1
161211,-100,4,1,1,70,0,1
163681,-200,4,1,1,70,0,1
164034,-100,4,1,1,70,0,1
166152,-100,4,1,1,70,0,0
166858,-100,4,1,1,70,0,1
169328,-200,4,1,1,70,0,1
169681,-100,4,1,1,70,0,1
171799,-100,4,3,1,70,0,1
172505,-100,4,1,1,70,0,1
174975,-200,4,1,1,70,0,1
175328,-100,4,1,1,70,0,1
177622,-100,4,1,1,60,0,1
178152,-100,4,1,1,60,0,0
180269,-100,4,1,1,80,0,1
180622,-100,4,1,1,80,0,0
180975,-100,4,1,1,60,0,0
183093,-100,4,1,1,80,0,1
183446,-100,4,1,1,80,0,0
183799,-100,4,1,1,60,0,0
185917,-100,4,1,1,80,0,1
186269,-100,4,1,1,80,0,0
186622,-100,4,1,1,60,0,0
187328,-100,4,1,1,65,0,0
188034,-100,4,1,1,70,0,0
188740,-100,4,1,1,90,0,1
189093,-100,4,1,1,90,0,0

[Colours]
Combo1 : 255,0,128
Combo2 : 255,128,192
Combo3 : 255,128,255
Combo4 : 255,0,255

[HitObjects]
88,172,1505,2,0,P|72:60,1,100,0|2,0:0|0:0,0:0:0
184,120,1858,5,0,0:0:0
190,158,1946,1,0,0:0:0
196,196,2034,1,0,0:0:0
112,280,2211,1,0,0:0:0
184,120,2387,5,0,0:0:0
300,156,2564,1,0,0:0:0
334,138,2652,1,0,0:0:0
370,118,2740,1,0,0:0:0
416,8,2917,1,0,0:0:0
300,156,3093,5,0,0:0:0
344,268,3269,1,0,0:0:0
328,304,3358,1,0,0:0:0
312,340,3446,1,0,0:0:0
192,360,3622,1,0,0:0:0
344,268,3799,5,0,0:0:0
384,264,3887,1,0,0:0:0
416,244,3975,1,0,0:0:0
428,204,4064,1,0,0:0:0
412,168,4152,1,0,0:0:0
376,148,4240,1,0,0:0:0
336,144,4328,6,0,P|236:156,1,100,0|2,0:0|0:0,0:0:0
168,256,4681,5,0,0:0:0
148,292,4769,1,0,0:0:0
128,328,4858,1,0,0:0:0
8,344,5034,1,0,0:0:0
168,256,5211,5,0,0:0:0
268,188,5387,1,0,0:0:0
304,176,5475,1,0,0:0:0
340,164,5564,1,0,0:0:0
456,192,5740,1,0,0:0:0
268,188,5917,5,2,0:0:0
133,249,6093,1,0,0:0:0
229,281,6269,1,2,0:0:0
172,156,6446,1,2,0:0:0
285,179,6622,1,0,0:0:0
236,297,6799,1,2,0:0:0
115,257,6975,1,2,0:0:0
165,140,7152,6,0,P|133:45,1,100,0|2,0:0|0:0,0:0:0
252,64,7505,5,0,0:0:0
292,56,7593,1,0,0:0:0
332,48,7681,1,0,0:0:0
452,64,7858,1,0,0:0:0
252,64,8034,5,0,0:0:0
324,160,8211,1,0,0:0:0
316,200,8299,1,0,0:0:0
308,240,8387,1,0,0:0:0
268,352,8564,6,0,P|208:268,1,100,0|2,0:0|0:0,0:0:0
224,152,8917,5,0,0:0:0
188,136,9005,1,0,0:0:0
152,120,9093,1,0,0:0:0
60,160,9269,1,0,0:0:0
224,152,9446,5,0,0:0:0
260,168,9534,1,0,0:0:0
300,168,9622,1,0,0:0:0
336,148,9711,1,0,0:0:0
348,108,9799,1,0,0:0:0
332,72,9887,1,0,0:0:0
296,56,9975,6,0,P|224:124,1,100,0|2,0:0|0:0,0:0:0
392,28,10328,5,0,0:0:0
400,68,10417,1,0,0:0:0
408,108,10505,1,0,0:0:0
324,180,10681,6,0,P|252:248,1,100,0|2,0:0|0:0,0:0:0
460,220,11034,5,0,0:0:0
468,260,11123,1,0,0:0:0
476,300,11211,1,0,0:0:0
352,304,11387,6,0,P|280:372,1,100,0|2,0:0|0:0,0:0:0
460,220,11740,1,2,0:0:0
352,303,11917,1,0,0:0:0
476,300,12093,1,2,0:0:0
352,304,12269,6,0,P|280:372,1,100,2|0,0:0|0:0,0:0:0
279,372,12975,5,6,0:0:0
444,340,13152,1,0,0:0:0
460,328,13240,1,10,0:0:0
476,316,13328,2,0,P|460:264|468:216,1,100,0|10,0:0|0:0,0:0:0
185,182,13681,1,2,0:0:0
344,236,13858,1,0,0:0:0
364,234,13946,1,10,0:0:0
384,232,14034,2,0,P|396:178|427:141,1,100,0|10,0:0|0:0,0:0:0
312,44,14387,1,2,0:0:0
248,236,14564,1,0,0:0:0
232,248,14652,1,10,0:0:0
216,259,14740,2,0,P|168:264|124:240,1,100,0|10,0:0|0:0,0:0:0
164,34,15093,5,2,0:0:0
188,52,15181,1,2,0:0:0
212,70,15269,1,8,0:0:0
236,88,15358,1,8,0:0:0
196,148,15446,5,2,0:0:0
222,162,15534,1,2,0:0:0
249,175,15622,1,8,0:0:0
276,189,15711,1,0,0:0:0
348,180,15799,6,0,P|448:176,1,100,6|0,0:0|0:0,0:0:0
432,196,16064,2,0,P|484:176,1,50,10|0,0:0|0:0,0:0:0
500,56,16328,2,0,P|400:60,1,100,10|2,0:0|0:0,0:0:0
268,124,16681,2,0,P|232:176,1,50,0|10,0:0|0:0,0:0:0
212,192,16858,2,0,P|248:72,1,100,0|10,0:0|0:0,0:0:0
364,136,17211,5,2,0:0:0
260,276,17387,2,0,P|204:292,2,50,0|2|0,0:0|0:0|0:0,0:0:0
364,136,17740,1,2,0:0:0
364,308,17917,5,2,0:0:0
260,168,18093,2,0,P|204:152,2,50,0|2|0,0:0|0:0|0:0,0:0:0
364,308,18446,1,2,0:0:0
448,222,18622,6,0,P|480:182|488:134,1,100,6|0,0:0|0:0,0:0:0
484,114,18887,1,10,0:0:0
480,94,18975,2,0,P|400:32,1,100,0|10,0:0|0:0,0:0:0
116,32,19328,2,0,P|113:83|135:126,1,100,2|0,0:0|0:0,0:0:0
150,140,19593,1,10,0:0:0
165,154,19681,2,0,P|264:136,1,100,0|10,0:0|0:0,0:0:0
476,4,20034,2,0,P|426:17|391:51,1,100,2|0,0:0|0:0,0:0:0
383,70,20299,1,10,0:0:0
374,88,20387,2,0,P|384:192,1,100,0|10,0:0|0:0,0:0:0
296,352,20740,5,2,0:0:0
268,324,20828,1,2,0:0:0
228,312,20917,1,8,0:0:0
188,304,21005,1,8,0:0:0
116,312,21093,5,2,0:0:0
96,280,21181,1,2,0:0:0
100,240,21269,1,8,0:0:0
128,208,21358,1,0,0:0:0
200,204,21446,5,6,0:0:0
312,260,21622,1,0,0:0:0
348,280,21711,1,10,0:0:0
384,300,21799,2,0,P|436:312|488:300,1,100,0|10,0:0|0:0,0:0:0
496,164,22152,1,2,0:0:0
384,220,22328,1,0,0:0:0
348,240,22417,1,10,0:0:0
312,260,22505,2,0,P|260:272|208:260,1,100,0|8,0:0|0:0,0:0:0
260,168,22858,5,2,0:0:0
400,144,23034,1,0,0:0:0
466,269,23211,1,2,0:0:0
368,368,23387,1,0,0:0:0
244,308,23564,1,2,0:0:0
244,308,23917,6,0,P|228:248,1,50
244,308,24269,6,0,P|316:212,1,120,4|0,0:0|0:0,0:0:0
344,184,24622,2,0,P|324:280,1,80
260,376,24975,2,0,P|231:259,1,120
200,284,25328,2,0,P|216:205,1,80,0|8,0:0|0:0,0:0:0
424,120,25681,6,0,P|340:112,1,80
320,132,25946,1,0,0:0:0
296,152,26034,2,0,P|216:124,1,80
228,32,26387,1,0,0:0:0
320,132,26564,2,0,P|348:176,1,40
312,236,26740,2,0,P|400:248,1,80,0|8,0:0|0:0,0:0:0
391,246,27093,5,0,0:0:0
264,316,27269,1,2,0:0:0
264,316,27358,1,0,0:0:0
264,316,27446,2,0,P|228:232,1,80,2|0,0:0|0:0,0:0:0
424,236,27799,6,0,P|376:360,2,120,2|2|10,0:0|0:0|0:0,0:0:0
312,236,28505,5,0,0:0:0
252,96,28681,1,2,0:0:0
312,236,28858,1,0,0:0:0
252,96,29034,1,2,0:0:0
448,160,29211,6,0,P|408:204|408:204|384:264,2,120,2|2|10,0:0|0:0|0:0,0:0:0
452,192,29828,1,8,0:0:0
456,224,29917,6,0,P|440:104,1,120,4|0,0:0|0:0,0:0:0
440,105,30269,1,0,0:0:0
500,232,30446,1,0,0:0:0
368,280,30622,2,0,P|352:160,1,120,0|0,0:0|0:0,0:0:0
352,160,30975,1,0,0:0:0
411,286,31152,1,8,0:0:0
279,334,31328,6,0,P|268:252,1,80
240,244,31593,1,0,0:0:0
212,232,31681,2,0,P|184:316,1,80
248,384,32034,2,0,P|352:320,2,120,0|0|8,0:0|0:0|0:0,0:0:0
212,232,32740,5,2,0:0:0
350,321,32917,1,2,0:0:0
212,232,33093,1,2,0:0:0
350,321,33269,1,0,0:0:0
308,188,33446,6,0,P|264:312,2,120,2|2|10,0:0|0:0|0:0,0:0:0
204,152,34152,5,0,0:0:0
284,252,34328,1,2,0:0:0
384,172,34505,1,0,0:0:0
304,72,34681,1,2,0:0:0
204,152,34858,6,0,P|196:280,1,120,2|10,0:0|0:0,0:0:0
176,324,35211,2,0,P|152:236,1,80,0|2,0:0|0:0,0:0:0
204,120,35564,6,0,P|237:237,1,120,6|2,0:0|0:0,0:0:0
264,284,35917,2,0,P|288:196,1,80,0|2,0:0|0:0,0:0:0
204,88,36270,2,0,P|291:172,1,120,2|2,0:0|0:0,0:0:0
338,201,36622,2,0,P|314:112,1,80,0|10,0:0|0:0,0:0:0
204,56,36975,6,0,P|168:72|124:76,1,80,2|0,0:0|0:0,0:0:0
96,76,37240,1,2,0:0:0
64,64,37328,2,0,P|112:132,2,80,0|2|2,0:0|0:0|0:0,0:0:0
132,232,37946,1,2,0:0:0
132,232,38034,1,0,0:0:0
228,240,38211,1,10,0:0:0
308,184,38387,6,0,P|252:152|192:152,1,120,2|2,0:0|0:0,0:0:0
164,184,38740,2,0,P|132:264,1,80,0|2,0:0|0:0,0:0:0
288,276,39093,6,0,P|352:268|400:233,1,120,2|2,0:0|0:0,0:0:0
404,191,39446,2,0,P|382:107,1,80,0|10,0:0|0:0,0:0:0
288,44,39799,5,2,0:0:0
480,120,40064,1,2,0:0:0
284,180,40328,1,2,0:0:0
288,44,40505,5,2,0:0:0
480,120,40770,1,2,0:0:0
284,180,41034,1,10,0:0:0
276,184,41122,1,8,0:0:0
268,188,41211,6,0,P|264:228|240:260,1,80,6|0,0:0|0:0,0:0:0
296,340,41564,1,0,0:0:0
224,276,41740,1,2,0:0:0
188,188,41917,2,0,P|192:148|215:116,1,80,2|0,0:0|0:0,0:0:0
248,108,42181,1,2,0:0:0
276,92,42270,2,0,P|264:52|236:28,1,80,0|10,0:0|0:0,0:0:0
86,86,42622,6,0,P|136:100|204:96,1,120,2|2,0:0|0:0,0:0:0
160,28,42975,2,0,P|116:20|84:4,1,80,0|2,0:0|0:0,0:0:0
4,120,43328,2,0,P|60:160|112:172,1,120,2|2,0:0|0:0,0:0:0
184,176,43681,2,0,P|224:168|260:152,1,80,0|10,0:0|0:0,0:0:0
160,28,44034,6,0,P|148:68|152:112,1,80,2|0,0:0|0:0,0:0:0
184,176,44299,2,0,P|228:220|284:224,1,120,2|2,0:0|0:0,0:0:0
260,144,44740,6,0,P|140:176,2,120,2|2|10,0:0|0:0|0:0,0:0:0
328,212,45446,5,2,0:0:0
144,174,45711,1,2,0:0:0
328,212,45975,1,14,0:0:0
344,240,46328,5,0,0:0:0
144,174,46505,1,0,0:0:0
144,174,46858,6,0,P|176:248,1,80,4|0,0:2|0:0,0:0:0
175,247,47211,1,0,0:0:0
64,240,47387,2,0,P|96:314,1,80,8|0,0:0|0:0,0:0:0
95,313,47740,1,8,0:0:0
176,248,47917,2,0,P|144:174,1,80
88,92,48270,5,4,0:2:0
216,128,48446,1,0,0:0:0
164,68,48622,5,0,0:2:0
292,152,48798,1,8,0:0:0
276,76,48975,5,0,0:2:0
344,208,49152,1,0,0:0:0
368,132,49328,5,0,0:0:0
352,288,49505,1,8,0:0:0
416,240,49681,6,0,P|452:168,1,80,4|0,0:2|0:0,0:0:0
392,96,50034,1,0,0:0:0
364,172,50211,2,0,P|280:208,1,80,8|0,0:0|0:0,0:0:0
276,284,50564,2,0,P|192:320,2,80,8|0|0,0:0|0:0|0:0,0:0:0
372,264,51093,5,4,0:2:0
440,328,51270,1,0,0:0:0
344,348,51446,2,0,P|260:304,1,80,0|8,0:0|0:0,0:0:0
344,248,51799,5,0,0:0:0
412,312,51975,1,0,0:0:0
316,332,52152,2,0,P|232:288,1,80,0|8,0:0|0:0,0:0:0
228,284,52417,1,8,0:0:0
212,276,52505,6,0,P|164:204,1,80,4|0,0:2|0:0,0:0:0
152,72,52858,1,0,0:0:0
224,108,53034,2,0,P|268:174,1,80,8|0,0:0|0:0,0:0:0
280,252,53387,1,8,0:0:0
356,272,53564,1,0,0:0:0
416,220,53740,1,0,0:0:0
340,200,53917,6,0,P|360:120,1,80,4|0,0:2|0:0,0:0:0
300,68,54270,1,0,0:0:0
448,88,54446,2,0,P|428:165,1,80,8|0,0:0|0:0,0:0:0
356,272,54799,1,0,0:0:0
288,312,54975,2,0,P|248:304|220:276,1,80,0|8,0:0|0:0,0:0:0
220,116,55328,6,0,P|288:160|288:232,1,160,2|8,0:0|0:0,0:0:0
220,277,55858,1,2,0:0:0
152,316,56034,2,0,P|152:240|216:196,1,160,2|8,0:0|0:0,0:0:0
287,232,56564,1,2,0:0:0
292,313,56740,5,2,0:0:0
152,316,57093,1,2,0:0:0
220,192,57446,1,2,0:0:0
292,313,57799,1,4,0:0:0
292,313,57975,2,0,P|340:288,1,50
408,280,58152,6,0,P|256:260,1,150,6|2,0:0|0:0,0:0:0
259,260,58505,1,8,0:0:0
452,184,58681,2,0,P|300:164,1,150,2|0,0:0|0:0,0:0:0
303,164,59034,1,2,0:0:0
496,88,59211,5,8,0:0:0
348,68,59387,2,0,P|249:53,1,100,14|0,0:0|0:0,0:0:0
44,124,59740,1,0,0:0:0
52,144,59828,1,0,0:0:0
60,164,59917,2,0,P|159:179,1,100,10|2,0:0|0:0,0:0:0
248,112,60270,5,0,0:0:0
128,248,60446,1,10,0:0:0
264,364,60622,2,0,P|340:376,1,75,10|0,0:0|0:0,0:0:0
264,364,60975,6,0,P|292:324|292:272,1,100,4|2,0:0|0:0,0:0:0
276,236,61240,1,2,0:0:0
252,204,61328,2,0,P|248:152|272:104,1,100,8|2,0:0|0:0,0:0:0
204,48,61681,1,2,0:0:0
328,168,61858,1,0,0:0:0
216,296,62034,1,10,0:0:0
368,376,62211,6,0,P|416:284,1,100,14|0,0:0|0:0,0:0:0
448,108,62564,1,2,0:0:0
436,124,62652,1,0,0:0:0
424,140,62740,2,0,P|328:168,1,100,8|2,0:0|0:0,0:0:0
112,100,63093,5,0,0:0:0
152,104,63181,1,0,0:0:0
192,108,63270,1,0,0:0:0
108,236,63446,1,0,0:0:0
158,223,63534,1,0,0:0:0
209,210,63622,1,0,0:0:0
168,384,63799,6,0,P|295:299,1,150,6|2,0:0|0:0,0:0:0
292,300,64152,1,8,0:0:0
112,100,64328,2,0,P|122:252,1,150,2|0,0:0|0:0,0:0:0
121,249,64681,1,2,0:0:0
429,217,64858,5,8,0:0:0
340,172,65034,2,0,P|250:126,1,100,14|0,0:0|0:0,0:0:0
227,347,65387,1,0,0:0:0
260,324,65475,1,0,0:0:0
292,300,65564,1,10,0:0:0
404,308,65740,1,2,0:0:0
316,376,65917,5,0,0:0:0
152,328,66093,1,10,0:0:0
96,168,66270,2,0,P|120:96,1,75,10|0,0:0|0:0,0:0:0
52,248,66622,6,0,P|104:256|164:232,1,100,4|2,0:0|0:0,0:0:0
184,220,66887,1,2,0:0:0
216,196,66975,2,0,P|320:184,1,100,8|2,0:0|0:0,0:0:0
315,184,67328,1,2,0:0:0
208,284,67505,1,0,0:0:0
168,256,67593,1,0,0:0:0
128,228,67681,2,0,P|120:176|136:128,1,100,10|2,0:0|0:0,0:0:0
212,72,68034,5,8,0:0:0
315,184,68211,1,2,0:0:0
240,317,68387,1,0,0:0:0
90,285,68564,1,2,0:0:0
76,132,68740,1,2,0:0:0
76,132,69093,6,0,P|88:32,1,100,8|0,0:0|0:0,0:0:0
144,128,70858,5,0,0:0:0
480,232,71211,6,0,P|460:152,1,80,0|0,0:0|0:0,0:0:0
408,48,71564,2,0,P|380:92|308:96,1,120
316,99,71917,2,0,P|356:104|356:104|392:136,1,80
480,232,72270,1,0,0:0:0
195,284,72534,5,0,0:0:0
195,284,72622,2,0,P|156:280|156:280|120:248,1,80
220,80,72975,2,0,P|248:200,1,120
268,252,73328,2,0,P|288:168,1,80
172,188,73681,5,2,0:0:0
195,284,73858,1,0,0:0:0
172,288,73946,1,0,0:0:0
148,292,74034,2,0,P|228:328,1,80,2|0,0:0|0:0,0:0:0
72,336,74387,6,0,P|184:384,2,120,2|2|2,0:0|0:0|0:0,0:0:0
182,383,75093,5,2,0:0:0
308,360,75270,1,2,0:0:0
324,232,75446,1,2,0:0:0
119,270,75622,1,0,0:0:0
208,176,75799,6,0,P|228:300,2,120,2|2|2,0:0|0:0|0:0,0:0:0
204,152,76417,1,0,0:0:0
200,128,76505,6,0,P|184:36,1,80,4|0,0:0|0:0,0:0:0
108,120,76858,1,0,0:0:0
284,88,77034,1,0,0:0:0
208,176,77211,6,0,P|228:300,1,120,0|0,0:0|0:0,0:0:0
224,316,77564,2,0,P|268:308|308:320,1,80
140,364,77917,2,0,P|72:364|32:328,1,120
68,224,78270,2,0,P|76:260|104:292,1,80
261,204,78622,2,0,P|144:228,1,120
144,228,78975,1,0,0:0:0
232,188,79152,1,0,0:0:0
312,240,79328,5,2,0:0:0
252,372,79505,1,0,0:0:0
344,260,79681,1,2,0:0:0
228,344,79858,1,0,0:0:0
376,280,80034,6,0,P|272:216,2,120,2|2|2,0:0|0:0|0:0,0:0:0
292,324,80740,5,2,0:0:0
248,220,80917,1,2,0:0:0
292,116,81093,1,2,0:0:0
400,92,81270,1,0,0:0:0
484,168,81446,2,0,P|496:288,1,120,2|8,0:0|0:0,0:0:0
504,320,81799,2,0,P|464:312|420:324,1,80,2|2,0:0|0:0,0:0:0
228,360,82152,6,0,P|280:356|320:304,1,120,6|0,0:0|0:0,0:0:0
380,256,82505,2,0,P|428:188,1,80,2|2,0:0|0:0,0:0:0
356,32,82858,2,0,P|340:88|368:144,1,120,2|0,0:0|0:0,0:0:0
416,84,83211,1,2,0:0:0
392,212,83387,1,2,0:0:0
432,8,83564,5,2,0:0:0
489,59,83740,1,0,0:0:0
492,84,83828,1,0,0:0:0
496,108,83917,2,0,P|476:144|440:160,1,80,2|2,0:0|0:0,0:0:0
332,216,84270,2,0,P|392:228|428:276,1,120,2|0,0:0|0:0,0:0:0
452,312,84622,2,0,P|460:232,1,80,2|2,0:0|0:0,0:0:0
260,176,84975,5,2,0:0:0
236,280,85152,1,0,0:0:0
256,296,85240,1,0,0:0:0
273,311,85328,2,0,P|352:296,1,80,2|2,0:0|0:0,0:0:0
272,384,85681,2,0,P|390:360,1,120,2|0,0:0|0:0,0:0:0
424,316,86034,2,0,P|436:356|464:380,1,80,2|2,0:0|0:0,0:0:0
400,220,86387,6,0,P|444:184|448:120,1,120,2|0,0:0|0:0,0:0:0
449,124,86740,1,2,0:0:0
396,64,86917,1,2,0:0:0
316,52,87093,2,0,P|330:110|376:143,1,120,2|0,0:0|0:0,0:0:0
400,220,87446,2,0,P|448:292,1,80,2|2,0:0|0:0,0:0:0
456,308,87711,1,0,0:0:0
468,328,87799,6,0,P|388:316,1,80,6|0,0:0|0:0,0:0:0
476,192,88152,1,2,0:0:0
404,252,88328,1,2,0:0:0
332,312,88505,2,0,P|300:192,1,120,2|0,0:0|0:0,0:0:0
264,204,88858,2,0,P|320:144,1,80,2|2,0:0|0:0,0:0:0
484,276,89211,6,0,P|401:362,1,120,2|0,0:0|0:0,0:0:0
428,376,89564,2,0,P|330:353,1,80,2|2,0:0|0:0,0:0:0
484,276,89917,6,0,P|448:260|424:216,1,80,2|0,0:0|0:0,0:0:0
424,204,90181,1,0,0:0:0
428,180,90270,2,0,P|440:136|432:96,1,80,2|2,0:0|0:0,0:0:0
356,136,90622,6,0,P|340:192|352:256,1,120,2|0,0:0|0:0,0:0:0
408,300,90975,1,2,0:0:0
272,348,91152,1,2,0:0:0
132,308,91328,2,0,P|72:200,1,120,2|0,0:0|0:0,0:0:0
36,140,91681,1,2,0:0:0
168,196,91858,1,2,0:0:0
304,156,92034,2,0,P|352:136|376:72,1,120,2|0,0:0|0:0,0:0:0
304,84,92387,5,2,0:0:0
244,216,92564,1,14,0:0:0
256,244,92917,5,8,0:0:0
304,84,93093,1,0,0:0:0
304,84,93446,6,0,P|224:72,1,80,4|0,0:2|0:0,0:0:0
224,72,93799,1,0,0:0:0
380,32,93975,5,8,0:0:0
420,120,94152,1,0,0:0:0
476,44,94328,1,8,0:0:0
380,32,94505,1,0,0:0:0
420,120,94681,1,0,0:0:0
424,216,94858,6,0,P|380:292,1,80,4|0,0:2|0:0,0:0:0
300,332,95211,1,0,0:0:0
204,344,95387,5,8,0:0:0
84,244,95564,1,0,0:0:0
236,256,95740,1,0,0:0:0
108,336,95917,1,0,0:0:0
164,192,96093,1,8,0:0:0
92,56,96270,6,0,P|52:48|12:60,1,80,4|0,0:2|0:0,0:0:0
64,140,96622,1,0,0:0:0
268,156,96799,2,0,P|308:149|341:124,1,80,8|0,0:0|0:0,0:0:0
265,67,97152,1,8,0:0:0
156,152,97328,2,0,P|176:236,1,80
280,320,97681,6,0,P|261:242,1,80,4|0,0:2|0:0,0:0:0
261,242,98034,1,0,0:0:0
430,349,98211,2,0,P|396:364|354:362,1,80,8|0,0:0|0:0,0:0:0
128,332,98564,2,0,P|165:329|204:345,1,80
280,320,98917,1,8,0:0:0
280,320,99005,1,8,0:0:0
280,320,99093,6,0,P|260:240,1,80,4|0,0:2|0:0,0:0:0
240,148,99446,1,0,0:0:0
300,72,99622,1,8,0:0:0
212,116,99799,1,0,0:0:0
120,92,99975,1,8,0:0:0
52,24,100152,1,0,0:0:0
136,72,100328,1,0,0:0:0
148,168,100505,6,0,P|152:212|140:244,1,80,4|0,0:2|0:0,0:0:0
60,192,100858,1,0,0:0:0
212,116,101034,2,0,P|288:80,1,80,8|0,0:0|0:0,0:0:0
372,40,101387,1,0,0:0:0
172,48,101564,2,0,P|140:80|132:116,1,80,0|8,0:0|0:0,0:0:0
211,250,101917,6,0,P|248:172|212:116,1,160,2|8,0:0|0:0,0:0:0
132,112,102446,1,2,0:0:0
52,116,102622,2,0,P|96:184|169:183,1,160,2|8,0:0|0:0,0:0:0
211,115,103152,1,2,0:0:0
276,68,103328,5,2,0:0:0
432,100,103681,1,2,0:0:0
468,256,104034,1,2,0:0:0
428,328,104211,1,0,0:0:0
408,340,104299,1,0,0:0:0
236,352,104564,1,0,0:0:0
216,340,104652,1,0,0:0:0
196,328,104740,6,0,P|164:308|164:308|176:244|136:200,1,150,6|2,0:0|0:0,0:0:0
164,132,105093,1,8,0:0:0
84,272,105270,2,0,P|232:240,1,150,2|0,0:0|0:0,0:0:0
296,268,105622,1,2,0:0:0
392,340,105799,5,8,0:0:0
468,204,105975,2,0,P|504:108,1,100,14|0,0:0|0:0,0:0:0
244,48,106328,1,0,0:0:0
244,48,106417,1,0,0:0:0
244,48,106505,2,0,P|279:141,1,100,10|2,0:0|0:0,0:0:0
392,228,106858,5,0,0:0:0
472,364,107034,1,10,0:0:0
468,204,107211,2,0,P|496:132,1,75,10|0,0:0|0:0,0:0:0
444,288,107564,6,0,P|396:304|344:292,1,100,4|2,0:0|0:0,0:0:0
312,284,107828,1,2,0:0:0
272,292,107917,1,8,0:0:0
128,348,108093,1,2,0:0:0
284,368,108270,2,0,P|268:252,1,100,2|0,0:0|0:0,0:0:0
240,56,108622,5,10,0:0:0
164,124,108799,2,0,P|116:116|76:80,1,100,14|0,0:0|0:0,0:0:0
336,88,109152,1,2,0:0:0
348,116,109240,1,0,0:0:0
360,144,109328,2,0,P|408:152|445:184,1,100,8|2,0:0|0:0,0:0:0
288,256,109681,5,0,0:0:0
328,248,109770,1,0,0:0:0
368,240,109858,1,0,0:0:0
492,352,110034,1,0,0:0:0
444,348,110122,1,0,0:0:0
392,344,110211,1,0,0:0:0
139,332,110387,6,0,P|224:320|260:272,1,150,6|2,0:0|0:0,0:0:0
288,256,110740,1,8,0:0:0
284,56,110917,2,0,P|320:88|376:96,1,100,2|0,0:0|0:0,0:0:0
408,92,111181,1,0,0:0:0
444,80,111270,1,2,0:0:0
360,12,111446,1,8,0:0:0
264,140,111622,6,0,P|308:256,1,100,14|0,0:0|0:0,0:0:0
144,370,111975,1,0,0:0:0
116,366,112064,1,0,0:0:0
88,360,112152,2,0,P|52:266,1,100,10|2,0:0|0:0,0:0:0
208,88,112505,5,0,0:0:0
299,233,112681,1,10,0:0:0
144,304,112858,2,0,P|116:228,1,75,10|0,0:0|0:0,0:0:0
104,372,113211,6,0,P|156:382|204:358,1,100,4|2,0:0|0:0,0:0:0
228,336,113475,1,2,0:0:0
264,352,113564,2,0,P|296:368|296:368|360:364,1,100,8|2,0:0|0:0,0:0:0
360,364,113917,1,2,0:0:0
204,304,114093,1,0,0:0:0
188,268,114181,1,0,0:0:0
172,232,114270,2,0,P|120:224|76:240,1,100,10|2,0:0|0:0,0:0:0
128,324,114622,5,8,0:0:0
296,256,114799,1,2,0:0:0
156,144,114975,1,0,0:0:0
128,324,115152,1,2,0:0:0
296,256,115328,2,0,P|348:264|392:248,1,100,2|8,0:0|0:0,0:0:0
372,284,115593,5,8,0:0:0
340,308,115681,1,0,0:0:0
300,316,115770,1,0,0:0:0
260,312,115858,1,8,0:0:0
224,300,115946,1,8,0:0:0
192,276,116034,6,0,P|148:120,1,150,6|2,0:0|0:0,0:0:0
151,131,116387,1,8,0:0:0
360,40,116564,2,0,P|319:184,1,150,2|0,0:0|0:0,0:0:0
319,184,116917,1,2,0:0:0
232,56,117093,5,8,0:0:0
436,88,117270,2,0,P|448:40|432:-8,1,100,14|0,0:0|0:0,0:0:0
336,124,117622,1,0,0:0:0
348,164,117711,1,0,0:0:0
360,200,117799,2,0,P|404:224|456:220,1,100,10|2,0:0|0:0,0:0:0
336,124,118152,5,0,0:0:0
176,116,118328,1,10,0:0:0
72,240,118505,2,0,P|44:168,1,75,10|0,0:0|0:0,0:0:0
48,348,118858,6,0,P|100:348|144:328,1,100,4|2,0:0|0:0,0:0:0
168,300,119122,1,2,0:0:0
184,264,119211,2,0,P|228:288|280:292,1,100,8|2,0:0|0:0,0:0:0
72,240,119564,2,0,P|50:194|10:160,1,100,2|0,0:0|0:0,0:0:0
48,348,119917,1,10,0:0:0
184,264,120093,6,0,P|224:172,1,100,14|0,0:0|0:0,0:0:0
88,32,120446,1,2,0:0:0
108,64,120534,1,0,0:0:0
128,96,120622,2,0,P|76:96|32:124,1,100,8|2,0:0|0:0,0:0:0
184,264,120975,5,0,0:0:0
192,224,121064,1,0,0:0:0
200,184,121152,1,0,0:0:0
336,300,121328,1,0,0:0:0
328,252,121417,1,0,0:0:0
320,204,121505,1,0,0:0:0
492,312,121681,6,0,P|456:248|464:172,1,150,6|2,0:0|0:0,0:0:0
463,174,122034,1,8,0:0:0
238,109,122211,2,0,P|312:80|376:100,1,150,2|0,0:0|0:0,0:0:0
376,100,122564,1,2,0:0:0
183,286,122740,5,8,0:0:0
152,192,122917,2,0,P|121:98,1,100,14|0,0:0|0:0,0:0:0
368,42,123270,1,0,0:0:0
372,70,123358,1,0,0:0:0
376,100,123446,2,0,P|344:194,1,100,10|2,0:0|0:0,0:0:0
152,192,123799,5,0,0:0:0
344,194,123975,1,10,0:0:0
152,192,124152,2,0,P|76:192,1,75,10|0,0:0|0:0,0:0:0
212,116,124505,6,0,P|240:160|240:212,1,100,4|2,0:0|0:0,0:0:0
236,236,124770,1,2,0:0:0
228,264,124858,2,0,P|216:312|232:360,1,100,8|2,0:0|0:0,0:0:0
312,308,125211,1,2,0:0:0
128,248,125387,1,0,0:0:0
140,220,125475,1,0,0:0:0
152,192,125564,2,0,P|112:160|64:156,1,100,10|2,0:0|0:0,0:0:0
64,155,125917,5,8,0:0:0
152,264,126093,1,2,0:0:0
292,268,126270,1,0,0:0:0
424,220,126446,1,2,0:0:0
480,92,126622,1,2,0:0:0
480,92,126975,6,0,P|376:112,1,100,8|0,0:0|0:0,0:0:0
468,40,128564,6,0,P|364:60,1,100,0|2,0:0|0:0,0:0:0
44,104,129975,6,0,P|148:124,1,100,0|2,0:0|0:0,0:0:0
468,168,130681,6,0,P|364:188,1,100,0|2,0:0|0:0,0:0:0
44,232,131387,6,0,P|148:252,1,100,0|2,0:0|0:0,0:0:0
285,321,131740,5,2,0:0:0
212,180,131917,1,8,0:0:0
188,340,132093,1,8,0:0:0
300,224,132270,1,8,0:0:0
142,250,132446,2,0,P|88:240,2,50,8|8|2,0:0|0:0|0:0,0:0:0
300,224,132799,2,0,P|349:233,1,50,8|8,0:0|0:0,0:0:0
424,244,132975,6,0,P|362:165,1,100,6|2,0:0|0:0,0:0:0
344,140,133240,1,8,0:0:0
324,116,133328,2,0,P|360:80|412:72,1,100,0|10,0:0|0:0,0:0:0
105,71,133681,5,0,0:0:0
188,116,133858,1,2,0:0:0
168,140,133946,1,8,0:0:0
148,164,134034,2,0,P|180:204|184:252,1,100,0|10,0:0|0:0,0:0:0
380,344,134387,5,2,0:0:0
452,276,134564,1,2,0:0:0
444,248,134652,1,8,0:0:0
436,220,134740,1,0,0:0:0
468,124,134917,1,10,0:0:0
452,276,135093,5,0,0:0:0
352,264,135270,1,2,0:0:0
324,252,135358,1,8,0:0:0
296,240,135446,1,0,0:0:0
228,168,135622,1,10,0:0:0
352,264,135799,5,6,0:0:0
288,340,135975,2,0,P|336:360,1,50,2|8,0:0|0:0,0:0:0
220,384,136152,2,0,P|207:337|223:289,1,100,0|10,0:0|0:0,0:0:0
432,360,136505,5,0,0:0:0
436,200,136681,2,0,P|424:152,1,50,2|8,0:0|0:0,0:0:0
496,256,136858,2,0,P|452:276|400:272,1,100,0|10,0:0|0:0,0:0:0
260,196,137211,5,2,0:0:0
248,96,137387,1,8,0:0:0
260,48,137475,1,8,0:0:0
300,16,137564,1,2,0:0:0
400,8,137740,1,10,0:0:0
340,136,137917,5,2,0:0:0
260,196,138093,1,8,0:0:0
212,209,138181,1,8,0:0:0
165,191,138270,1,2,0:0:0
108,108,138446,1,10,0:0:0
248,96,138622,5,6,0:0:0
276,92,138711,1,2,0:0:0
304,100,138799,1,0,0:0:0
328,120,138887,1,8,0:0:0
408,116,138975,5,2,0:0:0
412,143,139064,1,2,0:0:0
404,171,139152,1,8,0:0:0
384,195,139240,1,0,0:0:0
327,262,139328,6,0,P|308:216,1,50,2|2,0:0|0:0,0:0:0
236,260,139505,2,0,P|246:308,1,50,0|8,0:0|0:0,0:0:0
160,339,139681,2,0,P|158:290,1,50,2|2,0:0|0:0,0:0:0
77,307,139858,2,0,P|71:357,1,50,8|0,0:0|0:0,0:0:0
12,252,140034,5,2,0:0:0
32,220,140122,1,0,0:0:0
44,180,140211,1,2,0:0:0
36,140,140299,1,8,0:0:0
28,180,140387,5,2,0:0:0
52,212,140475,1,0,0:0:0
88,228,140564,1,10,0:0:0
128,236,140652,1,0,0:0:0
168,232,140740,6,0,P|208:212|232:164,1,100,2|8,0:0|0:0,0:0:0
200,96,141005,1,8,0:0:0
132,68,141093,2,0,P|131:124|156:158,1,100,2|10,0:0|0:0,0:0:0
276,288,141446,6,0,P|424:260,1,150,6|8,0:0|0:0,0:0:0
300,380,141799,2,0,P|300:323|275:289,1,100,2|10,0:0|0:0,0:0:0
152,356,142152,6,0,P|300:380,1,150,2|8,0:0|0:0,0:0:0
160,264,142505,2,0,P|140:304|152:356,1,100,2|10,0:0|0:0,0:0:0
256,188,142858,5,2,0:0:0
256,188,143122,1,2,0:0:0
256,188,143387,1,2,0:0:0
256,188,143740,5,2,0:0:0
275,164,143828,1,0,0:0:0
295,141,143917,2,0,P|276:108|276:108|216:88,1,100
256,192,149740,5,2,0:0:0
256,192,149917,2,0,P|308:172|308:172|280:128|284:80|312:56|312:56|260:28|260:28|224:72|236:132,1,350,4|2,0:1|0:0,0:0:0
256,192,151328,6,0,P|276:244|276:244|320:216|368:220|392:248|392:248|420:196|420:196|376:160|316:172,1,350,4|2,0:1|0:0,0:0:0
256,192,152740,6,0,P|204:212|204:212|232:256|228:304|200:328|200:328|252:356|252:356|288:312|276:252,1,350,4|2,0:1|0:0,0:0:0
256,192,154152,6,0,P|220:180|176:200|176:200|148:232|100:244|68:232,1,200,4|0,0:0|0:0,0:0:0
68,232,155564,6,0,P|128:276,1,75,2|2,0:0|0:0,0:0:0
128,276,155917,1,0,0:0:0
172,356,156093,1,2,0:0:0
204,268,156270,2,0,P|184:196,1,75,2|2,0:0|0:0,0:0:0
184,196,156622,2,0,P|218:156,1,50,0|2,0:0|0:0,0:0:0
196,64,156975,2,0,P|143:117,1,75,2|2,0:0|0:0,0:0:0
144,116,157328,1,0,0:0:0
188,200,157505,2,0,P|222:160,1,50,2|2,0:0|0:0,0:0:0
300,160,157858,5,2,0:0:0
120,304,158034,2,0,P|67:250,1,75,2|0,0:0|0:0,0:0:0
132,384,158387,6,0,P|172:368|200:320,1,100,4|2,0:0|0:0,0:0:0
232,344,158652,1,2,0:0:0
272,348,158740,2,0,P|320:336|376:352,1,100,8|2,0:0|0:0,0:0:0
468,280,159093,1,2,0:0:0
436,144,159270,1,0,0:0:0
396,148,159358,1,0,0:0:0
356,156,159446,1,10,0:0:0
224,112,159622,6,0,P|209:81|209:81|247:29,1,100,14|0,0:0|0:0,0:0:0
462,60,159975,1,2,0:0:0
462,60,160064,1,0,0:0:0
462,60,160152,2,0,P|478:92|478:92|440:144,1,100,8|2,0:0|0:0,0:0:0
344,248,160505,5,0,0:0:0
304,240,160593,1,0,0:0:0
264,232,160681,1,0,0:0:0
204,336,160858,1,0,0:0:0
252,332,160946,1,0,0:0:0
300,328,161034,1,0,0:0:0
512,356,161211,6,0,P|436:368|436:368|360:356,1,150,6|2,0:0|0:0,0:0:0
300,328,161564,1,8,0:0:0
492,207,161740,2,0,P|512:356,1,150,2|0,0:0|0:0,0:0:0
512,356,162093,1,2,0:0:0
363,356,162270,1,8,0:0:0
496,252,162446,6,0,P|457:159,1,100,14|0,0:0|0:0,0:0:0
304,196,162799,1,0,0:0:0
292,168,162887,1,0,0:0:0
280,140,162975,2,0,P|240:48,1,100,10|2,0:0|0:0,0:0:0
240,48,163328,5,0,0:0:0
376,160,163505,1,10,0:0:0
208,208,163681,2,0,P|132:220,1,75,10|0,0:0|0:0,0:0:0
280,140,164034,6,0,P|320:232,1,100,4|2,0:0|0:0,0:0:0
336,256,164299,2,0,P|340:204,1,50,2|8,0:0|0:0,0:0:0
448,56,164564,2,0,P|396:68|348:56,1,100,2|2,0:0|0:0,0:0:0
156,56,164917,2,0,P|208:48,1,50
156,136,165093,2,0,P|108:120|80:80,1,100,10|2,0:0|0:0,0:0:0
280,76,165446,5,8,0:0:0
168,276,165622,1,2,0:0:0
156,56,165799,1,0,0:0:0
224,176,165975,1,2,0:0:0
292,296,166152,1,2,0:0:0
408,328,166328,5,8,0:0:0
408,328,166417,1,8,0:0:0
175,325,166681,2,0,P|168:276,1,50,8|8,0:0|0:0,0:0:0
224,176,166858,5,6,0:0:0
184,172,166946,1,0,0:0:0
144,168,167034,1,0,0:0:0
104,164,167122,1,2,0:0:0
64,160,167211,2,0,P|-8:152,1,50,8|0,0:0|2:0,0:0:0
136,80,167387,5,2,0:0:0
176,84,167475,1,0,0:0:0
216,88,167564,1,0,0:0:0
256,92,167652,1,0,0:0:0
296,96,167740,2,0,P|368:104,1,50,2|0,0:0|2:0,0:0:0
160,256,167917,5,8,0:0:0
260,263,168093,2,0,P|256:216|224:176,1,100,14|0,0:0|0:0,0:0:0
158,336,168446,1,0,0:0:0
182,352,168534,1,0,0:0:0
212,364,168622,2,0,P|258:376|308:365,1,100,10|2,0:0|0:0,0:0:0
372,320,168975,5,0,0:0:0
212,364,169152,1,10,0:0:0
68,284,169328,2,0,P|132:324,1,75,10|0,0:0|0:0,0:0:0
68,284,169681,6,0,P|80:252|80:252|144:224,1,100,4|2,0:0|0:0,0:0:0
180,212,169946,1,2,0:0:0
216,200,170034,2,0,P|244:200|244:200|300:148,1,100,8|2,0:0|0:0,0:0:0
456,60,170387,2,0,P|428:72|428:72|360:56,1,100,2|0,0:0|0:0,0:0:0
200,120,170740,5,10,0:0:0
336,240,170917,2,0,P|360:226|360:226|382:152,1,100,14|0,0:0|0:0,0:0:0
200,120,171270,1,2,0:0:0
200,120,171358,1,0,0:0:0
200,120,171446,2,0,P|169:116|169:116|118:68,1,100,8|2,0:0|0:0,0:0:0
332,32,171799,5,0,0:0:0
360,59,171887,1,0,0:0:0
388,87,171975,1,0,0:0:0
388,297,172152,1,0,0:0:0
356,332,172240,1,0,0:0:0
324,368,172328,1,0,0:0:0
266,192,172505,6,0,P|418:192,1,150,6|2,0:0|0:0,0:0:0
416,192,172858,1,8,0:0:0
250,291,173034,2,0,P|184:248|167:182,1,150,2|0,0:0|0:0,0:0:0
167,182,173387,1,2,0:0:0
296,96,173564,1,8,0:0:0
480,252,173740,6,0,P|432:271|384:267,1,100,14|0,0:0|0:0,0:0:0
296,96,174093,1,0,0:0:0
320,80,174181,1,0,0:0:0
344,64,174270,2,0,P|392:68|428:104,1,100,10|2,0:0|0:0,0:0:0
256,184,174622,5,0,0:0:0
120,156,174799,1,10,0:0:0
32,48,174975,2,0,P|104:28,1,75,10|0,0:0|0:0,0:0:0
52,120,175328,6,0,P|44:172|68:216,1,100,4|2,0:0|0:0,0:0:0
84,248,175593,1,2,0:0:0
112,276,175681,2,0,P|160:292|192:332,1,100,8|2,0:0|0:0,0:0:0
104,376,176034,1,2,0:0:0
64,212,176211,1,0,0:0:0
100,192,176299,1,0,0:0:0
124,160,176387,2,0,P|136:116|116:68,1,100,10|2,0:0|0:0,0:0:0
52,120,176740,5,10,0:0:0
92,312,176917,1,2,0:0:0
287,331,177093,1,0,0:0:0
368,152,177270,1,2,0:0:0
222,22,177446,1,14,0:0:0
52,120,177622,1,2,0:0:0
48,152,177711,1,2,0:0:0
48,180,177799,1,12,0:0:0
52,208,177887,1,2,0:0:0
60,236,177975,1,10,0:0:0
72,264,178064,1,2,0:0:0
88,288,178152,6,0,P|140:304|188:300,1,100,6|2,0:0|0:0,0:0:0
212,292,178417,1,10,0:0:0
212,292,178505,2,0,P|264:288|316:296,1,100,0|10,0:0|0:0,0:0:0
88,96,178858,2,0,P|140:80|188:84,1,100,2|2,0:0|0:0,0:0:0
212,92,179122,1,8,0:0:0
212,92,179211,2,0,P|264:96|316:88,1,100,0|8,0:0|0:0,0:0:0
448,192,179564,1,2,0:0:0
348,192,179740,1,2,0:0:0
320,192,179828,1,8,0:0:0
288,192,179917,2,0,P|184:192,1,100,0|8,0:0|0:0,0:0:0
184,83,180270,5,2,0:0:0
372,192,180446,1,8,0:0:0
184,300,180622,1,8,0:0:0
72,196,180975,5,6,0:0:0
216,136,181152,1,2,0:0:0
200,108,181240,1,8,0:0:0
184,83,181328,2,0,P|232:64|264:24,1,100,0|8,0:0|0:0,0:0:0
260,376,181681,1,2,0:0:0
200,232,181858,1,2,0:0:0
172,248,181946,1,8,0:0:0
147,263,182034,2,0,P|128:216|88:184,1,100,0|8,0:0|0:0,0:0:0
440,188,182387,1,2,0:0:0
296,248,182564,1,2,0:0:0
312,276,182652,1,10,0:0:0
327,300,182740,2,0,P|280:320|248:360,1,100,0|10,0:0|0:0,0:0:0
256,76,183093,5,2,0:0:0
147,263,183270,1,8,0:0:0
364,263,183446,1,8,0:0:0
350,84,183799,6,0,P|320:96|320:96|256:76,1,100,6|2,0:0|0:0,0:0:0
228,80,184064,1,8,0:0:0
200,84,184152,2,0,P|296:120,1,100,0|8,0:0|0:0,0:0:0
488,184,184505,2,0,P|457:195|457:195|393:175,1,100,2|2,0:0|0:0,0:0:0
365,179,184770,1,8,0:0:0
337,183,184858,2,0,P|433:219,1,100,0|8,0:0|0:0,0:0:0
404,356,185211,1,2,0:0:0
271,307,185387,1,2,0:0:0
300,304,185475,1,8,0:0:0
328,300,185564,2,0,P|232:264,1,100,0|8,0:0|0:0,0:0:0
140,192,185917,5,2,0:0:0
327,83,186093,1,8,0:0:0
327,300,186270,1,8,0:0:0
40,192,186622,5,6,0:0:0
140,192,186799,1,2,0:0:0
164,176,186887,1,10,0:0:0
188,160,186975,2,0,P|144:132|128:88,1,100,0|2,0:0|0:0,0:0:0
472,192,187328,1,2,0:0:0
372,192,187505,1,2,0:0:0
348,176,187593,1,10,0:0:0
324,160,187681,2,0,P|368:132|384:88,1,100,0|10,0:0|0:0,0:0:0
208,84,188034,2,0,P|256:96|304:84,1,100,6|2,0:0|0:0,0:0:0
256,20,188299,1,2,0:0:0
256,20,188387,2,0,P|256:120,1,100,0|2,0:0|0:0,0:0:0
256,308,188740,5,2,0:0:0
364,120,188917,1,10,0:0:0
147,120,189093,1,14,0:0:0
