osu file format v11

[General]
AudioFilename: owo.mp3
AudioLeadIn: 1000
PreviewTime: 58152
Countdown: 0
SampleSet: Soft
StackLeniency: 0.7
Mode: 0
LetterboxInBreaks: 0

[Editor]
DistanceSpacing: 1
BeatDivisor: 4
GridSize: 4

[Metadata]
Title:Yoiduki Maiuta
TitleUnicode:宵月舞唄
Artist:capitaro
ArtistUnicode:かぴたろう
Creator:Amamiya Yuko
Version:Easy
Source:Vocaloid
Tags:Hatsune Miku hs714 Skystar tanaka
BeatmapID:214126
BeatmapSetID:70057

[Difficulty]
HPDrainRate:2
CircleSize:3
OverallDifficulty:2
ApproachRate:4
SliderMultiplier:0.799999999999999
SliderTickRate:1

[Events]
//Background and Video events
0,0,"BG.jpg"
Video,0,"video.avi"
//Break Periods
2,144470,148597
2,155564,156538
//Storyboard Layer 0 (Background)
//Storyboard Layer 1 (Fail)
//Storyboard Layer 2 (Pass)
//Storyboard Layer 3 (Foreground)
//Storyboard Sound Samples
//Background Colour Transformations
3,100,163,162,255

[TimingPoints]
270,352.941176470588,4,1,0,70,1,0
11564,-100,4,1,1,70,0,0
12975,-100,4,1,2,70,0,0
17211,-100,4,1,1,70,0,0
18622,-100,4,1,2,70,0,0
22858,-100,4,1,1,70,0,0
24269,-100,4,3,1,60,0,0
26034,-100,4,3,1,5,0,0
26122,-100,4,3,1,60,0,0
30269,-100,4,3,1,5,0,0
30358,-100,4,3,1,60,0,0
31681,-100,4,3,1,5,0,0
31769,-100,4,3,1,60,0,0
35564,-100,4,3,1,70,0,0
46328,-100,4,1,1,60,0,0
55681,-100,4,2,2,50,0,0
55769,-100,4,1,1,60,0,0
56387,-100,4,2,2,50,0,0
56475,-100,4,1,1,60,0,0
58152,-100,4,1,1,70,0,1
63093,-100,4,3,1,70,0,1
63799,-100,4,1,1,70,0,1
64681,-100,4,2,1,70,0,1
64769,-100,4,1,1,70,0,1
69446,-100,4,1,1,70,0,0
70858,-100,4,3,1,60,0,0
72622,-100,4,3,1,5,0,0
72711,-100,4,3,1,60,0,0
76858,-100,4,3,1,5,0,0
76946,-100,4,3,1,60,0,0
78269,-100,4,3,1,5,0,0
78358,-100,4,3,1,60,0,0
82152,-100,4,3,1,70,0,0
92917,-100,4,1,1,60,0,0
102269,-100,4,2,2,50,0,0
102358,-100,4,1,1,60,0,0
102975,-100,4,2,2,50,0,0
103064,-100,4,1,1,60,0,0
104122,-100,4,1,0,50,0,0
104740,-100,4,1,1,70,0,1
109681,-100,4,3,1,70,0,1
110387,-100,4,1,1,70,0,1
115328,-100,4,1,1,70,0,0
116034,-100,4,1,1,70,0,1
120975,-100,4,3,1,70,0,1
121681,-100,4,1,1,70,0,1
127328,-100,4,1,1,70,0,0
128740,-100,4,1,2,70,0,0
131564,-100,4,1,1,60,0,0
144269,-100,4,2,1,70,0,0
149740,-100,4,2,0,40,0,0
154152,-100,4,2,1,50,0,0
154328,-100,4,2,1,5,0,0
157858,-100,4,1,1,70,0,0
158387,-100,4,1,1,70,0,1
158740,-100,4,2,2,60,0,1
158828,-100,4,1,1,70,0,1
166152,-100,4,1,1,70,0,0
166858,-100,4,1,1,70,0,1
171799,-100,4,3,1,70,0,1
172505,-100,4,1,1,70,0,1
178152,-100,4,1,1,60,0,0
178505,-100,4,2,3,60,0,0
178593,-100,4,1,1,60,0,0
179211,-100,4,2,3,60,0,0
179299,-100,4,1,1,60,0,0
180269,-100,4,1,1,80,0,1
180622,-100,4,1,1,80,0,0
180975,-100,4,1,1,60,0,0
181328,-100,4,2,3,60,0,0
181417,-100,4,1,1,60,0,0
182034,-100,4,2,3,60,0,0
182122,-100,4,1,1,60,0,0
183093,-100,4,1,1,80,0,1
183446,-100,4,1,1,80,0,0
183799,-100,4,1,1,60,0,0
184152,-100,4,2,3,60,0,0
184240,-100,4,1,1,60,0,0
184858,-100,4,2,3,60,0,0
184946,-100,4,1,1,60,0,0
185917,-100,4,1,1,80,0,1
186269,-100,4,1,1,80,0,0
186622,-100,4,1,1,60,0,0
186975,-100,4,2,3,60,0,0
187064,-100,4,1,1,60,0,0
187328,-100,4,1,1,65,0,0
187681,-100,4,2,3,65,0,0
187769,-100,4,1,1,65,0,0
188034,-100,4,1,1,70,0,0
188740,-100,4,1,1,90,0,1
189093,-100,4,1,1,90,0,0

[Colours]
Combo1 : 255,0,128
Combo2 : 255,128,192
Combo3 : 255,128,255
Combo4 : 255,0,255

[HitObjects]
176,104,11564,2,0,P|220:104|220:104|264:92,2,79.9999999999999,2|2|2,0:0|0:0|0:0,0:0:0
88,236,12975,6,0,P|172:240|172:240|168:280|204:320,2,160,2|2|2,0:0|0:0|0:0,0:0:0
156,92,15093,1,2,0:0:0
304,28,15799,6,0,P|331:58|327:98|327:98|411:102,2,160,2|2|2,0:0|0:0|0:0,0:0:0
156,92,17917,1,2,0:0:0
288,184,18622,6,0,P|284:264|340:324,1,160,2|2,0:0|0:0,0:0:0
472,236,20034,2,0,P|476:156|420:96,1,160,2|2,0:0|0:0,0:0:0
268,88,21446,5,2,0:0:0
124,160,22152,1,2,0:0:0
260,248,22858,2,0,P|348:248,2,79.9999999999999,2|2|2,0:0|0:0|0:0,0:0:0
124,160,24269,5,0,0:0:0
268,88,24975,1,0,0:0:0
420,140,25681,2,0,P|452:296,1,160
300,344,27093,5,0,0:0:0
220,340,27446,2,0,P|148:348|56:328,1,160
16,264,28505,1,0,0:0:0
96,252,28858,2,0,P|164:260|256:244,1,160
320,200,29917,6,0,P|368:172|368:172|404:140|404:140|452:112,1,160
292,92,31328,2,0,P|244:120|244:120|208:152|208:152|160:180,1,160
80,320,32740,5,0,0:0:0
160,336,33093,2,0,P|215:335|215:335|262:326|262:326|318:325,1,160
376,268,34152,1,0,0:0:0
304,236,34505,2,0,P|248:236|248:236|201:245|201:245|145:246,1,160
76,208,35564,5,2,0:0:0
124,56,36270,1,2,0:0:0
280,92,36975,1,2,0:0:0
232,244,37681,1,2,0:0:0
76,208,38387,6,0,P|56:148|88:104|68:48,2,160,2|2|2,0:0|0:0|0:0,0:0:0
216,288,40505,1,2,0:0:0
372,252,41211,5,2,0:0:0
324,100,41917,1,2,0:0:0
168,136,42622,1,2,0:0:0
216,288,43328,1,2,0:0:0
372,252,44034,6,0,P|392:192|360:148|380:92,2,160,2|2|2,0:0|0:0|0:0,0:0:0
56,192,46858,5,4,0:0:0
376,192,48270,5,4,0:2:0
76,80,49681,5,4,0:2:0
264,340,51093,5,4,0:2:0
444,76,52505,5,4,0:2:0
152,208,53917,5,4,0:2:0
460,300,55328,6,0,P|496:272|500:236|500:236|456:212|456:160,2,160,2|2|2,0:0|0:0|0:0,0:0:0
400,352,57093,1,2,0:0:0
324,328,57446,1,2,0:0:0
244,336,57799,1,0,0:0:0
164,320,58152,5,6,0:0:0
56,272,58681,2,0,P|72:108,1,160,2|4,0:0|0:0,0:0:0
188,80,59917,6,0,P|172:239,2,160,8|8|8,0:0|0:0|0:0,0:0:0
264,56,61681,2,0,P|332:76|388:64,2,120,2|4|8,0:0|0:0|0:0,0:0:0
224,124,63093,1,0,0:0:0
288,172,63446,1,0,0:0:0
352,220,63799,5,6,0:0:0
304,328,64328,2,0,P|140:312,1,160,2|4,0:0|0:0,0:0:0
112,196,65564,6,0,P|271:211,2,160,8|8|8,0:0|0:0|0:0,0:0:0
88,120,67328,2,0,P|104:80|100:40,1,79.9999999999999,0|8,0:0|0:0,0:0:0
180,40,68034,2,0,P|206:73|243:90,2,79.9999999999999,8|0|0,0:0|0:0|0:0,0:0:0
340,36,69446,1,0,0:0:0
388,224,70858,5,0,0:0:0
244,296,71564,1,0,0:0:0
92,244,72270,2,0,P|60:88,1,160
212,40,73681,5,0,0:0:0
292,44,74034,2,0,P|364:36|456:56,1,160
496,120,75093,1,0,0:0:0
416,132,75446,2,0,P|348:124|256:140,1,160
192,184,76505,6,0,P|144:212|144:212|108:244|108:244|60:272,1,160
220,292,77917,2,0,P|268:264|268:264|304:232|304:232|352:204,1,160
432,64,79328,5,0,0:0:0
352,48,79681,2,0,P|297:49|297:49|250:58|250:58|194:59,1,160
136,116,80740,1,0,0:0:0
208,148,81093,2,0,P|264:148|264:148|311:139|311:139|367:138,1,160
436,176,82152,5,2,0:0:0
388,328,82858,1,2,0:0:0
232,292,83564,1,2,0:0:0
280,140,84270,1,2,0:0:0
436,176,84975,6,0,P|460:224|428:280|456:332,2,160,2|2|2,0:0|0:0|0:0,0:0:0
296,96,87093,1,2,0:0:0
140,132,87799,5,2,0:0:0
188,284,88505,1,2,0:0:0
344,248,89211,1,2,0:0:0
296,96,89917,1,2,0:0:0
140,132,90622,6,0,P|116:180|148:236|120:288,2,160,2|2|2,0:0|0:0|0:0,0:0:0
456,192,93446,5,4,0:0:0
136,192,94858,5,4,0:2:0
436,304,96270,5,4,0:2:0
248,44,97681,5,4,0:2:0
68,308,99093,5,4,0:2:0
360,176,100505,5,4,0:2:0
52,84,101917,6,0,P|16:112|12:148|12:148|56:172|56:224,2,160,2|2|2,0:0|0:0|0:0,0:0:0
112,32,103681,1,2,0:0:0
192,28,104034,1,2,0:0:0
268,48,104387,1,0,0:0:0
348,64,104740,5,6,0:0:0
456,112,105270,2,0,P|440:276,1,160,2|4,0:0|0:0,0:0:0
324,304,106505,6,0,P|340:145,2,160,8|8|8,0:0|0:0|0:0,0:0:0
248,328,108270,2,0,P|180:308|124:320,2,120,2|4|8,0:0|0:0|0:0,0:0:0
288,260,109681,1,0,0:0:0
224,212,110034,1,0,0:0:0
160,164,110387,5,6,0:0:0
208,56,110917,2,0,P|372:72,1,160,2|4,0:0|0:0,0:0:0
400,188,112152,6,0,P|241:173,2,160,8|8|8,0:0|0:0|0:0,0:0:0
424,264,113917,2,0,P|408:304|412:344,1,79.9999999999999,0|8,0:0|0:0,0:0:0
332,344,114622,2,0,P|292:328|252:332,1,79.9999999999999,8|0,0:0|0:0,0:0:0
176,340,115328,1,0,0:0:0
48,244,116034,5,6,0:0:0
96,352,116564,2,0,P|260:336,1,160,2|4,0:0|0:0,0:0:0
288,220,117799,6,0,P|129:236,2,160,8|8|8,0:0|0:0|0:0,0:0:0
312,144,119564,2,0,P|292:76|304:20,2,120,2|4|8,0:0|0:0|0:0,0:0:0
244,184,120975,1,0,0:0:0
196,120,121328,1,0,0:0:0
148,56,121681,5,6,0:0:0
40,104,122211,2,0,P|56:268,1,160,2|4,0:0|0:0,0:0:0
172,296,123446,6,0,P|157:137,2,160,8|8|8,0:0|0:0|0:0,0:0:0
248,320,125211,2,0,P|288:304|328:308,1,79.9999999999999,0|8,0:0|0:0,0:0:0
328,228,125917,2,0,P|312:188|316:148,1,79.9999999999999,8|0,0:0|0:0,0:0:0
324,72,126622,2,0,P|260:68|236:132|236:132|188:148,1,160,0|0,0:0|0:0,0:0:0
256,192,128740,5,2,0:0:0
256,192,130152,5,2,0:0:0
396,272,130858,5,2,0:0:0
396,112,131564,6,0,P|396:24,2,79.9999999999999,2|2|2,0:0|0:0|0:0,0:0:0
452,260,132975,6,0,P|372:268|300:228,1,160,2|2,0:0|0:0,0:0:0
192,116,134387,2,0,P|112:108|40:148,1,160,2|2,0:0|0:0,0:0:0
112,288,135799,6,0,P|272:292,2,160,2|2|2,0:0|0:0|0:0,0:0:0
116,208,137564,1,2,0:0:0
196,208,137917,1,2,0:0:0
276,208,138270,1,2,0:0:0
356,208,138622,6,0,P|348:168|316:136,3,79.9999999999999,2|2|2|2,0:0|0:0|0:0|0:0,0:0:0
324,60,140034,6,0,P|284:68|252:100,3,79.9999999999999,2|2|0|2,0:0|0:0|0:0|0:0,0:0:0
220,164,141446,5,6,0:0:0
256,320,142152,1,4,0:0:0
292,164,142858,2,0,P|412:164,2,120,2|2|2,0:0|0:0|0:0,0:0:0
212,164,144270,1,4,0:0:0
256,60,149917,5,4,0:1:0
416,336,151328,5,4,0:1:0
96,336,152740,5,4,0:1:0
256,60,154152,6,0,P|256:228,1,160,4|0,0:0|0:0,0:0:0
148,240,157858,6,0,P|140:200,1,40,2|2,0:0|0:0,0:0:0
120,124,158387,5,4,0:0:0
264,56,159093,2,0,P|332:76|388:64,2,120,2|4|8,0:0|0:0|0:0,0:0:0
224,124,160505,1,0,0:0:0
288,172,160858,1,0,0:0:0
352,220,161211,5,6,0:0:0
304,328,161740,2,0,P|140:312,1,160,2|4,0:0|0:0,0:0:0
112,196,162975,6,0,P|271:211,2,160,8|8|8,0:0|0:0|0:0,0:0:0
88,120,164740,2,0,P|104:80|100:40,1,79.9999999999999,0|8,0:0|0:0,0:0:0
180,40,165446,2,0,P|220:56|260:52,1,79.9999999999999,8|0,0:0|0:0,0:0:0
336,44,166152,1,0,0:0:0
464,140,166858,5,6,0:0:0
416,32,167387,2,0,P|252:48,1,160,2|4,0:0|0:0,0:0:0
224,164,168622,6,0,P|383:148,2,160,8|8|8,0:0|0:0|0:0,0:0:0
200,240,170387,2,0,P|220:308|208:364,2,120,2|4|8,0:0|0:0|0:0,0:0:0
268,200,171799,1,0,0:0:0
316,264,172152,1,0,0:0:0
364,328,172505,5,6,0:0:0
472,280,173034,2,0,P|456:116,1,160,2|4,0:0|0:0,0:0:0
340,88,174270,6,0,P|355:247,2,160,8|8|8,0:0|0:0|0:0,0:0:0
264,64,176034,2,0,P|224:80|184:76,1,79.9999999999999,0|8,0:0|0:0,0:0:0
184,156,176740,2,0,P|200:196|196:236,1,79.9999999999999,8|0,0:0|0:0,0:0:0
136,284,177446,2,0,P|120:244|124:204,1,79.9999999999999,8|8,0:0|0:0,0:0:0
60,156,178152,6,0,P|40:232|64:316,2,160,2|2|2,0:0|0:0|0:0,0:0:0
100,84,179917,1,0,0:0:0
180,84,180270,2,0,P|224:88,2,40,2|8|12,0:0|0:0|0:0,0:0:0
140,156,180975,6,0,P|120:232|144:316,2,160,2|2|2,0:0|0:0|0:0,0:0:0
180,84,182740,1,0,0:0:0
260,84,183093,2,0,P|304:88,2,40,2|8|12,0:0|0:0|0:0,0:0:0
220,156,183799,6,0,P|200:232|224:316,2,160,2|2|2,0:0|0:0|0:0,0:0:0
260,84,185564,1,0,0:0:0
340,84,185917,2,0,P|384:88,2,40,2|8|12,0:0|0:0|0:0,0:0:0
300,156,186622,6,0,P|280:232|304:316,2,160,2|2|2,0:0|0:0|0:0,0:0:0
340,84,188387,1,2,0:0:0
420,84,188740,2,0,P|464:88,2,40,2|12|12,0:0|0:0|0:0,0:0:0
