osu file format v10

[General]
AudioFilename: Utatabigarasu.mp3
AudioLeadIn: 0
PreviewTime: 54603
Countdown: 0
SampleSet: Normal
StackLeniency: 0.3
Mode: 1
LetterboxInBreaks: 0

[Editor]
DistanceSpacing: 0.6
BeatDivisor: 3
GridSize: 8

[Metadata]
Title:Utatabigarasu
TitleUnicode:Utatabigarasu
Artist:capitaro
ArtistUnicode:capitaro
Creator:NatsumeRin
Version:Taiko Oni
Source:Vocaloid
Tags:Hatsune Miku tanaka karenying Kotone
BeatmapID:180661
BeatmapSetID:59982

[Difficulty]
HPDrainRate:5
CircleSize:4
OverallDifficulty:6
ApproachRate:9
SliderMultiplier:1.4
SliderTickRate:1

[Events]
//Background and Video events
0,0,"BG.jpg"
Video,0,"PV.flv"
//Break Periods
//Storyboard Layer 0 (Background)
//Storyboard Layer 1 (Fail)
//Storyboard Layer 2 (Pass)
//Storyboard Layer 3 (Foreground)
//Storyboard Sound Samples
//Background Colour Transformations
3,100,163,162,255

[TimingPoints]
5903,300,4,1,1,80,1,0
15503,-100,4,1,1,60,0,0
16703,-100,4,1,1,80,0,0
55103,-100,4,1,1,80,0,1
74303,-100,4,1,1,80,0,0
122303,-100,4,1,1,80,0,1
141503,-100,4,1,1,60,0,0
151103,-100,4,1,1,80,0,0
165503,-100,4,1,1,80,0,1
182303,-100,4,1,1,80,0,0

[Colours]
Combo1 : 0,128,255
Combo2 : 255,0,128

[HitObjects]
216,248,5903,1,0,0:0:0
320,128,6103,5,2,0:0:0
216,248,6203,5,0,0:0:0
320,128,6403,5,2,0:0:0
216,248,6503,5,0,0:0:0
320,128,6703,5,2,0:0:0
216,248,7003,5,0,0:0:0
320,128,7303,5,2,0:0:0
216,248,7403,5,0,0:0:0
320,128,7603,5,2,0:0:0
216,248,7703,5,0,0:0:0
320,128,7903,5,2,0:0:0
216,248,8003,5,0,0:0:0
296,248,8203,1,0,0:0:0
216,248,8303,1,0,0:0:0
320,128,8503,5,2,0:0:0
216,248,8603,5,0,0:0:0
320,128,8803,5,2,0:0:0
216,248,8903,5,0,0:0:0
320,128,9103,5,2,0:0:0
216,248,9403,5,0,0:0:0
320,128,9703,5,2,0:0:0
216,248,9803,5,0,0:0:0
320,128,10003,5,2,0:0:0
216,248,10103,5,0,0:0:0
296,248,10203,1,0,0:0:0
216,248,10303,1,0,0:0:0
296,248,10403,1,0,0:0:0
216,248,10703,1,0,0:0:0
320,128,10903,5,2,0:0:0
216,248,11003,5,0,0:0:0
320,128,11203,5,2,0:0:0
216,248,11303,5,0,0:0:0
320,128,11503,5,2,0:0:0
216,248,11803,5,0,0:0:0
320,128,12103,5,2,0:0:0
216,248,12203,5,0,0:0:0
320,128,12403,5,2,0:0:0
216,248,12503,5,0,0:0:0
320,128,12703,5,2,0:0:0
216,248,12803,5,0,0:0:0
296,248,13003,1,0,0:0:0
216,248,13103,1,0,0:0:0
320,128,13303,5,2,0:0:0
216,248,13403,5,0,0:0:0
320,128,13603,5,2,0:0:0
216,248,13703,5,0,0:0:0
320,128,13903,5,2,0:0:0
216,248,14203,5,0,0:0:0
320,128,14503,5,2,0:0:0
216,248,14603,5,0,0:0:0
320,128,14803,5,2,0:0:0
216,248,14903,5,0,0:0:0
296,248,15003,1,0,0:0:0
216,248,15103,1,0,0:0:0
296,248,15203,1,0,0:0:0
216,248,15503,1,0,0:0:0
296,248,15703,1,0,0:0:0
192,128,15803,5,2,0:0:0
296,248,16103,5,0,0:0:0
216,248,16303,1,0,0:0:0
320,128,16403,5,2,0:0:0
216,248,16703,5,0,0:0:0
296,248,17303,1,0,0:0:0
192,128,17603,5,2,0:0:0
296,248,17903,5,0,0:0:0
216,248,18103,1,0,0:0:0
296,248,18403,1,0,0:0:0
216,248,18503,1,0,0:0:0
320,128,18803,5,2,0:0:0
216,248,19103,5,0,0:0:0
296,248,19303,1,0,0:0:0
216,248,19403,1,0,0:0:0
296,248,19603,1,0,0:0:0
216,248,19703,1,0,0:0:0
296,248,19903,1,0,0:0:0
192,128,20003,5,2,0:0:0
296,248,20203,5,0,0:0:0
216,248,20303,1,0,0:0:0
296,248,20603,1,0,0:0:0
216,248,20903,1,0,0:0:0
320,128,21203,5,2,0:0:0
216,248,21503,5,0,0:0:0
296,248,22103,1,0,0:0:0
192,128,22403,5,2,0:0:0
296,248,22703,5,0,0:0:0
216,248,22903,1,0,0:0:0
296,248,23203,1,0,0:0:0
216,248,23303,1,0,0:0:0
320,128,23603,5,2,0:0:0
216,248,23903,5,0,0:0:0
296,248,24103,1,0,0:0:0
216,248,24203,1,0,0:0:0
296,248,24403,1,0,0:0:0
216,248,24503,1,0,0:0:0
296,248,24703,1,0,0:0:0
192,128,24803,5,2,0:0:0
296,248,25003,5,0,0:0:0
216,248,25103,1,0,0:0:0
296,248,25403,1,0,0:0:0
216,248,25703,1,0,0:0:0
320,128,25903,5,2,0:0:0
216,248,26003,5,0,0:0:0
320,128,26203,5,2,0:0:0
216,248,26303,5,0,0:0:0
296,248,26903,1,0,0:0:0
192,128,27203,5,2,0:0:0
296,248,27503,5,0,0:0:0
216,248,28103,1,0,0:0:0
320,128,28303,5,2,0:0:0
216,248,28403,5,0,0:0:0
320,128,28603,5,2,0:0:0
216,248,28703,5,0,0:0:0
296,248,29003,1,0,0:0:0
216,248,29203,1,0,0:0:0
296,248,29303,1,0,0:0:0
216,248,29503,1,0,0:0:0
320,128,29603,5,2,0:0:0
216,248,29803,5,0,0:0:0
296,248,29903,1,0,0:0:0
216,248,30203,1,0,0:0:0
296,248,30503,1,0,0:0:0
192,128,30703,5,2,0:0:0
296,248,30803,5,0,0:0:0
192,128,31003,5,2,0:0:0
296,248,31103,5,0,0:0:0
216,248,31703,1,0,0:0:0
320,128,32003,5,2,0:0:0
216,248,32303,5,0,0:0:0
320,128,32803,5,2,0:0:0
216,248,32903,5,0,0:0:0
320,128,33103,5,2,0:0:0
216,248,33203,5,0,0:0:0
320,128,33403,5,2,0:0:0
216,248,33503,5,0,0:0:0
296,248,33703,1,0,0:0:0
192,128,33803,5,2,0:0:0
320,128,34003,1,2,0:0:0
216,248,34103,5,0,0:0:0
296,248,34303,1,0,0:0:0
192,128,34403,5,2,0:0:0
320,128,34603,1,2,0:0:0
216,248,34703,5,0,0:0:0
320,128,35003,5,2,0:0:0
192,128,35203,1,2,0:0:0
320,128,35303,1,2,0:0:0
192,128,35503,1,2,0:0:0
296,248,35603,5,0,0:0:0
216,248,35703,1,0,0:0:0
296,248,35803,1,0,0:0:0
216,248,35903,1,0,0:0:0
296,248,36103,1,0,0:0:0
192,128,36203,5,2,0:0:0
296,248,36403,5,0,0:0:0
192,128,36503,5,2,0:0:0
296,248,36703,5,0,0:0:0
216,248,36803,1,0,0:0:0
320,128,37003,5,2,0:0:0
192,128,37303,1,2,0:0:0
296,248,37603,5,0,0:0:0
192,128,37703,5,2,0:0:0
296,248,37903,5,0,0:0:0
192,128,38003,5,2,0:0:0
320,128,38203,1,2,0:0:0
216,248,38303,5,0,0:0:0
296,248,38503,1,0,0:0:0
192,128,38603,5,2,0:0:0
320,128,38803,1,2,0:0:0
216,248,38903,5,0,0:0:0
296,248,39103,1,0,0:0:0
192,128,39203,5,2,0:0:0
320,128,39403,1,2,0:0:0
216,248,39503,5,0,0:0:0
296,248,39703,1,0,0:0:0
192,128,39803,5,2,0:0:0
320,128,40003,1,2,0:0:0
216,248,40103,5,0,0:0:0
296,248,40303,1,0,0:0:0
192,128,40403,5,2,0:0:0
320,128,40503,1,2,0:0:0
216,248,40603,5,0,0:0:0
296,248,40703,1,0,0:0:0
216,248,40903,1,0,0:0:0
320,128,41003,5,2,0:0:0
216,248,41203,5,0,0:0:0
320,128,41303,5,2,0:0:0
216,248,41503,5,0,0:0:0
296,248,41603,1,0,0:0:0
192,128,41803,5,2,0:0:0
320,128,42103,1,2,0:0:0
216,248,42403,5,0,0:0:0
320,128,42503,5,2,0:0:0
216,248,42703,5,0,0:0:0
320,128,42803,5,2,0:0:0
192,128,43003,1,2,0:0:0
296,248,43103,5,0,0:0:0
216,248,43303,1,0,0:0:0
320,128,43403,5,2,0:0:0
192,128,43603,1,2,0:0:0
296,248,43703,5,0,0:0:0
216,248,43903,1,0,0:0:0
320,128,44003,5,2,0:0:0
192,128,44203,1,2,0:0:0
296,248,44303,5,0,0:0:0
216,248,44503,1,0,0:0:0
320,128,44603,5,2,0:0:0
192,128,44803,1,2,0:0:0
296,248,44903,5,0,0:0:0
216,248,45103,1,0,0:0:0
320,128,45203,5,2,0:0:0
192,128,45303,1,2,0:0:0
320,128,45403,1,2,0:0:0
216,248,45503,5,0,0:0:0
296,248,45703,1,0,0:0:0
192,128,45803,5,2,0:0:0
296,248,46003,5,0,0:0:0
192,128,46103,5,2,0:0:0
296,248,46303,5,0,0:0:0
216,248,46403,1,0,0:0:0
320,128,46603,5,2,0:0:0
192,128,46903,1,2,0:0:0
296,248,47203,5,0,0:0:0
192,128,47303,5,2,0:0:0
296,248,47503,5,0,0:0:0
192,128,47603,5,2,0:0:0
320,128,47803,1,2,0:0:0
216,248,47903,5,0,0:0:0
296,248,48103,1,0,0:0:0
192,128,48203,5,2,0:0:0
320,128,48403,1,2,0:0:0
216,248,48503,5,0,0:0:0
296,248,48703,1,0,0:0:0
192,128,48803,5,2,0:0:0
320,128,49003,1,2,0:0:0
216,248,49103,5,0,0:0:0
296,248,49303,1,0,0:0:0
192,128,49403,5,2,0:0:0
320,128,49603,1,2,0:0:0
216,248,49703,5,0,0:0:0
296,248,49903,1,0,0:0:0
216,248,50003,1,0,0:0:0
320,128,50203,5,2,0:0:0
216,248,50303,5,0,0:0:0
320,128,50603,5,2,0:0:0
216,248,50803,5,0,0:0:0
296,248,50903,1,0,0:0:0
216,248,51103,1,0,0:0:0
320,128,51203,5,2,0:0:0
216,248,51403,5,0,0:0:0
296,248,51503,1,0,0:0:0
192,128,51803,5,2,0:0:0
296,248,52003,5,0,0:0:0
216,248,52103,1,0,0:0:0
296,248,52303,1,0,0:0:0
192,128,52403,5,2,0:0:0
296,248,52603,5,0,0:0:0
216,248,52703,1,0,0:0:0
320,128,52903,5,2,0:0:0
216,248,53003,5,0,0:0:0
320,128,53203,5,2,0:0:0
216,248,53303,5,0,0:0:0
320,128,53503,5,2,0:0:0
216,248,53603,5,0,0:0:0
320,128,53803,5,2,0:0:0
192,128,54103,1,2,0:0:0
320,128,54403,1,2,0:0:0
192,128,54703,1,2,0:0:0
296,248,54803,5,0,0:0:0
216,248,55003,1,0,0:0:0
296,248,55103,1,0,0:0:0
192,128,55303,5,2,0:0:0
296,248,55403,5,0,0:0:0
192,128,55603,5,2,0:0:0
296,248,55703,5,0,0:0:0
192,128,55903,5,2,0:0:0
320,128,56003,1,2,0:0:0
216,248,56203,5,0,0:0:0
192,128,56503,5,2,0:0:0
296,248,56603,5,0,0:0:0
192,128,56803,5,2,0:0:0
296,248,56903,5,0,0:0:0
192,128,57103,5,2,0:0:0
296,248,57203,5,0,0:0:0
192,128,57303,5,2,0:0:0
320,128,57403,1,2,0:0:0
216,248,57503,5,0,0:0:0
320,128,57703,5,2,0:0:0
216,248,57803,5,0,0:0:0
320,128,58003,5,2,0:0:0
216,248,58103,5,0,0:0:0
320,128,58303,5,2,0:0:0
192,128,58403,1,2,0:0:0
296,248,58603,5,0,0:0:0
192,128,58903,5,2,0:0:0
296,248,59003,5,0,0:0:0
192,128,59203,5,2,0:0:0
296,248,59303,5,0,0:0:0
192,128,59503,5,2,0:0:0
296,248,59603,5,0,0:0:0
216,248,59703,1,0,0:0:0
296,248,59803,1,0,0:0:0
216,248,59903,1,0,0:0:0
320,128,60103,5,2,0:0:0
216,248,60203,5,0,0:0:0
320,128,60403,5,2,0:0:0
216,248,60503,5,0,0:0:0
320,128,60703,5,2,0:0:0
192,128,60803,1,2,0:0:0
296,248,61003,5,0,0:0:0
216,248,61303,1,0,0:0:0
296,248,61403,1,0,0:0:0
192,128,61603,5,2,0:0:0
296,248,61703,5,0,0:0:0
192,128,61903,5,2,0:0:0
296,248,62003,5,0,0:0:0
216,248,62203,1,0,0:0:0
320,128,62303,5,2,0:0:0
192,128,62503,1,2,0:0:0
296,248,62603,5,0,0:0:0
216,248,62803,1,0,0:0:0
320,128,62903,5,2,0:0:0
192,128,63103,1,2,0:0:0
296,248,63203,5,0,0:0:0
216,248,63403,1,0,0:0:0
320,128,63503,5,2,0:0:0
192,128,63703,1,2,0:0:0
320,128,63803,1,2,0:0:0
216,248,64003,5,0,0:0:0
320,128,64103,5,2,0:0:0
192,128,64203,1,2,0:0:0
296,248,64303,5,0,0:0:0
192,128,64403,5,2,0:0:0
320,128,64503,1,2,0:0:0
216,248,64603,5,0,0:0:0
296,248,64703,1,0,0:0:0
192,128,64903,5,2,0:0:0
296,248,65003,5,0,0:0:0
192,128,65203,5,2,0:0:0
296,248,65303,5,0,0:0:0
192,128,65503,5,2,0:0:0
320,128,65603,1,2,0:0:0
216,248,65803,5,0,0:0:0
192,128,66103,5,2,0:0:0
296,248,66203,5,0,0:0:0
192,128,66403,5,2,0:0:0
296,248,66503,5,0,0:0:0
192,128,66703,5,2,0:0:0
296,248,66803,5,0,0:0:0
192,128,66903,5,2,0:0:0
320,128,67003,1,2,0:0:0
216,248,67103,5,0,0:0:0
320,128,67303,5,2,0:0:0
216,248,67403,5,0,0:0:0
320,128,67603,5,2,0:0:0
216,248,67703,5,0,0:0:0
320,128,67903,5,2,0:0:0
192,128,68003,1,2,0:0:0
296,248,68203,5,0,0:0:0
192,128,68503,5,2,0:0:0
296,248,68603,5,0,0:0:0
192,128,68803,5,2,0:0:0
320,128,68903,1,2,0:0:0
192,128,68953,1,2,0:0:0
320,128,69003,1,2,0:0:0
320,128,69103,1,2,0:0:0
216,248,69203,5,0,0:0:0
296,248,69303,1,0,0:0:0
216,248,69403,1,0,0:0:0
296,248,69503,1,0,0:0:0
192,128,69703,5,2,0:0:0
296,248,69803,5,0,0:0:0
192,128,70003,5,2,0:0:0
296,248,70103,5,0,0:0:0
192,128,70303,5,2,0:0:0
320,128,70403,1,2,0:0:0
216,248,70603,5,0,0:0:0
296,248,70903,1,0,0:0:0
216,248,71003,1,0,0:0:0
320,128,71203,5,2,0:0:0
216,248,71303,5,0,0:0:0
320,128,71503,5,2,0:0:0
216,248,71603,5,0,0:0:0
296,248,71803,1,0,0:0:0
192,128,71903,5,2,0:0:0
320,128,72103,1,2,0:0:0
216,248,72203,5,0,0:0:0
296,248,72403,1,0,0:0:0
192,128,72503,5,2,0:0:0
320,128,72703,1,2,0:0:0
216,248,72803,5,0,0:0:0
296,248,73003,1,0,0:0:0
192,128,73103,5,2,0:0:0
320,128,73303,1,2,0:0:0
192,128,73403,1,2,0:0:0
296,248,73603,5,0,0:0:0
192,128,73703,5,2,0:0:0
296,248,73803,5,0,0:0:0
216,248,73903,1,0,0:0:0
320,128,74003,5,2,0:0:0
192,128,74103,1,2,0:0:0
320,128,74203,1,2,0:0:0
216,248,74303,5,0,0:0:0
320,128,74503,5,2,0:0:0
216,248,74603,5,0,0:0:0
320,128,74803,5,2,0:0:0
216,248,74903,5,0,0:0:0
320,128,75103,5,2,0:0:0
216,248,75403,5,0,0:0:0
320,128,75703,5,2,0:0:0
216,248,75803,5,0,0:0:0
320,128,76003,5,2,0:0:0
216,248,76103,5,0,0:0:0
320,128,76303,5,2,0:0:0
216,248,76403,5,0,0:0:0
296,248,76603,1,0,0:0:0
216,248,76703,1,0,0:0:0
320,128,76903,5,2,0:0:0
216,248,77003,5,0,0:0:0
320,128,77203,5,2,0:0:0
216,248,77303,5,0,0:0:0
320,128,77503,5,2,0:0:0
216,248,77803,5,0,0:0:0
320,128,78103,5,2,0:0:0
216,248,78203,5,0,0:0:0
320,128,78403,5,2,0:0:0
216,248,78503,5,0,0:0:0
296,248,78603,1,0,0:0:0
216,248,78703,1,0,0:0:0
296,248,78803,1,0,0:0:0
216,248,79103,1,0,0:0:0
320,128,79303,5,2,0:0:0
216,248,79403,5,0,0:0:0
320,128,79603,5,2,0:0:0
216,248,79703,5,0,0:0:0
320,128,79903,5,2,0:0:0
216,248,80203,5,0,0:0:0
320,128,80503,5,2,0:0:0
216,248,80603,5,0,0:0:0
320,128,80803,5,2,0:0:0
216,248,80903,5,0,0:0:0
320,128,81103,5,2,0:0:0
216,248,81203,5,0,0:0:0
296,248,81403,1,0,0:0:0
216,248,81503,1,0,0:0:0
320,128,81703,5,2,0:0:0
216,248,81803,5,0,0:0:0
320,128,82003,5,2,0:0:0
216,248,82103,5,0,0:0:0
320,128,82303,5,2,0:0:0
216,248,82603,5,0,0:0:0
320,128,82903,5,2,0:0:0
216,248,83003,5,0,0:0:0
320,128,83203,5,2,0:0:0
216,248,83303,5,0,0:0:0
296,248,83403,1,0,0:0:0
216,248,83503,1,0,0:0:0
296,248,83603,1,0,0:0:0
216,248,83903,1,0,0:0:0
320,128,84203,5,2,0:0:0
192,128,84403,1,2,0:0:0
296,248,84503,5,0,0:0:0
192,128,84803,5,2,0:0:0
320,128,85003,1,2,0:0:0
216,248,85103,5,0,0:0:0
320,128,85303,5,2,0:0:0
192,128,85603,1,2,0:0:0
296,248,85703,5,0,0:0:0
192,128,85903,5,2,0:0:0
296,248,86003,5,0,0:0:0
192,128,86203,5,2,0:0:0
296,248,86303,5,0,0:0:0
216,248,86503,1,0,0:0:0
320,128,86603,5,2,0:0:0
192,128,86803,1,2,0:0:0
296,248,86903,5,0,0:0:0
216,248,87103,1,0,0:0:0
320,128,87203,5,2,0:0:0
192,128,87403,1,2,0:0:0
296,248,87503,5,0,0:0:0
192,128,87803,5,2,0:0:0
296,248,88003,5,0,0:0:0
216,248,88103,1,0,0:0:0
320,128,88303,5,2,0:0:0
192,128,88403,1,2,0:0:0
296,248,88603,5,0,0:0:0
216,248,88703,1,0,0:0:0
320,128,89003,5,2,0:0:0
192,128,89203,1,2,0:0:0
296,248,89303,5,0,0:0:0
192,128,89603,5,2,0:0:0
320,128,89803,1,2,0:0:0
216,248,89903,5,0,0:0:0
320,128,90103,5,2,0:0:0
192,128,90403,1,2,0:0:0
296,248,90503,5,0,0:0:0
192,128,90703,5,2,0:0:0
296,248,90803,5,0,0:0:0
192,128,91003,5,2,0:0:0
296,248,91103,5,0,0:0:0
216,248,91303,1,0,0:0:0
320,128,91403,5,2,0:0:0
192,128,91603,1,2,0:0:0
296,248,91703,5,0,0:0:0
216,248,91903,1,0,0:0:0
320,128,92003,5,2,0:0:0
192,128,92203,1,2,0:0:0
296,248,92303,5,0,0:0:0
192,128,92603,5,2,0:0:0
320,128,92803,1,2,0:0:0
216,248,92903,5,0,0:0:0
320,128,93103,5,2,0:0:0
216,248,93203,5,0,0:0:0
320,128,93303,5,2,0:0:0
192,128,93403,1,2,0:0:0
296,248,93503,5,0,0:0:0
216,248,93703,1,0,0:0:0
320,128,93803,5,2,0:0:0
192,128,94003,1,2,0:0:0
296,248,94103,5,0,0:0:0
216,248,94303,1,0,0:0:0
320,128,94403,5,2,0:0:0
192,128,94603,1,2,0:0:0
296,248,94703,5,0,0:0:0
216,248,94903,1,0,0:0:0
320,128,95003,5,2,0:0:0
192,128,95203,1,2,0:0:0
296,248,95303,5,0,0:0:0
216,248,95503,1,0,0:0:0
320,128,95603,5,2,0:0:0
192,128,95703,1,2,0:0:0
296,248,95803,5,0,0:0:0
216,248,95903,1,0,0:0:0
320,128,96103,5,2,0:0:0
192,128,96203,1,2,0:0:0
296,248,96403,5,0,0:0:0
216,248,96503,1,0,0:0:0
320,128,96703,5,2,0:0:0
192,128,96803,1,2,0:0:0
296,248,97003,5,0,0:0:0
216,248,97103,1,0,0:0:0
296,248,97303,1,0,0:0:0
192,128,97403,5,2,0:0:0
320,128,97603,1,2,0:0:0
216,248,97703,5,0,0:0:0
320,128,97903,5,2,0:0:0
216,248,98003,5,0,0:0:0
296,248,98103,1,0,0:0:0
216,248,98203,1,0,0:0:0
296,248,98303,1,0,0:0:0
216,248,98503,1,0,0:0:0
320,128,98603,5,2,0:0:0
192,128,98803,1,2,0:0:0
296,248,98903,5,0,0:0:0
216,248,99103,1,0,0:0:0
320,128,99203,5,2,0:0:0
192,128,99403,1,2,0:0:0
296,248,99503,5,0,0:0:0
216,248,99703,1,0,0:0:0
320,128,99803,5,2,0:0:0
192,128,100003,1,2,0:0:0
296,248,100103,5,0,0:0:0
216,248,100303,1,0,0:0:0
320,128,100403,5,2,0:0:0
192,128,100503,1,2,0:0:0
320,128,100603,1,2,0:0:0
216,248,100703,5,0,0:0:0
320,128,100903,5,2,0:0:0
192,128,101003,1,2,0:0:0
296,248,101203,5,0,0:0:0
216,248,101303,1,0,0:0:0
320,128,101503,5,2,0:0:0
192,128,101603,1,2,0:0:0
296,248,101803,5,0,0:0:0
216,248,101903,1,0,0:0:0
296,248,102103,1,0,0:0:0
192,128,102203,5,2,0:0:0
296,248,102403,5,0,0:0:0
192,128,102503,5,2,0:0:0
320,128,102603,1,2,0:0:0
192,128,102703,1,2,0:0:0
296,248,102803,5,0,0:0:0
216,248,102903,1,0,0:0:0
296,248,103003,1,0,0:0:0
216,248,103103,1,0,0:0:0
296,248,103303,1,0,0:0:0
192,128,103403,5,2,0:0:0
296,248,103603,5,0,0:0:0
192,128,103703,5,2,0:0:0
296,248,103903,5,0,0:0:0
216,248,104003,1,0,0:0:0
320,128,104203,5,2,0:0:0
192,128,104503,1,2,0:0:0
296,248,104803,5,0,0:0:0
192,128,104903,5,2,0:0:0
296,248,105103,5,0,0:0:0
192,128,105203,5,2,0:0:0
320,128,105403,1,2,0:0:0
216,248,105503,5,0,0:0:0
296,248,105703,1,0,0:0:0
192,128,105803,5,2,0:0:0
320,128,106003,1,2,0:0:0
216,248,106103,5,0,0:0:0
296,248,106303,1,0,0:0:0
192,128,106403,5,2,0:0:0
320,128,106603,1,2,0:0:0
216,248,106703,5,0,0:0:0
296,248,106903,1,0,0:0:0
192,128,107003,5,2,0:0:0
320,128,107203,1,2,0:0:0
216,248,107303,5,0,0:0:0
296,248,107503,1,0,0:0:0
192,128,107603,5,2,0:0:0
320,128,107703,1,2,0:0:0
216,248,107803,5,0,0:0:0
296,248,107903,1,0,0:0:0
216,248,108103,1,0,0:0:0
320,128,108203,5,2,0:0:0
216,248,108403,5,0,0:0:0
320,128,108503,5,2,0:0:0
216,248,108703,5,0,0:0:0
296,248,108803,1,0,0:0:0
192,128,109003,5,2,0:0:0
320,128,109303,1,2,0:0:0
216,248,109603,5,0,0:0:0
320,128,109703,5,2,0:0:0
216,248,109903,5,0,0:0:0
320,128,110003,5,2,0:0:0
192,128,110203,1,2,0:0:0
296,248,110303,5,0,0:0:0
216,248,110503,1,0,0:0:0
320,128,110603,5,2,0:0:0
192,128,110803,1,2,0:0:0
296,248,110903,5,0,0:0:0
216,248,111103,1,0,0:0:0
320,128,111203,5,2,0:0:0
192,128,111403,1,2,0:0:0
296,248,111503,5,0,0:0:0
216,248,111703,1,0,0:0:0
320,128,111803,5,2,0:0:0
192,128,112003,1,2,0:0:0
296,248,112103,5,0,0:0:0
216,248,112303,1,0,0:0:0
320,128,112403,5,2,0:0:0
192,128,112503,1,2,0:0:0
320,128,112603,1,2,0:0:0
216,248,112703,5,0,0:0:0
296,248,112903,1,0,0:0:0
192,128,113003,5,2,0:0:0
296,248,113203,5,0,0:0:0
192,128,113303,5,2,0:0:0
296,248,113503,5,0,0:0:0
216,248,113603,1,0,0:0:0
320,128,113803,5,2,0:0:0
192,128,114103,1,2,0:0:0
296,248,114403,5,0,0:0:0
192,128,114503,5,2,0:0:0
296,248,114703,5,0,0:0:0
192,128,114803,5,2,0:0:0
320,128,115003,1,2,0:0:0
216,248,115103,5,0,0:0:0
296,248,115303,1,0,0:0:0
192,128,115403,5,2,0:0:0
320,128,115603,1,2,0:0:0
216,248,115703,5,0,0:0:0
296,248,115903,1,0,0:0:0
192,128,116003,5,2,0:0:0
320,128,116203,1,2,0:0:0
216,248,116303,5,0,0:0:0
296,248,116503,1,0,0:0:0
192,128,116603,5,2,0:0:0
320,128,116803,1,2,0:0:0
216,248,116903,5,0,0:0:0
296,248,117103,1,0,0:0:0
216,248,117203,1,0,0:0:0
320,128,117403,5,2,0:0:0
216,248,117503,5,0,0:0:0
320,128,117803,5,2,0:0:0
216,248,118003,5,0,0:0:0
296,248,118103,1,0,0:0:0
216,248,118303,1,0,0:0:0
320,128,118403,5,2,0:0:0
216,248,118603,5,0,0:0:0
296,248,118703,1,0,0:0:0
192,128,119003,5,2,0:0:0
296,248,119203,5,0,0:0:0
216,248,119303,1,0,0:0:0
296,248,119503,1,0,0:0:0
192,128,119603,5,2,0:0:0
296,248,119803,5,0,0:0:0
216,248,119903,1,0,0:0:0
320,128,120103,5,2,0:0:0
216,248,120203,5,0,0:0:0
320,128,120403,5,2,0:0:0
216,248,120503,5,0,0:0:0
320,128,120703,5,2,0:0:0
216,248,120803,5,0,0:0:0
320,128,121003,5,2,0:0:0
192,128,121303,1,2,0:0:0
320,128,121603,1,2,0:0:0
192,128,121703,1,2,0:0:0
320,128,121753,1,2,0:0:0
192,128,121803,1,2,0:0:0
320,128,121903,1,2,0:0:0
192,128,122003,1,0,0:0:0
296,248,122103,5,0,0:0:0
216,248,122203,1,0,0:0:0
296,248,122303,1,0,0:0:0
192,128,122503,5,2,0:0:0
296,248,122603,5,0,0:0:0
192,128,122803,5,2,0:0:0
296,248,122903,5,0,0:0:0
216,248,123103,1,0,0:0:0
320,128,123203,5,2,0:0:0
216,248,123403,5,0,0:0:0
296,248,123703,1,0,0:0:0
192,128,123803,5,2,0:0:0
320,128,124003,1,2,0:0:0
216,248,124103,5,0,0:0:0
320,128,124303,5,2,0:0:0
216,248,124403,5,0,0:0:0
296,248,124503,1,0,0:0:0
216,248,124603,1,0,0:0:0
296,248,124703,1,0,0:0:0
192,128,124903,5,2,0:0:0
296,248,125003,5,0,0:0:0
192,128,125203,5,2,0:0:0
296,248,125303,5,0,0:0:0
216,248,125503,1,0,0:0:0
320,128,125603,5,2,0:0:0
216,248,125803,5,0,0:0:0
320,128,126103,5,2,0:0:0
216,248,126203,5,0,0:0:0
320,128,126403,5,2,0:0:0
216,248,126503,5,0,0:0:0
320,128,126703,5,2,0:0:0
216,248,126803,5,0,0:0:0
320,128,126903,5,2,0:0:0
192,128,127003,1,2,0:0:0
296,248,127103,5,0,0:0:0
192,128,127303,5,2,0:0:0
296,248,127403,5,0,0:0:0
216,248,127603,1,0,0:0:0
296,248,127703,1,0,0:0:0
192,128,127903,5,2,0:0:0
296,248,128003,5,0,0:0:0
216,248,128203,1,0,0:0:0
296,248,128503,1,0,0:0:0
192,128,128603,5,2,0:0:0
296,248,128803,5,0,0:0:0
216,248,128903,5,2,0:0:0
320,128,129103,1,2,0:0:0
216,248,129203,5,0,0:0:0
296,248,129403,1,0,0:0:0
216,248,129503,1,0,0:0:0
296,248,129703,1,0,0:0:0
192,128,129803,5,2,0:0:0
320,128,130003,1,2,0:0:0
216,248,130103,5,0,0:0:0
296,248,130303,1,0,0:0:0
192,128,130403,5,2,0:0:0
320,128,130603,1,2,0:0:0
216,248,130703,5,0,0:0:0
296,248,130903,1,0,0:0:0
192,128,131003,5,2,0:0:0
320,128,131203,1,2,0:0:0
192,128,131303,1,2,0:0:0
192,128,131403,1,2,0:0:0
296,248,131503,5,0,0:0:0
192,128,131603,5,2,0:0:0
320,128,131703,1,2,0:0:0
216,248,131803,5,0,0:0:0
296,248,131903,1,0,0:0:0
192,128,132103,5,2,0:0:0
296,248,132203,5,0,0:0:0
192,128,132403,5,2,0:0:0
296,248,132503,5,0,0:0:0
216,248,132703,1,0,0:0:0
320,128,132803,5,2,0:0:0
216,248,133003,5,0,0:0:0
296,248,133303,1,0,0:0:0
192,128,133403,5,2,0:0:0
320,128,133603,1,2,0:0:0
216,248,133703,5,0,0:0:0
320,128,133903,5,2,0:0:0
216,248,134003,5,0,0:0:0
296,248,134103,1,0,0:0:0
216,248,134203,1,0,0:0:0
296,248,134303,1,0,0:0:0
192,128,134503,5,2,0:0:0
296,248,134603,5,0,0:0:0
192,128,134803,5,2,0:0:0
296,248,134903,5,0,0:0:0
216,248,135103,1,0,0:0:0
320,128,135203,5,2,0:0:0
216,248,135403,5,0,0:0:0
320,128,135703,5,2,0:0:0
216,248,135803,5,0,0:0:0
320,128,136003,5,2,0:0:0
192,128,136103,1,2,0:0:0
320,128,136153,1,2,0:0:0
192,128,136203,1,2,0:0:0
320,128,136303,1,2,0:0:0
192,128,136403,1,2,0:0:0
296,248,136503,5,0,0:0:0
192,128,136603,5,2,0:0:0
296,248,136703,5,0,0:0:0
192,128,136903,5,2,0:0:0
296,248,137003,5,0,0:0:0
216,248,137203,1,0,0:0:0
296,248,137303,1,0,0:0:0
192,128,137503,5,2,0:0:0
296,248,137603,5,0,0:0:0
216,248,137803,1,0,0:0:0
296,248,138103,1,0,0:0:0
192,128,138203,5,2,0:0:0
296,248,138403,5,0,0:0:0
216,248,138503,5,2,0:0:0
320,128,138703,1,2,0:0:0
216,248,138803,5,0,0:0:0
296,248,139003,1,0,0:0:0
216,248,139103,1,0,0:0:0
296,248,139303,1,0,0:0:0
192,128,139403,5,2,0:0:0
320,128,139603,1,2,0:0:0
216,248,139703,5,0,0:0:0
296,248,139903,1,0,0:0:0
192,128,140003,5,2,0:0:0
320,128,140203,1,2,0:0:0
216,248,140303,5,0,0:0:0
296,248,140503,1,0,0:0:0
192,128,140603,5,2,0:0:0
296,248,140803,5,0,0:0:0
192,128,140903,5,2,0:0:0
320,128,141003,1,2,0:0:0
216,248,141103,5,0,0:0:0
320,128,141203,5,2,0:0:0
192,128,141303,1,2,0:0:0
296,248,141403,5,0,0:0:0
216,248,141503,1,0,0:0:0
296,248,142003,1,0,0:0:0
216,248,142103,1,0,0:0:0
296,248,142403,1,0,0:0:0
216,248,142703,1,0,0:0:0
296,248,142903,1,0,0:0:0
216,248,143003,1,0,0:0:0
296,248,143203,1,0,0:0:0
216,248,143303,1,0,0:0:0
320,128,143603,5,2,0:0:0
216,248,143903,5,0,0:0:0
296,248,144403,1,0,0:0:0
216,248,144503,1,0,0:0:0
296,248,144803,1,0,0:0:0
216,248,145103,1,0,0:0:0
296,248,145303,1,0,0:0:0
216,248,145403,1,0,0:0:0
296,248,145603,1,0,0:0:0
216,248,145703,1,0,0:0:0
320,128,146003,5,2,0:0:0
216,248,146303,5,0,0:0:0
296,248,146803,1,0,0:0:0
216,248,146903,1,0,0:0:0
296,248,147203,1,0,0:0:0
216,248,147503,1,0,0:0:0
296,248,147703,1,0,0:0:0
216,248,147803,1,0,0:0:0
296,248,148003,1,0,0:0:0
216,248,148103,1,0,0:0:0
320,128,148403,5,2,0:0:0
216,248,148703,5,0,0:0:0
296,248,149203,1,0,0:0:0
216,248,149303,1,0,0:0:0
296,248,149603,1,0,0:0:0
216,248,149903,1,0,0:0:0
296,248,150103,1,0,0:0:0
216,248,150203,1,0,0:0:0
296,248,150403,1,0,0:0:0
216,248,150503,1,0,0:0:0
320,128,150803,5,2,0:0:0
216,248,150903,5,0,0:0:0
296,248,151003,1,0,0:0:0
192,128,151103,5,2,0:0:0
296,248,151303,5,0,0:0:0
216,248,151403,1,0,0:0:0
296,248,151603,1,0,0:0:0
192,128,151703,5,2,0:0:0
296,248,151903,5,0,0:0:0
216,248,152003,1,0,0:0:0
296,248,152203,1,0,0:0:0
192,128,152303,5,2,0:0:0
320,128,152503,1,2,0:0:0
216,248,152603,5,0,0:0:0
296,248,152803,1,0,0:0:0
192,128,152903,5,2,0:0:0
296,248,153203,5,0,0:0:0
216,248,153303,1,0,0:0:0
296,248,153403,1,0,0:0:0
192,128,153503,5,2,0:0:0
296,248,153703,5,0,0:0:0
216,248,153803,1,0,0:0:0
296,248,154003,1,0,0:0:0
192,128,154103,5,2,0:0:0
296,248,154303,5,0,0:0:0
216,248,154403,1,0,0:0:0
296,248,154603,1,0,0:0:0
192,128,154703,5,2,0:0:0
320,128,154903,1,2,0:0:0
216,248,155003,5,0,0:0:0
296,248,155203,1,0,0:0:0
192,128,155303,5,2,0:0:0
296,248,155603,5,0,0:0:0
216,248,155703,1,0,0:0:0
296,248,155803,1,0,0:0:0
192,128,155903,5,2,0:0:0
320,128,156103,1,2,0:0:0
216,248,156203,5,0,0:0:0
296,248,156403,1,0,0:0:0
192,128,156503,5,2,0:0:0
320,128,156703,1,2,0:0:0
216,248,156803,5,0,0:0:0
296,248,157003,1,0,0:0:0
192,128,157103,5,2,0:0:0
320,128,157303,1,2,0:0:0
216,248,157403,5,0,0:0:0
296,248,157603,1,0,0:0:0
192,128,157703,5,2,0:0:0
320,128,157903,1,2,0:0:0
216,248,158003,5,0,0:0:0
296,248,158203,1,0,0:0:0
216,248,158303,1,0,0:0:0
320,128,158603,5,2,0:0:0
216,248,158903,5,0,0:0:0
320,128,159203,5,2,0:0:0
216,248,159503,5,0,0:0:0
320,128,159803,5,2,0:0:0
216,248,160103,5,0,0:0:0
320,128,160403,5,2,0:0:0
192,128,160603,1,2,0:0:0
296,248,160703,5,0,0:0:0
216,248,160903,1,0,0:0:0
320,128,161003,5,2,0:0:0
192,128,161203,1,2,0:0:0
296,248,161303,5,0,0:0:0
216,248,161503,1,0,0:0:0
320,128,161603,5,2,0:0:0
216,248,161803,5,0,0:0:0
320,128,161903,5,2,0:0:0
216,248,162103,5,0,0:0:0
320,128,162203,5,2,0:0:0
216,248,162403,5,0,0:0:0
320,128,162503,5,2,0:0:0
192,128,162603,1,2,0:0:0
296,248,162703,5,0,0:0:0
216,248,162803,1,0,0:0:0
296,248,162903,1,0,0:0:0
216,248,163003,1,0,0:0:0
296,248,163103,1,0,0:0:0
216,248,164003,1,0,0:0:0
296,248,164203,1,0,0:0:0
192,128,164603,5,2,0:0:0
296,248,164803,5,0,0:0:0
192,128,164903,5,2,0:0:0
296,248,165103,5,0,0:0:0
216,248,165503,1,0,0:0:0
320,128,165703,5,2,0:0:0
216,248,165803,5,0,0:0:0
320,128,166003,5,2,0:0:0
216,248,166103,5,0,0:0:0
320,128,166303,5,2,0:0:0
192,128,166403,1,2,0:0:0
296,248,166603,5,0,0:0:0
192,128,166903,5,2,0:0:0
296,248,167003,5,0,0:0:0
192,128,167203,5,2,0:0:0
296,248,167303,5,0,0:0:0
192,128,167503,5,2,0:0:0
296,248,167603,5,0,0:0:0
216,248,167703,1,0,0:0:0
296,248,167803,1,0,0:0:0
216,248,167903,1,0,0:0:0
320,128,168103,5,2,0:0:0
216,248,168203,5,0,0:0:0
320,128,168403,5,2,0:0:0
216,248,168503,5,0,0:0:0
320,128,168703,5,2,0:0:0
192,128,168803,1,2,0:0:0
296,248,169003,5,0,0:0:0
216,248,169303,1,0,0:0:0
296,248,169403,1,0,0:0:0
192,128,169603,5,2,0:0:0
296,248,169703,5,0,0:0:0
192,128,169903,5,2,0:0:0
296,248,170003,5,0,0:0:0
216,248,170203,1,0,0:0:0
320,128,170303,5,2,0:0:0
192,128,170503,1,2,0:0:0
296,248,170603,5,0,0:0:0
216,248,170803,1,0,0:0:0
320,128,170903,5,2,0:0:0
192,128,171103,1,2,0:0:0
296,248,171203,5,0,0:0:0
216,248,171403,1,0,0:0:0
320,128,171503,5,2,0:0:0
192,128,171703,1,2,0:0:0
320,128,171803,1,2,0:0:0
216,248,172003,5,0,0:0:0
320,128,172103,5,2,0:0:0
192,128,172203,1,2,0:0:0
296,248,172303,5,0,0:0:0
192,128,172403,5,2,0:0:0
320,128,172503,1,2,0:0:0
216,248,172603,5,0,0:0:0
296,248,172703,1,0,0:0:0
192,128,172903,5,2,0:0:0
296,248,173003,5,0,0:0:0
192,128,173203,5,2,0:0:0
296,248,173303,5,0,0:0:0
192,128,173503,5,2,0:0:0
320,128,173603,1,2,0:0:0
216,248,173803,5,0,0:0:0
192,128,174103,5,2,0:0:0
296,248,174203,5,0,0:0:0
192,128,174403,5,2,0:0:0
296,248,174503,5,0,0:0:0
192,128,174703,5,2,0:0:0
296,248,174803,5,0,0:0:0
192,128,174903,5,2,0:0:0
320,128,175003,1,2,0:0:0
216,248,175103,5,0,0:0:0
320,128,175303,5,2,0:0:0
216,248,175403,5,0,0:0:0
320,128,175603,5,2,0:0:0
216,248,175703,5,0,0:0:0
320,128,175903,5,2,0:0:0
192,128,176003,1,2,0:0:0
296,248,176203,5,0,0:0:0
192,128,176503,5,2,0:0:0
296,248,176603,5,0,0:0:0
192,128,176803,5,2,0:0:0
320,128,176903,1,2,0:0:0
192,128,176953,1,2,0:0:0
320,128,177003,1,2,0:0:0
320,128,177103,1,2,0:0:0
216,248,177203,5,0,0:0:0
296,248,177303,1,0,0:0:0
216,248,177403,1,0,0:0:0
296,248,177503,1,0,0:0:0
192,128,177703,5,2,0:0:0
296,248,177803,5,0,0:0:0
192,128,178003,5,2,0:0:0
296,248,178103,5,0,0:0:0
192,128,178303,5,2,0:0:0
320,128,178403,1,2,0:0:0
216,248,178603,5,0,0:0:0
296,248,178903,1,0,0:0:0
216,248,179003,1,0,0:0:0
320,128,179203,5,2,0:0:0
216,248,179303,5,0,0:0:0
320,128,179503,5,2,0:0:0
216,248,179603,5,0,0:0:0
296,248,179803,1,0,0:0:0
192,128,179903,5,2,0:0:0
320,128,180103,1,2,0:0:0
216,248,180203,5,0,0:0:0
296,248,180403,1,0,0:0:0
192,128,180503,5,2,0:0:0
320,128,180703,1,2,0:0:0
192,128,180803,1,2,0:0:0
296,248,181003,5,0,0:0:0
192,128,181103,5,2,0:0:0
320,128,181303,1,2,0:0:0
192,128,181403,1,2,0:0:0
296,248,181603,5,0,0:0:0
192,128,181703,5,2,0:0:0
296,248,181803,5,0,0:0:0
216,248,181903,1,0,0:0:0
320,128,182003,5,2,0:0:0
192,128,182103,1,2,0:0:0
320,128,182203,1,2,0:0:0
216,248,182303,5,0,0:0:0
