osu file format v9

[General]
AudioFilename: Utatabigarasu.mp3
AudioLeadIn: 0
PreviewTime: 54603
Countdown: 0
SampleSet: Normal
StackLeniency: 0.3
Mode: 1
LetterboxInBreaks: 0

[Editor]
DistanceSpacing: 0.6
BeatDivisor: 3
GridSize: 8

[Metadata]
Title:Utatabigarasu
Artist:capitaro
Creator:NatsumeRin
Version:Taiko Muzukashii
Source:Vocaloid
Tags:Hatsune Miku tanaka karenying Kotone

[Difficulty]
HPDrainRate:4
CircleSize:4
OverallDifficulty:5
ApproachRate:8
SliderMultiplier:1.4
SliderTickRate:1

[Events]
//Background and Video events
0,0,"BG.jpg"
Video,0,"PV.flv"
//Break Periods
//Storyboard Layer 0 (Background)
//Storyboard Layer 1 (Fail)
//Storyboard Layer 2 (Pass)
//Storyboard Layer 3 (Foreground)
//Storyboard Sound Samples
//Background Colour Transformations
3,100,163,162,255

[TimingPoints]
5903,300,4,1,1,80,1,0
15503,-100,4,1,1,60,0,0
16703,-100,4,1,1,80,0,0
55103,-100,4,1,1,80,0,1
74303,-100,4,1,1,80,0,0
122303,-100,4,1,1,80,0,1
141503,-100,4,1,1,60,0,0
151103,-100,4,1,1,80,0,0
165503,-100,4,1,1,80,0,1
182303,-100,4,1,1,80,0,0

[Colours]
Combo1 : 0,128,255
Combo2 : 255,0,128

[HitObjects]
296,248,5903,5,0
192,128,6203,5,2
296,248,6403,5,0
216,248,6503,1,0
320,128,6703,5,2
216,248,7003,5,0
320,128,7303,5,2
216,248,7403,5,0
296,248,7703,1,0
192,128,8003,5,2
296,248,8303,5,0
192,128,8603,5,2
296,248,8803,5,0
216,248,8903,1,0
320,128,9103,5,2
216,248,9403,5,0
320,128,9703,5,2
216,248,9803,5,0
320,128,10103,5,2
216,248,10403,5,0
296,248,10703,1,0
192,128,11003,5,2
296,248,11203,5,0
216,248,11303,1,0
320,128,11503,5,2
216,248,11803,5,0
320,128,12103,5,2
216,248,12203,5,0
296,248,12503,1,0
192,128,12803,5,2
296,248,13103,5,0
192,128,13403,5,2
296,248,13603,5,0
216,248,13703,1,0
320,128,13903,5,2
216,248,14203,5,0
320,128,14503,5,2
216,248,14603,5,0
320,128,14903,5,2
216,248,15203,5,0
320,128,15803,5,2
192,128,16403,1,2
296,248,16703,5,0
216,248,17303,1,0
320,128,17603,5,2
216,248,17903,5,0
216,248,18403,1,0
296,248,18503,1,0
192,128,18803,5,2
296,248,19103,5,0
216,248,19303,1,0
296,248,19403,1,0
216,248,19703,1,0
296,248,19903,1,0
192,128,20003,5,2
296,248,20303,5,0
216,248,20603,1,0
296,248,20903,1,0
192,128,21203,5,2
296,248,21503,5,0
216,248,22103,1,0
320,128,22403,5,2
216,248,22703,5,0
216,248,23203,1,0
296,248,23303,1,0
192,128,23603,5,2
296,248,23903,5,0
216,248,24103,1,0
296,248,24203,1,0
216,248,24503,1,0
296,248,24703,1,0
192,128,24803,5,2
296,248,25103,5,0
216,248,25403,1,0
296,248,25703,1,0
192,128,25903,5,2
296,248,26003,5,0
192,128,26203,5,2
296,248,26303,5,0
216,248,26903,1,0
320,128,27203,5,2
216,248,27503,5,0
216,248,28103,1,0
320,128,28303,5,2
216,248,28403,5,0
320,128,28603,5,2
216,248,28703,5,0
296,248,29003,1,0
216,248,29303,1,0
320,128,29603,5,2
216,248,29903,5,0
296,248,30203,1,0
216,248,30503,1,0
320,128,30803,5,2
216,248,31103,5,0
296,248,31703,1,0
192,128,32003,5,2
296,248,32303,5,0
192,128,32803,5,2
296,248,32903,5,0
192,128,33203,5,2
296,248,33503,5,0
216,248,33703,1,0
320,128,33803,5,2
192,128,34003,1,2
296,248,34103,5,0
192,128,34403,5,2
296,248,34603,5,0
216,248,34703,1,0
320,128,35003,5,2
216,248,35303,5,0
320,128,35603,5,2
216,248,35903,5,0
320,128,36203,5,2
192,128,36503,1,2
296,248,36803,5,0
192,128,37003,5,2
320,128,37303,1,2
216,248,37603,5,0
320,128,37703,5,2
216,248,37903,5,0
296,248,38003,1,0
192,128,38203,5,2
296,248,38303,5,0
192,128,38603,5,2
296,248,38903,5,0
192,128,39203,5,2
320,128,39403,1,2
216,248,39503,5,0
320,128,39803,5,2
216,248,40103,5,0
320,128,40403,5,2
192,128,40603,1,2
296,248,40703,5,0
192,128,41003,5,2
320,128,41303,1,2
216,248,41603,5,0
320,128,41803,5,2
192,128,42103,1,2
296,248,42403,5,0
192,128,42503,5,2
296,248,42703,5,0
216,248,42803,1,0
320,128,43003,5,2
216,248,43103,5,0
320,128,43403,5,2
216,248,43703,5,0
320,128,44003,5,2
192,128,44203,1,2
296,248,44303,5,0
192,128,44603,5,2
296,248,44903,5,0
192,128,45203,5,2
320,128,45403,1,2
216,248,45503,5,0
320,128,45803,5,2
192,128,46103,1,2
296,248,46403,5,0
192,128,46603,5,2
320,128,46903,1,2
216,248,47203,5,0
320,128,47303,5,2
216,248,47503,5,0
296,248,47603,1,0
192,128,47803,5,2
296,248,47903,5,0
192,128,48203,5,2
296,248,48503,5,0
192,128,48803,5,2
320,128,49003,1,2
216,248,49103,5,0
320,128,49403,5,2
216,248,49703,5,0
320,128,50003,5,2
216,248,50203,5,0
296,248,50303,1,0
216,248,50603,1,0
320,128,50803,5,2
216,248,50903,5,0
296,248,51103,1,0
192,128,51203,5,2
296,248,51403,5,0
216,248,51503,1,0
296,248,51803,1,0
192,128,52003,5,2
296,248,52103,5,0
216,248,52303,1,0
320,128,52403,5,2
216,248,52603,5,0
296,248,52703,1,0
216,248,53003,1,0
320,128,53203,5,2
216,248,53303,5,0
320,128,53503,5,2
216,248,53603,5,0
320,128,53803,5,2
192,128,54103,1,2
320,128,54403,1,2
216,248,55103,5,0
320,128,55403,5,2
216,248,55703,5,0
296,248,55903,1,0
192,128,56003,5,2
296,248,56203,5,0
192,128,56603,5,2
296,248,56903,5,0
192,128,57203,5,2
320,128,57403,1,2
216,248,57503,5,0
296,248,57703,1,0
192,128,57803,5,2
296,248,58103,5,0
216,248,58303,1,0
320,128,58403,5,2
216,248,58603,5,0
320,128,59003,5,2
216,248,59303,5,0
320,128,59603,5,2
216,248,59703,5,0
296,248,59803,1,0
216,248,59903,1,0
320,128,60203,5,2
216,248,60503,5,0
296,248,60703,1,0
192,128,60803,5,2
296,248,61003,5,0
192,128,61403,5,2
296,248,61603,5,0
216,248,61703,1,0
320,128,62003,5,2
216,248,62303,5,0
320,128,62603,5,2
216,248,62903,5,0
320,128,63203,5,2
192,128,63403,1,2
296,248,63503,5,0
192,128,63803,5,2
320,128,64103,1,2
192,128,64203,1,2
320,128,64303,1,2
216,248,64403,5,0
296,248,64503,1,0
216,248,64603,1,0
296,248,64703,1,0
216,248,64903,1,0
320,128,65003,5,2
216,248,65303,5,0
320,128,65603,5,2
216,248,65803,5,0
320,128,66203,5,2
216,248,66403,5,0
296,248,66503,1,0
192,128,66803,5,2
296,248,67103,5,0
216,248,67303,1,0
320,128,67403,5,2
216,248,67603,5,0
296,248,67703,1,0
192,128,68003,5,2
296,248,68203,5,0
216,248,68503,1,0
320,128,68603,5,2
216,248,68803,5,0
296,248,68903,1,0
192,128,69203,5,2
296,248,69303,5,0
216,248,69403,1,0
296,248,69503,1,0
216,248,69703,1,0
320,128,69803,5,2
216,248,70003,5,0
296,248,70103,1,0
216,248,70303,1,0
320,128,70403,5,2
216,248,70603,5,0
320,128,71003,5,2
216,248,71203,5,0
296,248,71303,1,0
192,128,71603,5,2
320,128,71803,1,2
216,248,71903,5,0
320,128,72203,5,2
216,248,72503,5,0
320,128,72803,5,2
216,248,73103,5,0
320,128,73403,5,2
192,128,73703,1,2
320,128,73803,1,2
192,128,73903,1,2
296,248,74003,5,0
216,248,74103,1,0
296,248,74203,1,0
216,248,74303,1,0
320,128,74603,5,2
216,248,74803,5,0
296,248,74903,1,0
192,128,75103,5,2
296,248,75403,5,0
192,128,75703,5,2
296,248,75803,5,0
216,248,76103,1,0
320,128,76403,5,2
216,248,76703,5,0
320,128,77003,5,2
216,248,77203,5,0
296,248,77303,1,0
192,128,77503,5,2
296,248,77803,5,0
192,128,78103,5,2
296,248,78203,5,0
192,128,78503,5,2
296,248,78803,5,0
216,248,79103,1,0
320,128,79403,5,2
216,248,79603,5,0
296,248,79703,1,0
192,128,79903,5,2
296,248,80203,5,0
192,128,80503,5,2
296,248,80603,5,0
216,248,80903,1,0
320,128,81203,5,2
216,248,81503,5,0
320,128,81803,5,2
216,248,82003,5,0
296,248,82103,1,0
192,128,82303,5,2
296,248,82603,5,0
192,128,82903,5,2
296,248,83003,5,0
192,128,83303,5,2
296,248,83603,5,0
216,248,83903,1,0
320,128,84203,5,2
192,128,84403,1,2
296,248,84503,5,0
192,128,84803,5,2
296,248,85103,5,0
192,128,85303,5,2
296,248,85603,5,0
216,248,85703,1,0
320,128,86003,5,2
216,248,86303,5,0
296,248,86503,1,0
192,128,86603,5,2
296,248,86803,5,0
216,248,86903,1,0
296,248,87103,1,0
192,128,87203,5,2
296,248,87403,5,0
216,248,87503,1,0
320,128,87803,5,2
216,248,88103,5,0
320,128,88403,5,2
216,248,88703,5,0
320,128,89003,5,2
192,128,89203,1,2
296,248,89303,5,0
192,128,89603,5,2
296,248,89903,5,0
192,128,90103,5,2
296,248,90403,5,0
216,248,90503,1,0
320,128,90803,5,2
216,248,91103,5,0
320,128,91403,5,2
216,248,91603,5,0
296,248,91703,1,0
192,128,92003,5,2
296,248,92203,5,0
216,248,92303,1,0
320,128,92603,5,2
192,128,92803,1,2
296,248,92903,5,0
192,128,93103,5,2
296,248,93203,5,0
216,248,93303,1,0
296,248,93403,1,0
216,248,93503,1,0
320,128,93803,5,2
192,128,94003,1,2
296,248,94103,5,0
192,128,94403,5,2
320,128,94603,1,2
216,248,94703,5,0
320,128,95003,5,2
216,248,95203,5,0
296,248,95303,1,0
192,128,95603,5,2
216,248,95903,5,0
296,248,96103,1,0
192,128,96203,5,2
296,248,96403,5,0
216,248,96503,1,0
296,248,96703,1,0
192,128,96803,5,2
296,248,97003,5,0
216,248,97103,1,0
320,128,97403,5,2
216,248,97703,5,0
296,248,97903,1,0
192,128,98003,5,2
296,248,98303,5,0
192,128,98603,5,2
320,128,98803,1,2
216,248,98903,5,0
320,128,99203,5,2
192,128,99403,1,2
296,248,99503,5,0
192,128,99803,5,2
296,248,100003,5,0
216,248,100103,1,0
320,128,100403,5,2
216,248,100703,5,0
320,128,100903,5,2
192,128,101003,1,2
296,248,101203,5,0
216,248,101303,1,0
320,128,101503,5,2
192,128,101603,1,2
296,248,101803,5,0
216,248,101903,1,0
320,128,102203,5,2
216,248,102403,5,0
296,248,102503,1,0
192,128,102803,5,2
296,248,103003,5,0
216,248,103103,1,0
320,128,103403,5,2
192,128,103703,1,2
296,248,104003,5,0
192,128,104203,5,2
320,128,104503,1,2
216,248,104803,5,0
320,128,104903,5,2
216,248,105103,5,0
296,248,105203,1,0
192,128,105403,5,2
296,248,105503,5,0
192,128,105803,5,2
296,248,106103,5,0
192,128,106403,5,2
320,128,106603,1,2
216,248,106703,5,0
320,128,107003,5,2
216,248,107303,5,0
320,128,107603,5,2
192,128,107803,1,2
296,248,107903,5,0
192,128,108203,5,2
320,128,108503,1,2
216,248,108803,5,0
320,128,109003,5,2
192,128,109303,1,2
296,248,109603,5,0
192,128,109703,5,2
296,248,109903,5,0
216,248,110003,1,0
320,128,110203,5,2
216,248,110303,5,0
320,128,110603,5,2
216,248,110903,5,0
320,128,111203,5,2
192,128,111403,1,2
296,248,111503,5,0
192,128,111803,5,2
296,248,112103,5,0
192,128,112403,5,2
320,128,112503,1,2
192,128,112603,1,2
296,248,112703,5,0
192,128,113003,5,2
320,128,113303,1,2
216,248,113603,5,0
320,128,113803,5,2
192,128,114103,1,2
296,248,114403,5,0
192,128,114503,5,2
296,248,114703,5,0
216,248,114803,1,0
320,128,115003,5,2
216,248,115103,5,0
320,128,115403,5,2
216,248,115703,5,0
320,128,116003,5,2
192,128,116203,1,2
296,248,116303,5,0
192,128,116603,5,2
296,248,116903,5,0
216,248,117103,1,0
320,128,117203,5,2
216,248,117403,5,0
296,248,117503,1,0
216,248,117803,1,0
320,128,118003,5,2
216,248,118103,5,0
296,248,118303,1,0
192,128,118403,5,2
296,248,118603,5,0
216,248,118703,1,0
296,248,119003,1,0
192,128,119203,5,2
296,248,119303,5,0
216,248,119503,1,0
320,128,119603,5,2
216,248,119803,5,0
296,248,119903,1,0
192,128,120103,5,2
296,248,120203,5,0
192,128,120403,5,2
296,248,120503,5,0
192,128,120703,5,2
296,248,120803,5,0
192,128,121003,5,2
320,128,121303,1,2
192,128,121603,1,2
296,248,121703,5,0
216,248,121803,1,0
296,248,121903,1,0
216,248,122003,1,0
296,248,122103,1,0
216,248,122203,1,0
296,248,122303,1,0
192,128,122503,5,2
320,128,122603,1,2
216,248,122903,5,0
320,128,123203,5,2
216,248,123403,5,0
296,248,123703,1,0
192,128,123803,5,2
296,248,124003,5,0
216,248,124103,1,0
320,128,124403,5,2
216,248,124703,5,0
320,128,125003,5,2
192,128,125203,1,2
296,248,125303,5,0
192,128,125603,5,2
296,248,125803,5,0
192,128,126203,5,2
296,248,126503,5,0
192,128,126803,5,2
296,248,126903,5,0
216,248,127003,1,0
296,248,127103,1,0
192,128,127403,5,2
296,248,127603,5,0
216,248,127703,1,0
296,248,127903,1,0
192,128,128003,5,2
296,248,128203,5,0
216,248,128503,1,0
320,128,128603,5,2
216,248,128803,5,0
296,248,128903,1,0
192,128,129203,5,2
296,248,129403,5,0
216,248,129503,1,0
320,128,129803,5,2
216,248,130103,5,0
320,128,130403,5,2
216,248,130703,5,0
296,248,130903,1,0
192,128,131003,5,2
320,128,131303,1,2
192,128,131403,1,2
320,128,131503,1,2
216,248,131603,5,0
296,248,131703,1,0
216,248,131803,1,0
296,248,131903,1,0
192,128,132103,5,2
320,128,132203,1,2
216,248,132403,5,0
296,248,132503,1,0
192,128,132803,5,2
296,248,133003,5,0
192,128,133403,5,2
296,248,133603,5,0
216,248,133703,1,0
320,128,134003,5,2
216,248,134303,5,0
296,248,134503,1,0
192,128,134603,5,2
296,248,134803,5,0
216,248,134903,1,0
296,248,135103,1,0
192,128,135203,5,2
296,248,135403,5,0
216,248,135703,1,0
320,128,135803,5,2
216,248,136003,5,0
296,248,136103,1,0
192,128,136403,5,2
296,248,136503,5,0
216,248,136603,1,0
296,248,136703,1,0
216,248,136903,1,0
320,128,137003,5,2
216,248,137203,5,0
296,248,137303,1,0
216,248,137503,1,0
320,128,137603,5,2
216,248,137803,5,0
296,248,138103,1,0
192,128,138203,5,2
296,248,138403,5,0
216,248,138503,1,0
320,128,138803,5,2
192,128,139003,1,2
296,248,139103,5,0
192,128,139403,5,2
296,248,139703,5,0
192,128,140003,5,2
296,248,140303,5,0
192,128,140603,5,2
320,128,140903,1,0
192,128,141003,1,0
320,128,141103,1,0
216,248,141203,5,0
296,248,141303,1,0
216,248,141403,1,0
296,248,141503,1,0
216,248,142103,1,0
296,248,142703,1,0
216,248,142903,1,0
296,248,143003,1,0
216,248,143203,1,0
296,248,143303,1,0
192,128,143603,5,2
296,248,143903,5,0
216,248,144503,1,0
296,248,145103,1,0
216,248,145303,1,0
296,248,145403,1,0
216,248,145603,1,0
296,248,145703,1,0
192,128,146003,5,2
296,248,146303,5,0
216,248,146903,1,0
296,248,147503,1,0
216,248,147703,1,0
296,248,147803,1,0
216,248,148003,1,0
296,248,148103,1,0
192,128,148403,5,2
296,248,148703,5,0
216,248,149303,1,0
296,248,149903,1,0
216,248,150103,1,0
296,248,150203,1,0
216,248,150403,1,0
296,248,150503,1,0
192,128,150803,5,2
296,248,151003,5,0
192,128,151103,5,2
296,248,151403,5,0
216,248,151603,1,0
320,128,151703,5,2
216,248,152003,5,0
320,128,152303,5,2
192,128,152503,1,2
296,248,152603,5,0
216,248,152803,1,0
320,128,152903,5,2
216,248,153203,5,0
320,128,153503,5,2
216,248,153803,5,0
296,248,154003,1,0
192,128,154103,5,2
296,248,154403,5,0
192,128,154703,5,2
320,128,154903,1,2
216,248,155003,5,0
296,248,155203,1,0
192,128,155303,5,2
296,248,155603,5,0
192,128,155903,5,2
296,248,156203,5,0
216,248,156403,1,0
320,128,156503,5,2
216,248,156803,5,0
296,248,157003,1,0
192,128,157103,5,2
296,248,157403,5,0
216,248,157603,1,0
320,128,157703,5,2
216,248,158003,5,0
296,248,158203,1,0
216,248,158303,1,0
320,128,158603,5,2
216,248,158903,5,0
320,128,159203,5,2
216,248,159503,5,0
320,128,159803,5,2
216,248,160103,5,0
320,128,160403,5,2
216,248,160703,5,0
320,128,161003,5,2
192,128,161203,1,2
296,248,161303,5,0
192,128,161603,5,2
296,248,161803,5,0
192,128,161903,5,2
296,248,162103,5,0
192,128,162203,5,2
296,248,162403,5,0
192,128,162503,5,2
296,248,163103,5,0
216,248,164003,1,0
296,248,164203,1,0
192,128,164903,5,2
296,248,165103,5,0
216,248,165503,1,0
296,248,165703,1,0
192,128,165803,5,2
296,248,166103,5,0
216,248,166303,1,0
320,128,166403,5,2
216,248,166603,5,0
320,128,167003,5,2
216,248,167303,5,0
320,128,167603,5,2
216,248,167703,5,0
296,248,167803,1,0
216,248,167903,1,0
320,128,168203,5,2
216,248,168503,5,0
296,248,168703,1,0
192,128,168803,5,2
296,248,169003,5,0
192,128,169403,5,2
296,248,169603,5,0
216,248,169703,1,0
320,128,170003,5,2
216,248,170303,5,0
320,128,170603,5,2
216,248,170903,5,0
320,128,171203,5,2
192,128,171403,1,2
296,248,171503,5,0
192,128,171803,5,2
320,128,172103,1,2
192,128,172203,1,2
320,128,172303,1,2
216,248,172403,5,0
296,248,172503,1,0
216,248,172603,1,0
296,248,172703,1,0
216,248,172903,1,0
320,128,173003,5,2
216,248,173303,5,0
320,128,173603,5,2
216,248,173803,5,0
320,128,174203,5,2
216,248,174403,5,0
296,248,174503,1,0
192,128,174803,5,2
296,248,175103,5,0
216,248,175303,1,0
320,128,175403,5,2
216,248,175603,5,0
296,248,175703,1,0
192,128,176003,5,2
296,248,176203,5,0
216,248,176503,1,0
320,128,176603,5,2
216,248,176803,5,0
296,248,176903,1,0
192,128,177203,5,2
296,248,177303,5,0
216,248,177403,1,0
296,248,177503,1,0
216,248,177703,1,0
320,128,177803,5,2
216,248,178003,5,0
296,248,178103,1,0
216,248,178303,1,0
320,128,178403,5,2
216,248,178603,5,0
320,128,179003,5,2
216,248,179203,5,0
296,248,179303,1,0
216,248,179503,1,0
320,128,179603,5,2
192,128,179803,1,2
296,248,179903,5,0
192,128,180203,5,2
296,248,180503,5,0
192,128,180803,5,2
296,248,181103,5,0
192,128,181403,5,2
320,128,181703,1,2
192,128,181803,1,2
320,128,181903,1,2
216,248,182003,5,0
296,248,182103,1,0
216,248,182203,1,0
296,248,182303,1,0
