osu file format v10

[General]
AudioFilename: Utatabigarasu.mp3
AudioLeadIn: 0
PreviewTime: 54603
Countdown: 0
SampleSet: Soft
StackLeniency: 0.3
Mode: 0
LetterboxInBreaks: 0

[Editor]
DistanceSpacing: 1.2
BeatDivisor: 3
GridSize: 8

[Metadata]
Title:Utatabigarasu
TitleUnicode:Utatabigarasu
Artist:capitaro
ArtistUnicode:capitaro
Creator:NatsumeRin
Version:Rin
Source:Vocaloid
Tags:Hatsune Miku tanaka karenying Kotone
BeatmapID:179671
BeatmapSetID:59982

[Difficulty]
HPDrainRate:6
CircleSize:4
OverallDifficulty:8
ApproachRate:9
SliderMultiplier:1.6
SliderTickRate:1

[Events]
//Background and Video events
0,0,"BG.jpg"
Video,0,"PV.flv"
//Break Periods
2,74503,83303
//Storyboard Layer 0 (Background)
//Storyboard Layer 1 (Fail)
//Storyboard Layer 2 (Pass)
//Storyboard Layer 3 (Foreground)
//Storyboard Sound Samples
//Background Colour Transformations
3,100,163,162,255

[TimingPoints]
5903,300,4,1,1,70,1,0
10103,-100,4,1,1,55,0,0
10603,-100,4,1,1,70,0,0
14903,-100,4,1,1,55,0,0
15503,-100,4,2,2,50,0,0
16703,-100,4,2,1,60,0,0
21203,-100,4,1,2,60,0,0
21503,-100,4,2,1,60,0,0
25903,-100,4,1,1,60,0,0
26303,-100,4,2,1,60,0,0
27903,-100,4,2,1,45,0,0
28103,-100,4,2,1,60,0,0
30503,-100,4,2,1,45,0,0
30803,-100,4,2,1,60,0,0
33203,-100,4,2,1,45,0,0
33503,-100,4,2,1,60,0,0
34703,-100,4,2,1,70,0,0
35903,-100,4,2,1,80,0,0
37303,-100,4,2,1,70,0,0
40703,-100,4,2,1,80,0,0
42103,-100,4,2,1,70,0,0
45203,-100,4,2,1,60,0,0
45503,-100,4,2,1,80,0,0
46903,-100,4,2,1,70,0,0
50303,-100,4,2,1,80,0,0
52703,-100,4,2,1,90,0,0
54703,-100,4,2,1,70,0,0
54803,-125,4,2,1,80,0,0
55003,-125,4,2,1,30,0,0
55103,-83.3333333333333,4,2,1,90,0,1
59603,-83.3333333333333,4,2,1,70,0,1
59903,-83.3333333333333,4,2,1,90,0,1
62503,-83.3333333333333,4,2,1,70,0,1
62603,-83.3333333333333,4,2,1,90,0,1
62803,-83.3333333333333,4,2,1,70,0,1
62903,-83.3333333333333,4,2,1,90,0,1
63103,-83.3333333333333,4,2,1,70,0,1
63203,-83.3333333333333,4,2,1,90,0,1
63403,-83.3333333333333,4,2,1,70,0,1
63503,-83.3333333333333,4,2,1,90,0,1
64103,-83.3333333333333,4,1,1,70,0,1
64403,-83.3333333333333,4,1,1,60,0,1
64703,-83.3333333333333,4,2,1,90,0,1
69203,-83.3333333333333,4,2,1,70,0,1
69503,-83.3333333333333,4,2,1,90,0,1
72103,-83.3333333333333,4,2,1,70,0,1
72203,-83.3333333333333,4,2,1,90,0,1
72403,-83.3333333333333,4,2,1,70,0,1
72503,-83.3333333333333,4,2,1,90,0,1
72703,-83.3333333333333,4,2,1,70,0,1
72803,-83.3333333333333,4,2,1,90,0,1
73003,-83.3333333333333,4,2,1,70,0,1
73103,-83.3333333333333,4,2,1,90,0,1
73703,-83.3333333333333,4,2,1,70,0,1
74003,-83.3333333333333,4,2,1,60,0,1
74303,-83.3333333333333,4,1,2,70,0,0
83903,-100,4,2,1,60,0,0
88403,-100,4,1,2,60,0,0
88703,-100,4,2,1,60,0,0
93203,-100,4,2,1,50,0,0
93503,-100,4,1,1,70,0,0
102503,-100,4,1,0,35,0,0
102703,-100,4,1,1,70,0,0
103103,-100,4,2,1,80,0,0
104503,-100,4,2,1,70,0,0
107903,-100,4,2,1,80,0,0
109303,-100,4,2,1,70,0,0
112403,-100,4,2,1,60,0,0
112703,-100,4,2,1,80,0,0
114103,-100,4,2,1,70,0,0
117503,-100,4,2,1,80,0,0
119903,-100,4,2,1,90,0,0
121703,-100,4,1,1,65,0,0
122003,-100,4,1,1,55,0,0
122303,-83.3333333333333,4,2,1,90,0,1
126803,-83.3333333333333,4,2,1,70,0,1
127103,-83.3333333333333,4,2,1,90,0,1
129703,-83.3333333333333,4,2,1,70,0,1
129803,-83.3333333333333,4,2,1,90,0,1
130003,-83.3333333333333,4,2,1,70,0,1
130103,-83.3333333333333,4,2,1,90,0,1
130303,-83.3333333333333,4,2,1,70,0,1
130403,-83.3333333333333,4,2,1,90,0,1
130603,-83.3333333333333,4,2,1,70,0,1
130703,-83.3333333333333,4,2,1,90,0,1
131303,-83.3333333333333,4,1,1,70,0,1
131603,-83.3333333333333,4,1,1,60,0,1
131903,-83.3333333333333,4,2,1,90,0,1
136403,-83.3333333333333,4,2,1,70,0,1
136703,-83.3333333333333,4,2,1,90,0,1
139303,-83.3333333333333,4,2,1,70,0,1
139403,-83.3333333333333,4,2,1,90,0,1
139603,-83.3333333333333,4,2,1,70,0,1
139703,-83.3333333333333,4,2,1,90,0,1
139903,-83.3333333333333,4,2,1,70,0,1
140003,-83.3333333333333,4,2,1,90,0,1
140203,-83.3333333333333,4,2,1,70,0,1
140303,-83.3333333333333,4,2,1,90,0,1
140903,-83.3333333333333,4,2,1,70,0,1
141203,-83.3333333333333,4,2,1,60,0,1
141503,-166.666666666667,4,1,2,70,0,0
142003,-166.666666666667,4,2,1,50,0,0
143603,-166.666666666667,4,1,2,50,0,0
143903,-166.666666666667,4,2,1,50,0,0
146003,-166.666666666667,4,1,2,50,0,0
146303,-166.666666666667,4,2,1,50,0,0
148403,-166.666666666667,4,1,2,50,0,0
148703,-166.666666666667,4,2,1,50,0,0
150803,-166.666666666667,4,1,0,50,0,0
151103,-100,4,2,1,60,0,0
153203,-100,4,1,0,60,0,0
153503,-100,4,2,1,60,0,0
155603,-100,4,1,0,60,0,0
155903,-100,4,2,1,70,0,0
162503,-100,4,2,1,60,0,0
163103,-100,4,1,0,70,0,0
164803,-100,4,1,0,40,0,0
164903,-100,4,1,0,70,0,0
165103,-100,4,1,0,50,0,0
165503,-83.3333333333333,4,2,1,90,0,1
167603,-83.3333333333333,4,2,1,70,0,1
167903,-83.3333333333333,4,2,1,90,0,1
170503,-83.3333333333333,4,2,1,70,0,1
170603,-83.3333333333333,4,2,1,90,0,1
170803,-83.3333333333333,4,2,1,70,0,1
170903,-83.3333333333333,4,2,1,90,0,1
171103,-83.3333333333333,4,2,1,70,0,1
171203,-83.3333333333333,4,2,1,90,0,1
171403,-83.3333333333333,4,2,1,70,0,1
171503,-83.3333333333333,4,2,1,90,0,1
172103,-83.3333333333333,4,1,1,70,0,1
172403,-83.3333333333333,4,1,1,60,0,1
172703,-83.3333333333333,4,2,1,90,0,1
177203,-83.3333333333333,4,2,1,70,0,1
177503,-83.3333333333333,4,2,1,90,0,1
180103,-83.3333333333333,4,2,1,70,0,1
180203,-83.3333333333333,4,2,1,90,0,1
180403,-83.3333333333333,4,2,1,70,0,1
180503,-83.3333333333333,4,2,1,90,0,1
180703,-83.3333333333333,4,2,1,70,0,1
180803,-83.3333333333333,4,2,1,90,0,1
181003,-83.3333333333333,4,2,1,70,0,1
181103,-83.3333333333333,4,2,1,90,0,1
181703,-83.3333333333333,4,2,1,70,0,1
182003,-83.3333333333333,4,2,1,60,0,1
182303,-83.3333333333333,4,2,1,80,0,0

[Colours]
Combo1 : 255,0,128
Combo2 : 128,0,255
Combo3 : 255,0,255
Combo4 : 0,0,191

[HitObjects]
376,112,5903,2,0,B|336:224,1,106.666666666667,0|2,0:0|0:0,0:0:0
288,128,6203,2,0,B|248:240,1,106.666666666667,0|2,0:0|0:0,0:0:0
200,144,6503,2,0,B|168:160|112:152|88:112,1,106.666666666667,0|2,0:0|0:0,0:0:0
100,127,7003,6,0,B|136:88|216:88|248:144,1,160,0|2,0:0|0:0,0:0:0
272,200,7403,2,0,B|288:264|248:304,1,106.666666666667,0|2,0:0|0:0,0:0:0
184,336,7703,2,0,B|128:360|72:320,1,106.666666666667,0|2,0:0|0:0,0:0:0
24,280,8003,2,0,B|8:216|48:176,1,106.666666666667,0|0,0:0|0:0,0:0:0
96,128,8303,6,0,B|224:80,1,106.666666666667,0|2,0:0|0:0,0:0:0
144,192,8603,2,0,B|272:144,1,106.666666666667,0|2,0:0|0:0,0:0:0
192,256,8903,2,0,B|232:304|200:368,1,106.666666666667,0|2,0:0|0:0,0:0:0
205,356,9403,6,0,B|151:343|119:255|175:215,1,160,0|2,0:0|0:0,0:0:0
208,168,9803,2,0,B|264:144|304:192,1,106.666666666667,0|2,0:0|0:0,0:0:0
320,208,10103,1,8,0:0:0
336,224,10203,1,8,0:0:0
352,240,10303,1,8,0:0:0
368,256,10403,2,0,B|424:232|424:168,1,106.666666666667,8|0,0:0|0:0,0:0:0
424,96,10703,6,0,B|328:40,1,106.666666666667,0|2,0:0|0:0,0:0:0
272,96,11003,2,0,B|368:152,1,106.666666666667,0|2,0:0|0:0,0:0:0
256,24,11303,2,0,B|216:32|192:64|200:112,1,106.666666666667,0|2,0:0|0:0,0:0:0
198,101,11803,6,0,B|183:151|95:167|63:127,1,160,0|2,0:0|0:0,0:0:0
104,192,12203,2,0,B|136:240|104:296,1,106.666666666667,0|2,0:0|0:0,0:0:0
168,256,12503,2,0,B|224:224|280:248,1,106.666666666667,0|2,0:0|0:0,0:0:0
248,176,12803,2,0,B|224:120|264:72,1,106.666666666667
328,48,13103,6,0,B|432:80,1,106.666666666667,0|2,0:0|0:0,0:0:0
440,160,13403,2,0,B|336:128,1,106.666666666667,0|2,0:0|0:0,0:0:0
504,112,13703,2,0,B|528:144|520:192|496:216,1,106.666666666667,0|2,0:0|0:0,0:0:0
500,211,14203,6,0,B|456:184|376:208|368:280,1,160,0|2,0:0|0:0,0:0:0
344,328,14603,2,0,B|296:360|240:344,1,106.666666666667,0|2,0:0|0:0,0:0:0
216,328,14903,1,8,0:0:0
192,312,15003,1,8,0:0:0
168,296,15103,1,8,0:0:0
144,280,15203,1,8,0:0:0
56,200,15503,6,0,B|160:176,1,106.666666666667
192,168,15803,1,2,0:0:0
80,104,16103,6,0,B|184:80,1,106.666666666667
216,72,16403,1,2,0:0:0
320,48,16703,5,2,0:0:0
456,152,17003,2,0,B|424:104|360:112,1,106.666666666667
288,120,17303,1,2,0:0:0
184,256,17603,2,0,B|200:200|264:192,1,106.666666666667
336,184,17903,2,0,B|400:272,1,106.666666666667,2|2,0:0|0:0,0:0:0
224,320,18403,5,0,0:0:0
224,320,18503,2,0,B|200:344|144:336|128:304,1,106.666666666667,2|0,0:0|0:0,0:0:0
112,232,18803,2,0,B|120:192|168:168|208:184,1,106.666666666667,2|0,0:0|0:0,0:0:0
184,256,19103,5,2,0:0:0
120,120,19303,1,0,0:0:0
104,88,19403,1,2,0:0:0
240,112,19603,1,0,0:0:0
248,80,19703,1,2,0:0:0
360,160,19903,1,0,0:0:0
392,144,20003,1,2,0:0:0
392,280,20203,1,0,0:0:0
424,288,20303,5,2,0:0:0
312,352,20603,1,0,0:0:0
184,328,20903,1,2,0:0:0
96,232,21203,1,2,0:0:0
104,104,21503,5,2,0:0:0
256,24,21803,2,0,B|200:32|176:88,1,106.666666666667
160,160,22103,1,2,0:0:0
248,304,22403,2,0,B|200:264|216:200,1,106.666666666667
232,136,22703,2,0,B|336:104,1,106.666666666667,2|2,0:0|0:0,0:0:0
320,280,23203,5,0,0:0:0
320,280,23303,2,0,B|336:312|320:360|280:376,1,106.666666666667,2|0,0:0|0:0,0:0:0
216,376,23603,2,0,B|184:368|160:320|176:280,1,106.666666666667,2|0,0:0|0:0,0:0:0
248,304,23903,5,2,0:0:0
448,296,24103,1,0,0:0:0
416,288,24203,1,2,0:0:0
424,160,24403,1,0,0:0:0
392,176,24503,1,2,0:0:0
312,80,24703,1,0,0:0:0
296,112,24803,1,2,0:0:0
168,64,25003,1,0,0:0:0
176,96,25103,5,2,0:0:0
376,64,25403,1,0,0:0:0
154,176,25703,2,0,B|214:188|246:138,1,106.666666666667,2|2,0:0|0:0,0:0:0
408,136,26003,2,0,B|376:152|328:144|312:104,1,106.666666666667,0|2,0:0|0:0,0:0:0
256,64,26303,5,2,0:0:0
56,160,26603,2,0,B|176:144,1,106.666666666667
232,136,26903,1,2,0:0:0
440,264,27203,2,0,B|304:216,1,106.666666666667
272,200,27503,2,0,B|216:184|192:232|192:232|208:288|168:352|104:368,1,266.666666666667,2|0,0:0|0:0,0:0:0
120,216,28103,6,0,B|136:160|184:136,1,106.666666666667,2|0,0:0|0:0,0:0:0
256,120,28403,2,0,B|320:120|352:168,1,106.666666666667,2|0,0:0|0:0,0:0:0
384,232,28703,5,2,0:0:0
432,120,28903,1,0,0:0:0
464,112,29003,1,2,0:0:0
464,320,29203,1,0,0:0:0
496,336,29303,1,2,0:0:0
312,144,29503,1,0,0:0:0
320,112,29603,1,2,0:0:0
352,344,29803,1,0,0:0:0
368,376,29903,5,2,0:0:0
128,320,30203,1,0,0:0:0
336,304,30503,2,0,B|408:280,2,53.3333333333333,10|8|8,0:0|0:0|0:0,0:0:0
264,328,30803,1,0,0:0:0
200,208,31003,1,0,0:0:0
200,208,31103,5,2,0:0:0
160,56,31403,2,0,B|232:152,1,106.666666666667
272,200,31703,1,2,0:0:0
232,376,32003,2,0,B|304:280,1,106.666666666667
336,232,32303,2,0,B|368:272|432:272|472:240|488:192|472:144|440:120|408:112,1,266.666666666667,2|0,0:0|0:0,0:0:0
392,184,32903,6,0,B|240:120,1,160,2|10,0:0|0:0,0:0:0
208,104,33303,1,8,0:0:0
168,88,33403,1,8,0:0:0
128,72,33503,6,0,B|72:104|80:168,1,106.666666666667,2|0,0:0|0:0,0:0:0
88,232,33803,2,0,B|96:296|168:320,1,106.666666666667,2|0,0:0|0:0,0:0:0
224,328,34103,2,0,B|288:336|328:304,1,106.666666666667,2|0,0:0|0:0,0:0:0
376,256,34403,2,0,B|416:208|392:136,1,106.666666666667,2|0,0:0|0:0,0:0:0
368,88,34703,5,2,0:0:0
192,40,35003,1,8,0:0:0
304,120,35203,1,0,0:0:0
304,120,35303,2,0,B|312:160|368:176|400:152,1,106.666666666667,2|0,0:0|0:0,0:0:0
440,104,35603,2,0,B|448:64|416:16|368:16,1,106.666666666667,2|0,0:0|0:0,0:0:0
368,88,35903,6,0,B|280:16,1,106.666666666667,4|0,0:0|0:0,0:0:0
304,120,36203,2,0,B|184:96,1,106.666666666667,8|0,0:0|0:0,0:0:0
272,184,36503,2,0,B|160:216,1,106.666666666667,8|0,0:0|0:0,0:0:0
272,256,36803,1,0,0:0:0
104,184,37003,1,8,0:0:0
104,184,37303,6,0,B|72:232|120:304|184:288,1,160,4|0,0:0|0:0,0:0:0
240,320,37703,2,0,B|272:336|320:328|336:288,1,106.666666666667,2|0,0:0|0:0,0:0:0
392,256,38003,2,0,B|448:272|496:240,1,106.666666666667,2|0,0:0|0:0,0:0:0
496,168,38303,6,0,B|448:136|392:152,1,106.666666666667,2|0,0:0|0:0,0:0:0
320,168,38603,2,0,B|264:192|248:256,1,106.666666666667,2|0,0:0|0:0,0:0:0
240,320,38903,2,0,B|192:352|128:336,1,106.666666666667,0|0,0:0|0:0,0:0:0
64,320,39203,2,0,B|8:296|-8:240,1,106.666666666667,2|0,0:0|0:0,0:0:0
48,128,39503,6,0,B|72:72|128:64,1,106.666666666667,2|0,0:0|0:0,0:0:0
200,56,39803,2,0,B|264:56|304:104,1,106.666666666667,2|0,0:0|0:0,0:0:0
320,168,40103,2,0,B|288:184|280:240|312:272,1,106.666666666667,0|0,0:0|0:0,0:0:0
368,296,40403,2,0,B|408:296|440:264|440:232,1,106.666666666667,2|0,0:0|0:0,0:0:0
368,224,40703,6,0,B|432:104,1,106.666666666667,4|0,0:0|0:0,0:0:0
320,168,41003,2,0,B|336:48,1,106.666666666667,8|0,0:0|0:0,0:0:0
248,160,41303,2,0,B|216:48,1,106.666666666667,8|0,0:0|0:0,0:0:0
184,192,41603,1,0,0:0:0
280,24,41803,1,8,0:0:0
280,24,42103,6,0,B|304:56|296:104|256:136|208:128,1,160,4|0,0:0|0:0,0:0:0
136,136,42503,2,0,B|80:144|32:96,1,106.666666666667,2|0,0:0|0:0,0:0:0
112,208,42803,2,0,B|48:216|24:272,1,106.666666666667,2|0,0:0|0:0,0:0:0
48,336,43103,6,0,B|96:368|152:344,1,106.666666666667,2|0,0:0|0:0,0:0:0
216,320,43403,2,0,B|272:296|280:240,1,106.666666666667,2|0,0:0|0:0,0:0:0
280,168,43703,2,0,B|256:112|304:64,1,106.666666666667
360,32,44003,2,0,B|408:0|464:24,1,106.666666666667,2|0,0:0|0:0,0:0:0
472,144,44303,6,0,B|504:192|480:256,1,106.666666666667,2|0,0:0|0:0,0:0:0
456,312,44603,2,0,B|416:360|352:352,1,106.666666666667,2|0,0:0|0:0,0:0:0
288,344,44903,2,0,B|224:336|200:288,1,106.666666666667
232,224,45203,2,0,B|168:208,2,53.3333333333333,10|8|8,0:0|0:0|0:0,0:0:0
304,240,45503,6,0,B|432:208,1,106.666666666667,4|0,0:0|0:0,0:0:0
254,186,45803,2,0,B|344:120,1,106.666666666667,8|0,0:0|0:0,0:0:0
184,160,46103,2,0,B|224:40,1,106.666666666667,8|0,0:0|0:0,0:0:0
112,168,46403,1,0,0:0:0
288,56,46603,1,8,0:0:0
288,56,46903,6,0,B|232:40|152:64|128:128,1,160,4|0,0:0|0:0,0:0:0
112,168,47303,2,0,B|144:216|128:272,1,106.666666666667,2|0,0:0|0:0,0:0:0
184,320,47603,2,0,B|240:312|288:360,1,106.666666666667,2|0,0:0|0:0,0:0:0
352,360,47903,6,0,B|408:368|456:328,1,106.666666666667,2|0,0:0|0:0,0:0:0
496,272,48203,2,0,B|520:224|496:168,1,106.666666666667,2|0,0:0|0:0,0:0:0
464,104,48503,2,0,B|432:56|376:48,1,106.666666666667
304,48,48803,2,0,B|248:48|216:104,1,106.666666666667,2|0,0:0|0:0,0:0:0
304,184,49103,6,0,B|272:240|208:240,1,106.666666666667,2|0,0:0|0:0,0:0:0
152,224,49403,2,0,B|96:192|96:128,1,106.666666666667,2|0,0:0|0:0,0:0:0
104,72,49703,2,0,B|120:128|72:192|16:192,1,160,0|2,0:0|0:0,0:0:0
64,304,50203,1,0,0:0:0
64,304,50303,6,0,B|224:328,2,160,0|8|0,0:0|0:0|0:0,0:0:0
120,184,51103,1,0,0:0:0
120,184,51203,1,8,0:0:0
248,160,51403,1,0,0:0:0
248,160,51503,6,0,B|296:320,2,160,0|8|0,0:0|0:0|0:0,0:0:0
384,184,52303,1,0,0:0:0
384,184,52403,1,8,0:0:0
464,288,52603,1,0,0:0:0
464,288,52703,6,0,B|488:232|456:176,1,106.666666666667,8|0,0:0|0:0,0:0:0
424,120,53003,2,0,B|392:72|328:64,1,106.666666666667,8|0,0:0|0:0,0:0:0
264,64,53303,2,0,B|208:64|168:104,1,106.666666666667,8|0,0:0|0:0,0:0:0
128,168,53603,1,8,0:0:0
128,168,53803,5,2,0:0:0
264,64,54103,1,2,0:0:0
424,120,54403,1,2,0:0:0
464,288,54703,1,2,0:0:0
464,288,54803,2,0,B|416:296|376:248,1,85.3333333333333
464,288,55103,6,0,B|456:336|392:360|344:328,1,127.99999609375,2|0,0:0|0:0,0:0:0
296,312,55403,2,0,B|256:256|288:184,1,127.99999609375,10|0,0:0|0:0,0:0:0
256,128,55703,2,0,B|192:104|176:32,1,127.99999609375,2|0,0:0|0:0,0:0:0
104,24,56003,1,10,0:0:0
256,128,56203,6,0,B|200:96|200:96|128:104|112:176,1,191.999994140625,2|0,0:0|0:0,0:0:0
112,248,56603,2,0,B|120:320|192:344,1,127.99999609375,10|0,0:0|0:0,0:0:0
256,320,56903,2,0,B|376:264,1,127.99999609375,2|0,0:0|0:0,0:0:0
440,240,57203,2,0,B|456:112,1,127.99999609375,8|0,0:0|0:0,0:0:0
424,48,57503,6,0,B|352:32|296:72,1,127.99999609375,2|0,0:0|0:0,0:0:0
256,128,57803,2,0,B|216:184|256:256,1,127.99999609375,10|0,0:0|0:0,0:0:0
304,304,58103,2,0,B|360:344|432:320,1,127.99999609375,2|0,0:0|0:0,0:0:0
496,304,58403,1,10,0:0:0
304,304,58603,6,0,B|360:328|360:328|416:280|392:208,1,191.999994140625,2|0,0:0|0:0,0:0:0
368,144,59003,2,0,B|328:80|256:80,1,127.99999609375,10|0,0:0|0:0,0:0:0
192,96,59303,2,0,B|80:160,1,127.99999609375,2|8,0:0|0:0,0:0:0
72,192,59603,1,8,0:0:0
64,224,59703,1,8,0:0:0
56,256,59803,1,8,0:0:0
48,288,59903,6,0,B|96:336|168:320,1,127.99999609375,2|0,0:0|0:0,0:0:0
240,312,60203,2,0,B|312:296|328:224,1,127.99999609375,10|0,0:0|0:0,0:0:0
328,152,60503,2,0,B|328:80|272:40,1,127.99999609375,2|0,0:0|0:0,0:0:0
208,16,60803,1,10,0:0:0
328,152,61003,6,0,B|320:96|320:96|248:120|232:200,1,191.999994140625,2|0,0:0|0:0,0:0:0
240,264,61403,2,0,B|272:328|344:328,1,127.99999609375,10|2,0:0|0:0,0:0:0
416,320,61703,2,0,B|480:288|480:208,1,127.99999609375,2|0,0:0|0:0,0:0:0
480,144,62003,2,0,B|456:72|384:48,1,127.99999609375,10|0,0:0|0:0,0:0:0
320,40,62303,6,0,B|232:32|176:80,1,127.99999609375,2|0,0:0|0:0,0:0:0
16,96,62603,2,0,B|104:88|160:136,1,127.99999609375,8|0,0:0|0:0,0:0:0
336,120,62903,2,0,B|248:112|192:160,1,127.99999609375,2|0,0:0|0:0,0:0:0
0,176,63203,2,0,B|88:168|144:216,1,127.99999609375,8|0,0:0|0:0,0:0:0
176,288,63503,6,0,B|264:296|320:248,1,127.99999609375,2|0,0:0|0:0,0:0:0
360,224,63803,2,0,B|416:168|408:80,1,127.99999609375,10|0,0:0|0:0,0:0:0
392,40,64103,5,2,0:0:0
319,15,64203,1,2,0:0:0
242,21,64303,1,0,0:0:0
179,66,64403,1,10,0:0:0
152,138,64503,1,10,0:0:0
159,214,64603,1,8,0:0:0
200,280,64703,6,0,B|80:232,1,127.99999609375,2|2,0:0|0:0,0:0:0
248,136,65003,2,0,B|128:88,1,127.99999609375,10|0,0:0|0:0,0:0:0
48,136,65303,2,0,B|248:216,1,191.999994140625,2|10,0:0|0:0,0:0:0
248,344,65803,6,0,B|328:352|368:296|368:296|440:320,1,191.999994140625,2|0,0:0|0:0,0:0:0
488,280,66203,2,0,B|528:216|496:144,1,127.99999609375,10|0,0:0|0:0,0:0:0
472,88,66503,2,0,B|432:24|352:32,1,127.99999609375,2|0,0:0|0:0,0:0:0
296,64,66803,2,0,B|176:120,1,127.99999609375,10|0,0:0|0:0,0:0:0
128,168,67103,6,0,B|88:224|120:288,1,127.99999609375,2|0,0:0|0:0,0:0:0
168,344,67403,2,0,B|216:384|296:368,1,127.99999609375,10|0,0:0|0:0,0:0:0
368,360,67703,2,0,B|440:328|448:256,1,127.99999609375,2|0,0:0|0:0,0:0:0
464,184,68003,1,10,0:0:0
368,360,68203,6,0,B|408:336|408:336|360:304|360:240|392:208,1,191.999994140625,2|2,0:0|0:0,0:0:0
464,184,68603,2,0,B|448:136|392:120|352:144,1,127.99999609375,10|2,0:0|0:0,0:0:0
312,192,68903,2,0,B|280:248|304:320,1,127.99999609375,6|0,0:0|0:0,0:0:0
288,344,69203,1,8,0:0:0
264,360,69303,1,8,0:0:0
232,368,69403,1,8,0:0:0
200,368,69503,6,0,B|152:320|176:248,1,127.99999609375,2|2,0:0|0:0,0:0:0
168,176,69803,2,0,B|184:96|256:72,1,127.99999609375,10|0,0:0|0:0,0:0:0
288,24,70103,2,0,B|352:0|416:32,1,127.99999609375,2|2,0:0|0:0,0:0:0
472,72,70403,1,10,0:0:0
288,24,70603,6,0,B|352:16|352:16|320:80|368:136,1,191.999994140625,2|0,0:0|0:0,0:0:0
416,192,71003,2,0,B|432:264|368:320,1,127.99999609375,10|2,0:0|0:0,0:0:0
312,344,71303,2,0,B|248:368|176:320,1,127.99999609375,2|0,0:0|0:0,0:0:0
144,272,71603,2,0,B|112:120,1,127.99999609375,10|0,0:0|0:0,0:0:0
104,72,71903,6,0,B|152:16|232:40,1,127.99999609375,2|0,0:0|0:0,0:0:0
352,136,72203,2,0,B|304:192|224:168,1,127.99999609375,10|0,0:0|0:0,0:0:0
152,40,72503,6,0,B|224:16|272:72,1,127.99999609375,2|0,0:0|0:0,0:0:0
304,168,72803,2,0,B|232:192|184:136,1,127.99999609375,10|0,0:0|0:0,0:0:0
268,68,73103,6,0,B|472:16,1,191.999994140625,2|10,0:0|0:0,0:0:0
496,120,73703,1,8,0:0:0
464,128,73803,1,8,0:0:0
432,136,73903,1,8,0:0:0
400,144,74003,1,8,0:0:0
368,152,74103,1,8,0:0:0
336,160,74203,1,8,0:0:0
304,168,74303,5,4,0:0:0
128,184,83903,5,2,0:0:0
160,336,84203,2,0,B|192:208,1,106.666666666667,0|0,0:0|0:0,0:0:0
200,160,84503,1,2,0:0:0
136,16,84803,2,0,B|216:88,1,106.666666666667,0|0,0:0|0:0,0:0:0
272,136,85103,2,0,B|320:176|376:152,1,106.666666666667,2|2,0:0|0:0,0:0:0
200,160,85603,5,0,0:0:0
200,160,85703,2,0,B|224:208|280:224,1,106.666666666667,2|0,0:0|0:0,0:0:0
352,232,86003,2,0,B|416:232|448:184,1,106.666666666667,2|0,0:0|0:0,0:0:0
472,120,86303,6,0,B|512:224,1,106.666666666667,2|0,0:0|0:0,0:0:0
320,168,86603,2,0,B|416:88,1,106.666666666667,2|0,0:0|0:0,0:0:0
456,264,86903,2,0,B|408:360,1,106.666666666667,2|0,0:0|0:0,0:0:0
304,192,87203,2,0,B|408:208,1,106.666666666667,2|0,0:0|0:0,0:0:0
336,368,87503,5,2,0:0:0
280,208,87803,1,0,0:0:0
152,368,88103,1,2,0:0:0
208,208,88303,1,0,0:0:0
195,250,88403,1,2,0:0:0
24,296,88603,1,0,0:0:0
8,256,88703,5,2,0:0:0
136,72,89003,2,0,B|96:192,1,106.666666666667
80,240,89303,1,2,0:0:0
272,360,89603,2,0,B|192:264,1,106.666666666667
152,224,89903,2,0,B|173:197|220:192|253:217,1,106.666666666667,2|2,0:0|0:0,0:0:0
80,240,90403,5,0,0:0:0
80,240,90503,2,0,B|80:176|136:152,1,106.666666666667,2|0,0:0|0:0,0:0:0
200,136,90803,2,0,B|264:136|304:176,1,106.666666666667,2|0,0:0|0:0,0:0:0
336,232,91103,6,0,B|336:296|392:320|392:320|416:384,1,160,2|2,0:0|0:0,0:0:0
504,280,91603,1,0,0:0:0
504,280,91703,2,0,B|504:216|448:192|448:192|424:128,1,160,2|2,0:0|0:0,0:0:0
368,40,92203,1,0,0:0:0
368,40,92303,5,2,0:0:0
184,80,92603,1,0,0:0:0
344,112,92803,1,2,0:0:0
344,112,92903,2,0,B|288:96|240:128,1,106.666666666667,2|8,0:0|0:0,0:0:0
216,152,93203,1,8,0:0:0
208,184,93303,1,8,0:0:0
216,216,93403,1,8,0:0:0
240,240,93503,6,0,B|272:296|240:344,1,106.666666666667
144,272,93803,2,0,B|112:216|144:168,1,106.666666666667,2|2,0:0|0:0,0:0:0
200,96,94103,2,0,B|248:64|304:80,1,106.666666666667
384,160,94403,2,0,B|336:192|280:176,1,106.666666666667,2|2,0:0|0:0,0:0:0
208,168,94703,6,0,B|56:120,1,160,0|2,0:0|0:0,0:0:0
120,32,95203,1,0,0:0:0
120,32,95303,1,0,0:0:0
224,16,95503,1,0,0:0:0
224,16,95603,1,2,0:0:0
328,48,95803,1,2,0:0:0
328,48,95903,6,0,B|320:112|368:152,1,106.666666666667
416,192,96203,2,0,B|464:224|520:192,1,106.666666666667,2|2,0:0|0:0,0:0:0
360,144,96503,2,0,B|296:136|256:192,1,106.666666666667
240,248,96803,2,0,B|224:304|272:352,1,106.666666666667,2|2,0:0|0:0,0:0:0
336,368,97103,5,0,0:0:0
416,192,97403,1,2,0:0:0
320,296,97603,1,0,0:0:0
320,296,97703,1,0,0:0:0
184,320,97903,1,0,0:0:0
184,320,98003,1,2,0:0:0
64,256,98203,1,2,0:0:0
64,256,98303,6,0,B|48:192|96:144,1,106.666666666667
256,160,98603,2,0,B|216:200|144:176,1,106.666666666667,2|2,0:0|0:0,0:0:0
400,264,98903,2,0,B|336:245|319:180,1,106.666666666667
352,24,99203,2,0,B|366:78|309:128,1,106.666666666667,2|2,0:0|0:0,0:0:0
256,160,99503,6,0,B|272:112|368:104|400:160,1,160,0|2,0:0|0:0,0:0:0
472,304,100003,1,0,0:0:0
472,304,100103,2,0,B|456:352|360:360|328:304,1,160,0|2,0:0|0:0,0:0:0
256,160,100603,5,2,0:0:0
256,160,100703,2,0,B|192:144|152:184,1,106.666666666667
120,240,101003,2,0,B|96:296|136:352,1,106.666666666667,2|2,0:0|0:0,0:0:0
224,280,101303,2,0,B|288:296|328:256,1,106.666666666667
360,200,101603,2,0,B|384:144|344:88,1,106.666666666667,2|2,0:0|0:0,0:0:0
304,40,101903,5,0,0:0:0
128,136,102203,1,2,0:0:0
280,112,102403,1,2,0:0:0
280,112,102503,2,0,B|240:232,1,106.666666666667,4|0,0:0|0:0,0:0:0
224,280,102803,2,0,B|96:320,1,106.666666666667,2|2,0:0|0:0,0:0:0
56,288,103103,6,0,B|32:224|80:176,1,106.666666666667,4|0,0:0|0:0,0:0:0
72,104,103403,2,0,B|136:104|160:176,1,106.666666666667,8|0,0:0|0:0,0:0:0
224,216,103703,2,0,B|184:264|128:248,1,106.666666666667,8|0,0:0|0:0,0:0:0
69,187,104003,1,0,0:0:0
304,232,104203,1,8,0:0:0
304,232,104503,6,0,B|296:280|240:336|176:328,1,160,4|0,0:0|0:0,0:0:0
192,256,104903,2,0,B|208:192|272:168,1,106.666666666667,2|0,0:0|0:0,0:0:0
328,160,105203,2,0,B|392:152|432:184,1,106.666666666667,2|0,0:0|0:0,0:0:0
488,216,105503,6,0,B|448:176|456:112,1,106.666666666667,2|0,0:0|0:0,0:0:0
400,72,105803,2,0,B|336:80|296:48,1,106.666666666667,2|0,0:0|0:0,0:0:0
224,64,106103,2,0,B|192:112|136:120,1,106.666666666667,0|0,0:0|0:0,0:0:0
96,184,106403,2,0,B|120:240|88:288,1,106.666666666667,2|0,0:0|0:0,0:0:0
184,352,106703,6,0,B|232:384|288:360,1,106.666666666667,2|0,0:0|0:0,0:0:0
352,336,107003,2,0,B|408:304|408:240,1,106.666666666667,2|0,0:0|0:0,0:0:0
408,176,107303,2,0,B|408:120|360:80,1,106.666666666667
296,48,107603,2,0,B|160:80,1,106.666666666667,2|0,0:0|0:0,0:0:0
144,128,107903,6,0,B|120:184|160:232,1,106.666666666667,4|0,0:0|0:0,0:0:0
176,296,108203,2,0,B|236:288|258:230,1,106.666666666667,8|0,0:0|0:0,0:0:0
304,184,108503,2,0,B|267:135|205:145,1,106.666666666667,8|0,0:0|0:0,0:0:0
136,176,108803,1,0,0:0:0
352,128,109003,1,8,0:0:0
352,128,109303,6,0,B|312:80|248:64|192:72,1,160,4|0,0:0|0:0,0:0:0
224,144,109703,2,0,B|256:192|328:192,1,106.666666666667,2|0,0:0|0:0,0:0:0
392,192,110003,2,0,B|456:192|488:144,1,106.666666666667,2|0,0:0|0:0,0:0:0
488,72,110303,6,0,B|456:32|392:32,1,106.666666666667,2|0,0:0|0:0,0:0:0
320,40,110603,2,0,B|256:56|240:112,1,106.666666666667,2|0,0:0|0:0,0:0:0
256,176,110903,2,0,B|280:232|240:280,1,106.666666666667
184,320,111203,2,0,B|136:352|80:328,1,106.666666666667,2|0,0:0|0:0,0:0:0
0,200,111503,6,0,B|8:136|72:104,1,106.666666666667,2|0,0:0|0:0,0:0:0
128,88,111803,2,0,B|184:72|232:112,1,106.666666666667,2|0,0:0|0:0,0:0:0
272,168,112103,2,0,B|328:264,1,106.666666666667
400,280,112403,2,0,B|432:336,2,53.3333333333333,10|8|8,0:0|0:0|0:0,0:0:0
448,224,112703,6,0,B|464:168|416:112,1,106.666666666667
352,96,113003,2,0,B|295:110|271:179,1,106.666666666667,8|0,0:0|0:0,0:0:0
288,240,113303,2,0,B|328:281|400:268,1,106.666666666667,8|0,0:0|0:0,0:0:0
448,224,113603,1,0,0:0:0
216,248,113803,1,8,0:0:0
216,248,114103,6,0,B|224:304|304:352|360:336,1,160,4|0,0:0|0:0,0:0:0
328,264,114503,2,0,B|312:200|248:184,1,106.666666666667,2|0,0:0|0:0,0:0:0
184,176,114803,2,0,B|128:176|88:232,1,106.666666666667,2|0,0:0|0:0,0:0:0
64,288,115103,6,0,B|72:232|32:184,1,106.666666666667,2|0,0:0|0:0,0:0:0
72,128,115403,2,0,B|128:104|144:40,1,106.666666666667,2|0,0:0|0:0,0:0:0
208,72,115703,2,0,B|256:104|320:72,1,106.666666666667
376,104,116003,2,0,B|408:152|472:160,1,106.666666666667,2|0,0:0|0:0,0:0:0
488,272,116303,6,0,B|456:320|384:320,1,106.666666666667,2|0,0:0|0:0,0:0:0
320,312,116603,2,0,B|256:304|232:240,1,106.666666666667,2|0,0:0|0:0,0:0:0
216,184,116903,2,0,B|200:120|256:80,1,106.666666666667
176,112,117203,2,0,B|128:144|72:120,1,106.666666666667,2|0,0:0|0:0,0:0:0
128,168,117503,6,0,B|216:304,2,160,0|8|0,0:0|0:0|0:0,0:0:0
240,144,118303,1,0,0:0:0
240,144,118403,1,8,0:0:0
336,208,118603,1,0,0:0:0
336,208,118703,6,0,B|512:248,2,160,0|8|0,0:0|0:0|0:0,0:0:0
392,112,119503,1,0,0:0:0
392,112,119603,1,8,0:0:0
504,88,119803,1,0,0:0:0
504,88,119903,6,0,B|464:48|408:40,1,106.666666666667,8|0,0:0|0:0,0:0:0
344,56,120203,2,0,B|280:80|272:144,1,106.666666666667,8|0,0:0|0:0,0:0:0
272,200,120503,2,0,B|272:264|328:304,1,106.666666666667,8|0,0:0|0:0,0:0:0
376,328,120803,1,8,0:0:0
376,328,121003,5,2,0:0:0
272,200,121303,1,2,0:0:0
344,56,121603,1,2,0:0:0
344,56,121703,5,8,0:0:0
298,39,121803,1,8,0:0:0
251,51,121903,1,8,0:0:0
220,87,122003,1,8,0:0:0
212,134,122103,1,8,0:0:0
229,178,122203,1,8,0:0:0
272,200,122303,6,0,B|296:272|232:328,1,127.99999609375,2|0,0:0|0:0,0:0:0
176,352,122603,2,0,B|112:376|48:336,1,127.99999609375,10|0,0:0|0:0,0:0:0
8,280,122903,2,0,B|-32:216|0:152,1,127.99999609375,2|0,0:0|0:0,0:0:0
32,96,123203,1,10,0:0:0
8,280,123403,6,0,B|-8:232|-8:232|24:200|88:192|128:232,1,191.999994140625,2|0,0:0|0:0,0:0:0
184,264,123803,2,0,B|240:304|320:264,1,127.99999609375,10|2,0:0|0:0,0:0:0
376,240,124103,2,0,B|432:208|432:128,1,127.99999609375,2|0,0:0|0:0,0:0:0
424,56,124403,2,0,B|304:16,1,127.99999609375,8|0,0:0|0:0,0:0:0
232,32,124703,6,0,B|152:32|120:96,1,127.99999609375,2|0,0:0|0:0,0:0:0
104,160,125003,2,0,B|88:224|144:288,1,127.99999609375,10|0,0:0|0:0,0:0:0
200,320,125303,2,0,B|272:352|336:320,1,127.99999609375,2|0,0:0|0:0,0:0:0
384,288,125603,1,10,0:0:0
200,320,125803,6,0,B|256:336|256:336|280:264|232:208,1,191.999994140625,2|0,0:0|0:0,0:0:0
200,144,126203,2,0,B|208:72|272:48,1,127.99999609375,10|0,0:0|0:0,0:0:0
344,32,126503,2,0,B|408:24|464:80,1,127.99999609375,2|0,0:0|0:0,0:0:0
480,112,126803,1,8,0:0:0
488,152,126903,1,8,0:0:0
480,192,127003,1,8,0:0:0
456,224,127103,6,0,B|408:280|336:264,1,127.99999609375,2|0,0:0|0:0,0:0:0
272,288,127403,2,0,B|200:280|168:208,1,127.99999609375,10|2,0:0|0:0,0:0:0
104,200,127703,2,0,B|64:144|96:80,1,127.99999609375,2|0,0:0|0:0,0:0:0
144,24,128003,1,10,0:0:0
104,200,128203,6,0,B|80:144|80:144|144:168|208:136,1,191.999994140625,2|0,0:0|0:0,0:0:0
264,88,128603,2,0,B|328:56|400:96,1,127.99999609375,10|2,0:0|0:0,0:0:0
456,128,128903,2,0,B|512:176|496:248,1,127.99999609375,2|0,0:0|0:0,0:0:0
480,312,129203,2,0,B|448:376|368:376,1,127.99999609375,10|2,0:0|0:0,0:0:0
312,344,129503,6,0,B|168:320,1,127.99999609375,2|0,0:0|0:0,0:0:0
160,240,129803,2,0,B|304:264,1,127.99999609375,8|0,0:0|0:0,0:0:0
336,192,130103,2,0,B|192:168,1,127.99999609375,2|0,0:0|0:0,0:0:0
184,88,130403,2,0,B|328:112,1,127.99999609375,8|0,0:0|0:0,0:0:0
368,40,130703,6,0,B|304:8|240:40,1,127.99999609375,2|0,0:0|0:0,0:0:0
184,88,131003,2,0,B|144:144|176:208,1,127.99999609375,10|0,0:0|0:0,0:0:0
224,272,131303,5,2,0:0:0
296,296,131403,1,2,0:0:0
368,280,131503,1,0,0:0:0
424,232,131603,1,10,0:0:0
448,160,131703,1,10,0:0:0
424,88,131803,1,8,0:0:0
368,40,131903,6,0,B|304:8|240:40,1,127.99999609375,2|2,0:0|0:0,0:0:0
176,72,132203,2,0,B|112:112|112:184,1,127.99999609375,10|0,0:0|0:0,0:0:0
120,248,132503,2,0,B|128:320|192:352,1,127.99999609375,2|0,0:0|0:0,0:0:0
256,368,132803,1,10,0:0:0
120,248,133003,6,0,B|136:304|136:304|208:304|248:240,1,191.999994140625,2|0,0:0|0:0,0:0:0
280,176,133403,2,0,B|312:112|384:104,1,127.99999609375,10|0,0:0|0:0,0:0:0
456,120,133703,2,0,B|512:160|512:240,1,127.99999609375,2|0,0:0|0:0,0:0:0
496,304,134003,2,0,B|368:352,1,127.99999609375,8|0,0:0|0:0,0:0:0
296,344,134303,6,0,B|232:368|168:328,1,127.99999609375,2|2,0:0|0:0,0:0:0
112,288,134603,2,0,B|56:232|80:144,1,127.99999609375,10|0,0:0|0:0,0:0:0
88,96,134903,2,0,B|112:32|192:24,1,127.99999609375,2|2,0:0|0:0,0:0:0
264,16,135203,1,8,0:0:0
88,96,135403,6,0,B|120:48|120:48|128:88|200:120|240:72,1,191.999994140625,2|2,0:0|0:0,0:0:0
264,16,135803,2,0,B|304:32|320:88|288:128,1,127.99999609375,10|2,0:0|0:0,0:0:0
232,160,136103,2,0,B|168:184|104:144,1,127.99999609375,6|0,0:0|0:0,0:0:0
64,168,136403,1,8,0:0:0
40,208,136503,1,8,0:0:0
48,256,136603,1,8,0:0:0
72,296,136703,6,0,B|128:336|200:320,1,127.99999609375,2|2,0:0|0:0,0:0:0
264,336,137003,2,0,B|344:312|368:248,1,127.99999609375,10|0,0:0|0:0,0:0:0
424,224,137303,2,0,B|440:152|408:96,1,127.99999609375,2|2,0:0|0:0,0:0:0
368,40,137603,1,10,0:0:0
424,224,137803,6,0,B|432:168|432:168|400:128|328:128|296:168,1,191.999994140625,2|2,0:0|0:0,0:0:0
248,200,138203,2,0,B|208:256|248:320,1,127.99999609375,10|0,0:0|0:0,0:0:0
312,360,138503,2,0,B|384:384|440:344,1,127.99999609375,2|2,0:0|0:0,0:0:0
488,296,138803,2,0,B|528:240|504:168,1,127.99999609375,10|0,0:0|0:0,0:0:0
472,104,139103,6,0,B|432:48|360:48,1,127.99999609375,2|0,0:0|0:0,0:0:0
200,120,139403,2,0,B|240:176|312:176,1,127.99999609375,10|0,0:0|0:0,0:0:0
424,64,139703,6,0,B|360:32|304:72,1,127.99999609375,2|0,0:0|0:0,0:0:0
248,160,140003,2,0,B|312:192|368:152,1,127.99999609375,10|0,0:0|0:0,0:0:0
303,72,140303,6,0,B|104:32,1,191.999994140625,2|10,0:0|0:0,0:0:0
136,144,140903,1,8,0:0:0
144,176,141003,1,8,0:0:0
152,208,141103,1,8,0:0:0
160,240,141203,1,8,0:0:0
168,272,141303,1,8,0:0:0
176,304,141403,1,8,0:0:0
184,336,141503,5,4,0:0:0
184,336,142003,1,0,0:0:0
184,336,142103,2,0,B|288:368,1,95.9999970703126,2|0,0:0|0:0,0:0:0
184,336,142703,1,2,0:0:0
112,312,142903,1,2,0:0:0
112,312,143003,1,0,0:0:0
72,248,143203,1,0,0:0:0
72,248,143303,1,2,0:0:0
336,248,143603,5,2,0:0:0
72,248,143903,5,2,0:0:0
72,248,144403,1,0,0:0:0
72,248,144503,2,0,B|88:368,1,95.9999970703126,2|0,0:0|0:0,0:0:0
72,248,145103,1,2,0:0:0
64,176,145303,1,2,0:0:0
64,176,145403,1,0,0:0:0
96,112,145603,1,0,0:0:0
96,112,145703,1,2,0:0:0
360,112,146003,5,2,0:0:0
96,112,146303,5,2,0:0:0
96,112,146803,1,0,0:0:0
96,112,146903,2,0,B|0:160,1,95.9999970703126,2|0,0:0|0:0,0:0:0
96,112,147503,1,2,0:0:0
160,80,147703,1,2,0:0:0
160,80,147803,1,0,0:0:0
232,88,148003,1,0,0:0:0
232,88,148103,1,2,0:0:0
496,88,148403,5,2,0:0:0
232,88,148703,5,2,0:0:0
232,88,149203,1,0,0:0:0
232,88,149303,2,0,B|288:8,1,95.9999970703126,2|0,0:0|0:0,0:0:0
232,88,149903,1,2,0:0:0
184,144,150103,1,2,0:0:0
184,144,150203,1,0,0:0:0
176,216,150403,1,0,0:0:0
176,216,150503,1,2,0:0:0
440,216,150803,5,0,0:0:0
176,216,151103,6,0,B|160:272|208:320,1,106.666666666667,6|0,0:0|0:0,0:0:0
264,352,151403,2,0,B|312:376|368:352,1,106.666666666667
432,320,151703,2,0,B|472:272|456:216,1,106.666666666667,2|0,0:0|0:0,0:0:0
440,152,152003,2,0,B|424:96|352:80,1,106.666666666667
296,72,152303,1,2,0:0:0
200,112,152503,1,2,0:0:0
200,112,152603,1,0,0:0:0
112,56,152803,1,0,0:0:0
112,56,152903,1,2,0:0:0
376,56,153203,5,0,0:0:0
112,56,153503,6,0,B|72:96|96:160,1,106.666666666667,2|0,0:0|0:0,0:0:0
120,224,153803,2,0,B|144:280|208:288,1,106.666666666667
272,288,154103,2,0,B|336:288|368:248,1,106.666666666667,2|0,0:0|0:0,0:0:0
416,200,154403,2,0,B|456:152|432:88,1,106.666666666667
408,32,154703,1,2,0:0:0
304,16,154903,1,2,0:0:0
304,16,155003,1,0,0:0:0
224,88,155203,1,0,0:0:0
224,88,155303,1,2,0:0:0
488,88,155603,5,0,0:0:0
224,88,155903,6,0,B|160:96|136:160,1,106.666666666667,4|0,0:0|0:0,0:0:0
224,168,156203,2,0,B|184:224|208:280,1,106.666666666667,2|2,0:0|0:0,0:0:0
296,128,156503,2,0,B|360:136|384:200,1,106.666666666667,0|0,0:0|0:0,0:0:0
296,208,156803,2,0,B|336:264|312:320,1,106.666666666667,2|0,0:0|0:0,0:0:0
224,168,157103,6,0,B|168:160|128:208,1,106.666666666667,4|0,0:0|0:0,0:0:0
200,248,157403,2,0,B|152:288|168:352,1,106.666666666667,2|2,0:0|0:0,0:0:0
296,208,157703,2,0,B|352:200|392:248,1,106.666666666667
320,288,158003,2,0,B|368:328|352:392,1,106.666666666667,2|0,0:0|0:0,0:0:0
256,360,158303,5,0,0:0:0
136,328,158603,1,2,0:0:0
80,216,158903,1,0,0:0:0
128,104,159203,2,0,B|152:56|224:40|272:72,1,160,2|4,0:0|0:0,0:0:0
128,104,159803,5,2,0:0:0
267,69,160103,2,0,B|320:80|360:136|344:192,1,160,4|0,0:0|0:0,0:0:0
280,320,160603,1,2,0:0:0
280,320,160703,6,0,B|216:328|176:288,1,106.666666666667,4|0,0:0|0:0,0:0:0
128,240,161003,2,0,B|96:184|128:128,1,106.666666666667,2|2,0:0|0:0,0:0:0
152,72,161303,2,0,B|184:24|256:24,1,106.666666666667
320,24,161603,2,0,B|376:32|408:88,1,106.666666666667,2|2,0:0|0:0,0:0:0
424,152,161903,6,0,B|392:280,1,106.666666666667,2|0,0:0|0:0,0:0:0
272,280,162203,2,0,B|304:152,1,106.666666666667,2|0,0:0|0:0,0:0:0
424,152,162503,5,14,0:0:0
416,184,162603,1,8,0:0:0
408,216,162703,1,8,0:0:0
400,248,162803,1,8,0:0:0
392,280,162903,1,8,0:0:0
384,312,163003,1,8,0:0:0
376,344,163103,5,0,0:0:0
376,344,164003,5,0,0:0:0
256,360,164203,1,0,0:0:0
376,344,164603,5,0,0:0:0
256,360,164803,1,0,0:0:0
256,360,164903,2,0,B|136:336,1,106.666666666667
80,320,165503,6,0,B|40:256|80:192,1,127.99999609375,6|2,0:0|0:0,0:0:0
112,136,165803,2,0,B|152:80|224:88,1,127.99999609375,10|0,0:0|0:0,0:0:0
296,96,166103,2,0,B|368:112|392:176,1,127.99999609375,2|2,0:0|0:0,0:0:0
392,248,166403,1,10,0:0:0
296,96,166603,6,0,B|344:120|344:120|288:176|320:248,1,191.999994140625,2|0,0:0|0:0,0:0:0
352,312,167003,2,0,B|416:344|480:304,1,127.99999609375,10|0,0:0|0:0,0:0:0
512,248,167303,2,0,B|536:176|480:120,1,127.99999609375,2|0,0:0|0:0,0:0:0
464,104,167603,1,8,0:0:0
440,80,167703,1,8,0:0:0
416,56,167803,1,8,0:0:0
392,32,167903,6,0,B|328:8|264:32,1,127.99999609375,2|0,0:0|0:0,0:0:0
200,64,168203,2,0,B|144:104|144:176,1,127.99999609375,10|0,0:0|0:0,0:0:0
144,256,168503,2,0,B|144:328|208:368,1,127.99999609375,2|0,0:0|0:0,0:0:0
272,376,168803,1,10,0:0:0
144,256,169003,6,0,B|152:304|152:304|200:240|280:248,1,191.999994140625,2|0,0:0|0:0,0:0:0
352,264,169403,2,0,B|416:288|440:352,1,127.99999609375,10|0,0:0|0:0,0:0:0
276,247,169703,2,0,B|232:184|272:112,1,127.99999609375,2|0,0:0|0:0,0:0:0
304,64,170003,2,0,B|352:16|432:32,1,127.99999609375,10|0,0:0|0:0,0:0:0
480,72,170303,6,0,B|504:208,1,127.99999609375,2|0,0:0|0:0,0:0:0
312,200,170603,2,0,B|417:111,1,127.99999609375,8|0,0:0|0:0,0:0:0
512,280,170903,2,0,B|391:236,1,127.99999609375,2|0,0:0|0:0,0:0:0
232,168,171203,2,0,B|126:256,1,127.99999609375,8|0,0:0|0:0,0:0:0
64,272,171503,6,0,B|40:200|96:152,1,127.99999609375,2|0,0:0|0:0,0:0:0
152,112,171803,2,0,B|216:80|280:112,1,127.99999609375,10|0,0:0|0:0,0:0:0
344,144,172103,5,2,0:0:0
368,216,172203,1,2,0:0:0
331,285,172303,1,0,0:0:0
256,304,172403,1,10,0:0:0
184,272,172503,1,10,0:0:0
160,200,172603,1,8,0:0:0
200,128,172703,6,0,B|328:72,1,127.99999609375,2|2,0:0|0:0,0:0:0
280,256,173003,2,0,B|408:200,1,127.99999609375,10|0,0:0|0:0,0:0:0
416,112,173303,2,0,B|224:200,1,191.999994140625,2|10,0:0|0:0,0:0:0
232,328,173803,6,0,B|192:352|128:336|104:296|104:296|48:312,1,191.999994140625,2|0,0:0|0:0,0:0:0
8,256,174203,2,0,B|-8:184|48:136,1,127.99999609375,10|0,0:0|0:0,0:0:0
112,112,174503,2,0,B|184:96|232:144,1,127.99999609375,2|0,0:0|0:0,0:0:0
264,208,174803,2,0,B|312:328,1,127.99999609375,8|0,0:0|0:0,0:0:0
376,368,175103,6,0,B|448:368|488:312,1,127.99999609375,2|0,0:0|0:0,0:0:0
512,248,175403,2,0,B|536:176|496:120,1,127.99999609375,10|0,0:0|0:0,0:0:0
448,72,175703,2,0,B|392:24|320:40,1,127.99999609375,2|0,0:0|0:0,0:0:0
256,56,176003,1,10,0:0:0
448,72,176203,6,0,B|408:48|408:48|408:96|352:136|304:112,1,191.999994140625,2|2,0:0|0:0,0:0:0
256,56,176603,2,0,B|216:80|216:144|256:168,1,127.99999609375,10|2,0:0|0:0,0:0:0
320,192,176903,2,0,B|400:200|440:144,1,127.99999609375,6|0,0:0|0:0,0:0:0
472,160,177203,1,8,0:0:0
496,192,177303,1,8,0:0:0
488,232,177403,1,8,0:0:0
456,256,177503,6,0,B|400:296|336:288,1,127.99999609375,2|2,0:0|0:0,0:0:0
272,248,177803,2,0,B|224:208|144:224,1,127.99999609375,10|0,0:0|0:0,0:0:0
80,200,178103,2,0,B|16:160|24:88,1,127.99999609375,2|2,0:0|0:0,0:0:0
48,24,178403,1,10,0:0:0
80,200,178603,6,0,B|40:160|40:160|80:96|160:104,1,191.999994140625,2|0,0:0|0:0,0:0:0
224,120,179003,2,0,B|288:144|296:224,1,127.99999609375,10|2,0:0|0:0,0:0:0
288,288,179303,2,0,B|272:352|192:368,1,127.99999609375,2|2,0:0|0:0,0:0:0
120,360,179603,2,0,B|48:336|40:240,1,127.99999609375,10|0,0:0|0:0,0:0:0
80,200,179903,6,0,B|72:128|136:88,1,127.99999609375,2|0,0:0|0:0,0:0:0
296,56,180203,2,0,B|304:128|240:168,1,127.99999609375,10|0,0:0|0:0,0:0:0
88,144,180503,6,0,B|120:72|192:72,1,127.99999609375,2|0,0:0|0:0,0:0:0
288,112,180803,2,0,B|256:184|184:184,1,127.99999609375,10|0,0:0|0:0,0:0:0
185,72,181103,6,0,B|376:16,1,191.999994140625,6|10,0:0|0:0,0:0:0
456,144,181703,1,8,0:0:0
484,186,181803,1,8,0:0:0
493,236,181903,1,8,0:0:0
481,286,182003,1,8,0:0:0
449,326,182103,1,8,0:0:0
404,350,182203,1,8,0:0:0
353,354,182303,5,4,0:0:0
