osu file format v10

[General]
AudioFilename: Utatabigarasu.mp3
AudioLeadIn: 0
PreviewTime: 54603
Countdown: 0
SampleSet: Normal
StackLeniency: 0.3
Mode: 0
LetterboxInBreaks: 0

[Editor]
DistanceSpacing: 1.05
BeatDivisor: 3
GridSize: 8

[Metadata]
Title:Utatabigarasu
TitleUnicode:Utatabigarasu
Artist:capitaro
ArtistUnicode:capitaro
Creator:NatsumeRin
Version:Normal
Source:Vocaloid
Tags:Hatsune Miku tanaka karenying Kotone
BeatmapID:179800
BeatmapSetID:59982

[Difficulty]
HPDrainRate:3
CircleSize:3
OverallDifficulty:4
ApproachRate:5
SliderMultiplier:1.12
SliderTickRate:1

[Events]
//Background and Video events
0,0,"BG.jpg"
Video,0,"PV.flv"
//Break Periods
2,74503,82703
//Storyboard Layer 0 (Background)
//Storyboard Layer 1 (Fail)
//Storyboard Layer 2 (Pass)
//Storyboard Layer 3 (Foreground)
//Storyboard Sound Samples
//Background Colour Transformations
3,100,163,162,255

[TimingPoints]
5903,300,4,1,1,70,1,0
10103,-100,4,1,1,55,0,0
10603,-100,4,1,1,70,0,0
14903,-100,4,1,1,55,0,0
15503,-100,4,2,2,50,0,0
16703,-100,4,2,1,60,0,0
21203,-100,4,1,2,60,0,0
21503,-100,4,2,1,60,0,0
25903,-100,4,1,1,60,0,0
26303,-100,4,2,1,60,0,0
30503,-100,4,2,1,45,0,0
30803,-100,4,2,1,60,0,0
33203,-100,4,2,1,45,0,0
33503,-100,4,2,1,60,0,0
34703,-100,4,2,1,70,0,0
35903,-100,4,2,1,80,0,0
37303,-100,4,2,1,70,0,0
40703,-100,4,2,1,80,0,0
42103,-100,4,2,1,70,0,0
45503,-100,4,2,1,80,0,0
46903,-100,4,2,1,70,0,0
50303,-100,4,2,1,80,0,0
52703,-100,4,2,1,90,0,0
54703,-100,4,2,1,70,0,0
55003,-100,4,2,1,30,0,0
55103,-100,4,2,1,90,0,1
59603,-100,4,2,1,70,0,1
59903,-100,4,2,1,90,0,1
64103,-100,4,1,1,70,0,1
64403,-100,4,1,1,60,0,1
64703,-100,4,2,1,90,0,1
69203,-100,4,2,1,70,0,1
69503,-100,4,2,1,90,0,1
73703,-100,4,2,1,70,0,1
74003,-100,4,2,1,60,0,1
74303,-100,4,1,2,70,0,0
83903,-100,4,2,1,60,0,0
88403,-100,4,1,2,60,0,0
88703,-100,4,2,1,60,0,0
93203,-100,4,2,1,50,0,0
93503,-100,4,1,1,70,0,0
102503,-100,4,1,0,35,0,0
102703,-100,4,1,1,70,0,0
103103,-100,4,2,1,80,0,0
104503,-100,4,2,1,70,0,0
107903,-100,4,2,1,80,0,0
109303,-100,4,2,1,70,0,0
112403,-100,4,2,1,60,0,0
112703,-100,4,2,1,80,0,0
114103,-100,4,2,1,70,0,0
117503,-100,4,2,1,80,0,0
119903,-100,4,2,1,90,0,0
121903,-100,4,2,1,70,0,0
122203,-100,4,2,1,30,0,0
122303,-100,4,2,1,90,0,1
126803,-100,4,2,1,70,0,1
127103,-100,4,2,1,90,0,1
131303,-100,4,1,1,70,0,1
131603,-100,4,1,1,60,0,1
131903,-100,4,2,1,90,0,1
136403,-100,4,2,1,70,0,1
136703,-100,4,2,1,90,0,1
140903,-100,4,2,1,70,0,1
141203,-100,4,2,1,60,0,1
141503,-133.333333333333,4,1,2,70,0,0
142003,-133.333333333333,4,2,1,50,0,0
143603,-133.333333333333,4,1,2,50,0,0
143903,-133.333333333333,4,2,1,50,0,0
146003,-133.333333333333,4,1,2,50,0,0
146303,-133.333333333333,4,2,1,50,0,0
148403,-133.333333333333,4,1,2,50,0,0
148703,-133.333333333333,4,2,1,50,0,0
150803,-133.333333333333,4,1,0,50,0,0
151103,-100,4,2,1,60,0,0
153203,-100,4,1,0,60,0,0
153503,-100,4,2,1,60,0,0
155603,-100,4,1,0,60,0,0
155903,-100,4,2,1,70,0,0
162503,-100,4,2,1,60,0,0
163103,-100,4,1,0,70,0,0
165103,-100,4,1,0,50,0,0
165503,-100,4,2,1,90,0,1
167603,-100,4,2,1,70,0,1
167903,-100,4,2,1,90,0,1
172103,-100,4,1,1,70,0,1
172403,-100,4,1,1,60,0,1
172703,-100,4,2,1,90,0,1
177203,-100,4,2,1,70,0,1
177503,-100,4,2,1,90,0,1
181703,-100,4,2,1,70,0,1
182003,-100,4,2,1,60,0,1
182303,-100,4,2,1,80,0,0

[Colours]
Combo1 : 255,0,128
Combo2 : 128,0,255
Combo3 : 255,0,255
Combo4 : 0,0,191

[HitObjects]
120,160,5903,2,0,B|160:120|232:136,2,112,0|2|0,0:0|0:0|0:0,0:0:0
72,224,6703,1,2,0:0:0
64,104,7003,2,0,B|88:72|152:48|208:56,1,149.333333333333,0|2,0:0|0:0,0:0:0
320,72,7703,1,0,0:0:0
400,160,8003,1,2,0:0:0
384,280,8303,6,0,B|448:296|488:248,2,112,0|2|0,0:0|0:0|0:0,0:0:0
312,248,9103,1,2,0:0:0
208,304,9403,2,0,B|152:328|88:304|64:256,1,149.333333333333,0|2,0:0|0:0,0:0:0
48,152,10103,2,0,B|72:96,3,37.3333333333333,8|8|8|8,0:0|0:0|0:0|0:0,0:0:0
176,88,10703,5,0,0:0:0
288,56,11003,2,0,B|352:48|400:80,1,112,2|0,0:0|0:0,0:0:0
464,120,11503,1,2,0:0:0
488,232,11803,2,0,B|464:280|392:296|336:264,1,149.333333333333,0|2,0:0|0:0,0:0:0
264,200,12503,1,0,0:0:0
152,240,12803,1,2,0:0:0
64,160,13103,5,0,0:0:0
40,48,13403,2,0,B|104:32|144:80,1,112,2|0,0:0|0:0,0:0:0
176,152,13903,1,2,0:0:0
152,264,14203,2,0,B|192:288|264:264|272:208,1,149.333333333333,0|2,0:0|0:0,0:0:0
280,96,14903,1,0,0:0:0
384,40,15203,1,2,0:0:0
488,96,15503,6,0,B|456:224,1,112,0|2,0:0|0:0,0:0:0
368,128,16103,6,0,B|336:256,1,112,0|2,0:0|0:0,0:0:0
312,352,16703,5,2,0:0:0
312,352,17303,1,2,0:0:0
312,352,17903,2,0,B|264:384|168:360|152:296,1,186.666666666667,2|0,0:0|0:0,0:0:0
128,272,18503,2,0,B|152:208|120:160,1,112,2|0,0:0|0:0,0:0:0
72,56,19103,5,2,0:0:0
192,64,19403,2,0,B|240:72|280:40,1,74.6666666666667,2|0,0:0|0:0,0:0:0
304,32,19703,1,0,0:0:0
416,72,20003,2,0,B|464:80|488:104,1,74.6666666666667,2|0,0:0|0:0,0:0:0
504,136,20303,5,2,0:0:0
408,200,20603,1,0,0:0:0
504,264,20903,1,2,0:0:0
408,328,21203,1,2,0:0:0
312,264,21503,5,2,0:0:0
312,264,22103,1,2,0:0:0
312,264,22703,2,0,B|256:232|176:240|136:288,1,186.666666666667,2|0,0:0|0:0,0:0:0
112,312,23303,2,0,B|144:256|112:192,1,112,2|0,0:0|0:0,0:0:0
64,96,23903,5,2,0:0:0
168,40,24203,2,0,B|192:72|184:112,1,74.6666666666667,2|0,0:0|0:0,0:0:0
176,152,24503,1,0,0:0:0
288,184,24803,2,0,B|288:232|240:256,1,74.6666666666667,2|0,0:0|0:0,0:0:0
224,264,25103,5,2,0:0:0
328,320,25403,1,0,0:0:0
440,280,25703,1,2,0:0:0
472,168,26003,1,2,0:0:0
416,64,26303,5,2,0:0:0
416,64,26903,1,2,0:0:0
416,64,27503,2,0,B|384:112|280:128|224:80,1,186.666666666667,2|0,0:0|0:0,0:0:0
208,80,28103,2,0,B|112:104,1,74.6666666666667,2|0,0:0|0:0,0:0:0
112,136,28403,2,0,B|16:160,1,74.6666666666667,2|0,0:0|0:0,0:0:0
16,184,28703,6,0,B|0:248|56:296,1,112,2|0,0:0|0:0,0:0:0
144,352,29303,2,0,B|200:376|256:352,1,112,2|0,0:0|0:0,0:0:0
352,288,29903,1,2,0:0:0
464,328,30203,1,0,0:0:0
440,216,30503,1,2,0:0:0
328,176,30803,1,8,0:0:0
240,256,31103,5,2,0:0:0
240,256,31703,1,2,0:0:0
240,256,32303,2,0,B|184:224|176:128|224:88,1,186.666666666667,2|0,0:0|0:0,0:0:0
248,64,32903,2,0,B|296:24|360:40,1,112,2|10,0:0|0:0,0:0:0
472,64,33503,6,0,B|456:128|392:144,1,112,2|0,0:0|0:0,0:0:0
320,232,34103,2,0,B|376:248|392:312,1,112,2|0,0:0|0:0,0:0:0
280,336,34703,5,2,0:0:0
168,368,35003,1,2,0:0:0
64,320,35303,1,2,0:0:0
32,208,35603,1,0,0:0:0
80,104,35903,6,0,B|192:88,2,112,4|8|8,0:0|0:0|0:0,0:0:0
168,184,36803,2,0,B|272:168,1,74.6666666666667,0|8,0:0|0:0,0:0:0
352,120,37303,6,0,B|392:88|464:104|488:152,1,149.333333333333,4|0,0:0|0:0,0:0:0
400,232,38003,1,2,0:0:0
312,312,38303,1,0,0:0:0
208,256,38603,1,2,0:0:0
224,136,38903,2,0,B|232:72|192:24,1,112,0|2,0:0|0:0,0:0:0
24,192,39803,1,2,0:0:0
200,352,40403,1,2,0:0:0
312,328,40703,6,0,B|432:304,2,112,4|8|8,0:0|0:0|0:0,0:0:0
368,224,41603,2,0,B|448:208,1,74.6666666666667,0|8,0:0|0:0,0:0:0
376,112,42103,6,0,B|328:96|264:128|256:184,1,149.333333333333,4|0,0:0|0:0,0:0:0
368,224,42803,1,2,0:0:0
448,136,43103,1,0,0:0:0
392,32,43403,1,2,0:0:0
280,64,43703,2,0,B|224:88|168:56,1,112,0|2,0:0|0:0,0:0:0
24,240,44603,1,2,0:0:0
256,280,45203,1,2,0:0:0
352,208,45503,6,0,B|392:80,2,112,4|8|8,0:0|0:0|0:0,0:0:0
456,160,46403,2,0,B|480:80,1,74.6666666666667,0|8,0:0|0:0,0:0:0
384,16,46903,6,0,B|328:8|280:64|296:120,1,149.333333333333,4|0,0:0|0:0,0:0:0
352,208,47603,1,2,0:0:0
280,304,47903,1,0,0:0:0
168,256,48203,1,2,0:0:0
176,136,48503,2,0,B|112:128|72:176,1,112,0|2,0:0|0:0,0:0:0
288,80,49403,1,2,0:0:0
392,128,49703,2,0,B|432:176|416:240,1,112,0|2,0:0|0:0,0:0:0
440,352,50303,6,0,B|400:368|336:344|320:304|320:304|264:344,1,186.666666666667,0|2,0:0|0:0,0:0:0
128,344,51203,1,0,0:0:0
200,256,51503,2,0,B|240:224|240:224|208:192|208:128|248:88,1,186.666666666667,2|2,0:0|0:0,0:0:0
384,40,52403,1,0,0:0:0
480,112,52703,6,0,B|448:168|376:160,1,112,8|8,0:0|0:0,0:0:0
384,288,53303,2,0,B|440:280|480:336,1,112,8|8,0:0|0:0,0:0:0
328,224,53803,6,0,B|208:224,2,112,2|2|2,0:0|0:0|0:0,0:0:0
328,224,54703,2,0,B|344:288|304:328,1,112,2|0,0:0|0:0,0:0:0
272,352,55103,6,0,B|216:376|160:352,1,112,2|2,0:0|0:0,0:0:0
64,296,55703,1,2,0:0:0
80,176,56003,1,0,0:0:0
136,120,56203,2,0,B|168:88|248:88|280:128,1,149.333333333333,2|2,0:0|0:0,0:0:0
328,224,56903,1,2,0:0:0
464,32,57503,6,0,B|416:80|336:48,1,112,2|2,0:0|0:0,0:0:0
248,32,58103,1,2,0:0:0
200,136,58403,1,0,0:0:0
232,208,58603,2,0,B|256:256|240:320|200:344,1,149.333333333333,2|2,0:0|0:0,0:0:0
104,280,59303,1,2,0:0:0
104,48,59903,6,0,B|168:40|208:88,2,112,2|2|2,0:0|0:0|0:0,0:0:0
112,168,60803,1,0,0:0:0
192,168,61003,2,0,B|224:176|264:160|280:128|280:128|352:128,1,149.333333333333,2|2,0:0|0:0,0:0:0
448,128,61703,1,0,0:0:0
480,240,62003,1,2,0:0:0
384,312,62303,5,2,0:0:0
288,240,62603,1,0,0:0:0
192,312,62903,1,2,0:0:0
80,336,63203,1,0,0:0:0
8,240,63503,6,0,B|64:120,1,112,2|2,0:0|0:0,0:0:0
96,32,64103,2,0,B|144:24|176:64,1,74.6666666666667,2|0,0:0|0:0,0:0:0
192,80,64403,2,0,B|216:112|208:160,1,74.6666666666667,2|0,0:0|0:0,0:0:0
200,192,64703,6,0,B|184:256|232:304,1,112,2|2,0:0|0:0,0:0:0
336,344,65303,1,2,0:0:0
416,256,65603,1,0,0:0:0
368,192,65803,2,0,B|408:168|448:184|448:184|496:128,1,149.333333333333,2|2,0:0|0:0,0:0:0
416,48,66503,1,2,0:0:0
184,48,67103,6,0,B|160:112|200:160,1,112,2|2,0:0|0:0,0:0:0
288,224,67703,2,0,B|256:280|184:272,1,112,2|0,0:0|0:0,0:0:0
136,216,68203,2,0,B|104:184|80:120|96:64,1,149.333333333333,2|2,0:0|0:0,0:0:0
16,168,68903,1,4,0:0:0
168,352,69503,6,0,B|224:368|272:328,1,112,2|2,0:0|0:0,0:0:0
392,328,70103,2,0,B|440:368|504:352,1,112,2|0,0:0|0:0,0:0:0
488,272,70603,2,0,B|480:224|440:176|384:168,1,149.333333333333,2|2,0:0|0:0,0:0:0
272,168,71303,1,0,0:0:0
168,232,71603,1,2,0:0:0
112,128,71903,6,0,B|80:72|112:16,1,112,2|0,0:0|0:0,0:0:0
224,56,72503,2,0,B|256:112|224:168,1,112,2|0,0:0|0:0,0:0:0
256,280,73103,1,4,0:0:0
256,280,73703,5,8,0:0:0
376,264,74003,2,0,B|392:312,3,37.3333333333333,8|8|8|4,0:0|0:0|0:0|0:0,0:0:0
424,80,83903,5,2,0:0:0
424,80,84503,1,2,0:0:0
424,80,85103,2,0,B|392:136|288:144|240:88,1,186.666666666667,2|0,0:0|0:0,0:0:0
224,88,85703,2,0,B|184:88|160:112|160:112|104:96,1,112,2|2,0:0|0:0,0:0:0
56,200,86303,6,0,B|24:248|48:312,1,112,2|0,0:0|0:0,0:0:0
152,360,86903,2,0,B|184:312|160:248,1,112,2|0,0:0|0:0,0:0:0
248,168,87503,1,2,0:0:0
360,144,87803,1,2,0:0:0
472,192,88103,2,0,B|448:248|376:256,1,112,2|2,0:0|0:0,0:0:0
272,280,88703,5,2,0:0:0
272,280,89303,1,2,0:0:0
272,280,89903,2,0,B|248:224|272:136|344:120,1,186.666666666667,2|0,0:0|0:0,0:0:0
368,112,90503,2,0,B|304:112|264:56,1,112,2|2,0:0|0:0,0:0:0
152,40,91103,5,2,0:0:0
72,120,91403,2,0,B|32:216,1,74.6666666666667,2|0,0:0|0:0,0:0:0
56,224,91703,1,2,0:0:0
168,264,92003,2,0,B|200:352,1,74.6666666666667,2|0,0:0|0:0,0:0:0
224,360,92303,2,0,B|288:376|328:328,1,112,2|2,0:0|0:0,0:0:0
408,240,92903,2,0,B|440:184|408:128,1,112,2|8,0:0|0:0,0:0:0
360,24,93503,6,0,B|296:48|288:112,1,112,0|2,0:0|0:0,0:0:0
392,320,94403,1,2,0:0:0
488,104,95003,1,2,0:0:0
392,176,95303,2,0,B|336:200|280:168,1,112,0|2,0:0|0:0,0:0:0
192,96,95903,6,0,B|80:120,1,112,0|2,0:0|0:0,0:0:0
72,240,96503,2,0,B|152:320,1,112,0|2,0:0|0:0,0:0:0
264,280,97103,2,0,B|328:264|384:304,2,112,0|2|0,0:0|0:0|0:0,0:0:0
176,200,98003,1,2,0:0:0
240,104,98303,6,0,B|304:112|352:64,1,112,0|2,0:0|0:0,0:0:0
448,280,99203,1,2,0:0:0
232,184,99803,1,2,0:0:0
160,280,100103,2,0,B|120:320|56:312,1,112,0|2,0:0|0:0,0:0:0
80,200,100703,6,0,B|56:144|96:88,1,112,0|2,0:0|0:0,0:0:0
200,48,101303,2,0,B|224:104|184:160,1,112,0|2,0:0|0:0,0:0:0
280,232,101903,1,0,0:0:0
392,200,102203,1,2,0:0:0
464,104,102503,2,0,B|416:64|352:88,1,112,0|8,0:0|0:0,0:0:0
248,120,103103,6,0,B|200:224,2,112,0|8|8,0:0|0:0|0:0,0:0:0
136,160,104003,2,0,B|96:248,1,74.6666666666667,0|8,0:0|0:0,0:0:0
192,312,104503,6,0,B|248:320|296:272|296:224,1,149.333333333333,4|0,0:0|0:0,0:0:0
248,120,105203,1,2,0:0:0
328,32,105503,1,0,0:0:0
432,80,105803,1,2,0:0:0
416,200,106103,2,0,B|400:264|440:304,1,112,0|2,0:0|0:0,0:0:0
208,352,107003,1,2,0:0:0
56,168,107603,1,2,0:0:0
168,208,107903,6,0,B|288:248,2,112,4|8|8,0:0|0:0|0:0,0:0:0
272,152,108803,2,0,B|344:176,1,74.6666666666667,0|8,0:0|0:0,0:0:0
344,56,109303,6,0,B|312:24|240:16|200:56,1,149.333333333333,4|0,0:0|0:0,0:0:0
272,152,110003,1,2,0:0:0
384,128,110303,1,0,0:0:0
416,16,110603,1,2,0:0:0
496,104,110903,2,0,B|512:168|464:216,1,112,0|2,0:0|0:0,0:0:0
272,336,111803,1,2,0:0:0
72,216,112403,2,0,B|48:272,2,37.3333333333333,8|8|8,0:0|0:0|0:0,0:0:0
88,184,112703,6,0,B|200:160,2,112,0|8|8,0:0|0:0|0:0,0:0:0
144,80,113603,2,0,B|224:64,1,74.6666666666667,0|8,0:0|0:0,0:0:0
312,136,114103,6,0,B|328:192|296:248|248:264,1,149.333333333333,4|0,0:0|0:0,0:0:0
197,160,114803,1,2,0:0:0
136,264,115103,1,0,0:0:0
200,360,115403,1,2,0:0:0
320,352,115703,1,0,0:0:0
368,248,116003,1,2,0:0:0
248,48,116603,1,2,0:0:0
360,24,116903,2,0,B|416:8|464:48,1,112,0|2,0:0|0:0,0:0:0
480,168,117503,6,0,B|512:216|432:288|456:352,1,186.666666666667,0|2,0:0|0:0,0:0:0
376,216,118403,1,0,0:0:0
272,264,118703,2,0,B|240:216|320:144|296:80,1,186.666666666667,2|2,0:0|0:0,0:0:0
160,16,119603,1,0,0:0:0
192,125,119903,6,0,B|128:149|80:93,1,112,8|8,0:0|0:0,0:0:0
32,208,120503,2,0,B|96:232|104:304,1,112,8|8,0:0|0:0,0:0:0
184,232,121003,5,2,0:0:0
184,232,121303,1,2,0:0:0
184,232,121603,1,2,0:0:0
184,232,121903,2,0,B|192:296|256:312,1,112,2|0,0:0|0:0,0:0:0
232,256,122303,6,0,B|288:280|336:240,1,112,2|2,0:0|0:0,0:0:0
408,144,122903,2,0,B|440:88|400:24,1,112,2|0,0:0|0:0,0:0:0
336,72,123403,2,0,B|288:64|224:96|208:144,1,149.333333333333,2|2,0:0|0:0,0:0:0
152,240,124103,1,2,0:0:0
376,304,124703,6,0,B|400:248|368:192,1,112,2|2,0:0|0:0,0:0:0
304,96,125303,2,0,B|264:48|208:48,1,112,2|0,0:0|0:0,0:0:0
168,120,125803,2,0,B|152:168|192:232|248:248,1,149.333333333333,2|2,0:0|0:0,0:0:0
184,352,126503,1,2,0:0:0
64,144,127103,6,0,B|128:160|168:120,1,112,2|2,0:0|0:0,0:0:0
256,40,127703,1,2,0:0:0
376,56,128003,1,0,0:0:0
392,136,128203,2,0,B|360:168|368:248|416:272,1,149.333333333333,2|2,0:0|0:0,0:0:0
496,192,128903,1,0,0:0:0
392,136,129203,1,2,0:0:0
288,192,129503,5,2,0:0:0
248,304,129803,1,0,0:0:0
128,296,130103,1,2,0:0:0
96,184,130403,1,0,0:0:0
192,120,130703,6,0,B|296:56,1,112,2|2,0:0|0:0,0:0:0
400,40,131303,2,0,B|408:80|384:112,1,74.6666666666667,2|0,0:0|0:0,0:0:0
384,152,131603,2,0,B|416:184|400:232,1,74.6666666666667,2|0,0:0|0:0,0:0:0
400,256,131903,6,0,B|384:320|328:336,1,112,2|2,0:0|0:0,0:0:0
216,296,132503,1,2,0:0:0
104,320,132803,1,0,0:0:0
32,280,133003,2,0,B|56:232|40:192|40:192|96:144,1,149.333333333333,2|2,0:0|0:0,0:0:0
184,88,133703,1,2,0:0:0
416,80,134303,6,0,B|384:136|320:136,1,112,2|2,0:0|0:0,0:0:0
224,200,134903,2,0,B|184:248|200:304,1,112,2|0,0:0|0:0,0:0:0
264,352,135403,2,0,B|320:344|360:296|360:240,1,149.333333333333,2|2,0:0|0:0,0:0:0
325,135,136103,1,4,0:0:0
112,40,136703,5,2,0:0:0
40,136,137003,1,2,0:0:0
88,240,137303,2,0,B|88:304|40:344,1,112,2|0,0:0|0:0,0:0:0
120,312,137803,2,0,B|152:344|224:344|264:304,1,149.333333333333,2|2,0:0|0:0,0:0:0
320,208,138503,1,0,0:0:0
288,96,138803,1,2,0:0:0
392,32,139103,6,0,B|456:16|504:56,1,112,2|0,0:0|0:0,0:0:0
424,144,139703,2,0,B|456:192|432:256,1,112,2|0,0:0|0:0,0:0:0
320,208,140303,1,2,0:0:0
320,208,140903,6,0,B|192:232,1,112,10|8,0:0|0:0,0:0:0
104,248,141503,5,4,0:0:0
104,248,142103,1,2,0:0:0
104,248,142703,2,0,B|64:216|80:160,1,84.0000032043458,2|0,0:0|0:0,0:0:0
96,88,143303,1,2,0:0:0
160,24,143603,5,2,0:0:0
96,88,143903,5,2,0:0:0
96,88,144503,1,2,0:0:0
96,88,145103,2,0,B|136:128|192:104,1,84.0000032043458,2|0,0:0|0:0,0:0:0
256,88,145703,1,2,0:0:0
320,24,146003,5,2,0:0:0
256,88,146303,5,2,0:0:0
256,88,146903,1,2,0:0:0
256,88,147503,2,0,B|256:144|296:176,1,84.0000032043458,2|0,0:0|0:0,0:0:0
352,216,148103,1,2,0:0:0
432,184,148403,5,2,0:0:0
352,216,148703,5,2,0:0:0
352,216,149303,1,2,0:0:0
352,216,149903,2,0,B|352:272|304:304,1,84.0000032043458,2|0,0:0|0:0,0:0:0
248,344,150503,1,2,0:0:0
160,360,150803,5,0,0:0:0
248,344,151103,5,2,0:0:0
248,344,151703,1,2,0:0:0
248,344,152303,2,0,B|232:280|160:272,1,112,2|0,0:0|0:0,0:0:0
72,216,152903,1,2,0:0:0
32,96,153203,5,0,0:0:0
72,216,153503,5,2,0:0:0
72,216,154103,1,2,0:0:0
72,216,154703,2,0,B|136:192|144:136,1,112,2|0,0:0|0:0,0:0:0
256,96,155303,1,2,0:0:0
344,16,155603,5,0,0:0:0
256,96,155903,5,2,0:0:0
256,96,156503,1,2,0:0:0
256,96,157103,2,0,B|288:144|360:136,1,112,2|0,0:0|0:0,0:0:0
392,248,157703,2,0,B|328:272|304:352,1,112,2|0,0:0|0:0,0:0:0
208,368,158303,5,0,0:0:0
96,336,158603,1,2,0:0:0
32,240,158903,1,0,0:0:0
56,128,159203,1,2,0:0:0
152,64,159503,2,0,B|192:32|240:48|240:48|192:120|208:240|288:280,1,336,4|0,0:0|0:0,0:0:0
208,368,160703,5,0,0:0:0
96,336,161003,1,2,0:0:0
32,240,161303,1,0,0:0:0
56,128,161603,1,2,0:0:0
152,64,161903,6,0,B|240:40,1,74.6666666666667,2|0,0:0|0:0,0:0:0
256,64,162203,2,0,B|344:40,1,74.6666666666667,2|0,0:0|0:0,0:0:0
360,64,162503,2,0,B|408:40|464:64|464:64|480:128|416:176,1,224,4|0,0:0|0:0,0:0:0
426,167,164003,5,0,0:0:0
392,240,164203,1,0,0:0:0
392,240,164903,6,0,B|320:272,1,74.6666666666667,0|0,0:0|0:0,0:0:0
152,344,165503,6,0,B|80:336|64:272,1,112,2|2,0:0|0:0,0:0:0
48,168,166103,2,0,B|40:104|104:64,1,112,2|0,0:0|0:0,0:0:0
168,104,166603,2,0,B|208:128|280:112|304:64,1,149.333333333333,2|2,0:0|0:0,0:0:0
416,104,167303,1,2,0:0:0
504,320,167903,6,0,B|464:360|392:344,2,112,2|2|2,0:0|0:0|0:0,0:0:0
424,232,168803,1,0,0:0:0
352,200,169003,2,0,B|312:176|240:184|208:232,1,149.333333333333,2|2,0:0|0:0,0:0:0
144,320,169703,1,0,0:0:0
32,280,170003,1,2,0:0:0
32,160,170303,5,2,0:0:0
144,120,170603,1,0,0:0:0
240,48,170903,1,2,0:0:0
344,104,171203,1,0,0:0:0
456,128,171503,6,0,B|480:256,1,112,2|2,0:0|0:0,0:0:0
416,336,172103,2,0,B|384:360|336:352,1,74.6666666666667,2|0,0:0|0:0,0:0:0
304,352,172403,2,0,B|256:360|224:328,1,74.6666666666667,2|0,0:0|0:0,0:0:0
200,312,172703,5,2,0:0:0
176,200,173003,1,2,0:0:0
152,88,173303,2,0,B|88:96|72:160,1,112,2|0,0:0|0:0,0:0:0
88,232,173803,2,0,B|104:288|176:312|216:280,1,149.333333333333,2|2,0:0|0:0,0:0:0
312,232,174503,1,2,0:0:0
472,64,175103,6,0,B|432:24|368:32,1,112,2|2,0:0|0:0,0:0:0
256,56,175703,1,2,0:0:0
208,160,176003,1,0,0:0:0
192,240,176203,2,0,B|184:280|184:280|136:320|144:384,1,149.333333333333,2|2,0:0|0:0,0:0:0
256,360,176903,1,4,0:0:0
488,320,177503,5,2,0:0:0
416,224,177803,1,2,0:0:0
312,168,178103,2,0,B|256:144|200:168,1,112,2|0,0:0|0:0,0:0:0
128,200,178603,2,0,B|80:224|80:224|48:168|80:112,1,149.333333333333,2|2,0:0|0:0,0:0:0
168,64,179303,2,0,B|224:32|296:48,1,112,0|2,0:0|0:0,0:0:0
392,72,179903,5,2,0:0:0
504,120,180203,1,0,0:0:0
392,152,180503,1,2,0:0:0
280,184,180803,1,2,0:0:0
168,216,181103,2,0,B|168:272|216:320|304:328|344:280,1,224,2|0,0:0|0:0,0:0:0
448,256,182003,2,0,B|496:256,3,37.3333333333333,8|8|8|4,0:0|0:0|0:0|0:0,0:0:0
