osu file format v10

[General]
AudioFilename: Utatabigarasu.mp3
AudioLeadIn: 0
PreviewTime: 54603
Countdown: 0
SampleSet: Normal
StackLeniency: 0.3
Mode: 0
LetterboxInBreaks: 0

[Editor]
DistanceSpacing: 1
BeatDivisor: 3
GridSize: 8

[Metadata]
Title:Utatabigarasu
TitleUnicode:Utatabigarasu
Artist:capitaro
ArtistUnicode:capitaro
Creator:NatsumeRin
Version:Hard
Source:Vocaloid
Tags:Hatsune Miku tanaka karenying Kotone
BeatmapID:180344
BeatmapSetID:59982

[Difficulty]
HPDrainRate:5
CircleSize:4
OverallDifficulty:6
ApproachRate:8
SliderMultiplier:1.44
SliderTickRate:1

[Events]
//Background and Video events
0,0,"BG.jpg"
Video,0,"PV.flv"
//Break Periods
2,74503,83153
//Storyboard Layer 0 (Background)
//Storyboard Layer 1 (Fail)
//Storyboard Layer 2 (Pass)
//Storyboard Layer 3 (Foreground)
//Storyboard Sound Samples
//Background Colour Transformations
3,100,163,162,255

[TimingPoints]
5903,300,4,1,1,70,1,0
10103,-100,4,1,1,55,0,0
10603,-100,4,1,1,70,0,0
14903,-100,4,1,1,55,0,0
15503,-100,4,2,2,50,0,0
16703,-100,4,2,1,60,0,0
21203,-100,4,1,2,60,0,0
21503,-100,4,2,1,60,0,0
25903,-100,4,1,1,60,0,0
26303,-100,4,2,1,60,0,0
30503,-100,4,2,1,45,0,0
30803,-100,4,2,1,60,0,0
34703,-100,4,2,1,70,0,0
35903,-100,4,2,1,80,0,0
37303,-100,4,2,1,70,0,0
40703,-100,4,2,1,80,0,0
42103,-100,4,2,1,70,0,0
45503,-100,4,2,1,80,0,0
46903,-100,4,2,1,70,0,0
50303,-100,4,2,1,80,0,0
52703,-100,4,2,1,90,0,0
54703,-100,4,2,1,70,0,0
54803,-133.333333333333,4,2,1,80,0,0
55003,-133.333333333333,4,2,1,30,0,0
55103,-100,4,2,1,90,0,1
59603,-100,4,2,1,70,0,1
59903,-100,4,2,1,90,0,1
62503,-100,4,2,1,70,0,1
62603,-100,4,2,1,90,0,1
62803,-100,4,2,1,70,0,1
62903,-100,4,2,1,90,0,1
63103,-100,4,2,1,70,0,1
63203,-100,4,2,1,90,0,1
63403,-100,4,2,1,70,0,1
63503,-100,4,2,1,90,0,1
64103,-100,4,1,1,70,0,1
64403,-100,4,1,1,60,0,1
64703,-100,4,2,1,90,0,1
69203,-100,4,2,1,70,0,1
69503,-100,4,2,1,90,0,1
72103,-100,4,2,1,70,0,1
72203,-100,4,2,1,90,0,1
72403,-100,4,2,1,70,0,1
72503,-100,4,2,1,90,0,1
72703,-100,4,2,1,70,0,1
72803,-100,4,2,1,90,0,1
73003,-100,4,2,1,70,0,1
73103,-100,4,2,1,90,0,1
73703,-100,4,2,1,70,0,1
74003,-100,4,2,1,60,0,1
74303,-100,4,1,2,70,0,0
83903,-100,4,2,1,60,0,0
88403,-100,4,1,2,60,0,0
88703,-100,4,2,1,60,0,0
93203,-100,4,2,1,50,0,0
93503,-100,4,1,1,70,0,0
102503,-100,4,1,0,35,0,0
102703,-100,4,1,1,70,0,0
103103,-100,4,2,1,80,0,0
104503,-100,4,2,1,70,0,0
107903,-100,4,2,1,80,0,0
109303,-100,4,2,1,70,0,0
112403,-100,4,2,1,60,0,0
112703,-100,4,2,1,80,0,0
114103,-100,4,2,1,70,0,0
117503,-100,4,2,1,80,0,0
119903,-100,4,2,1,90,0,0
121703,-100,4,1,1,65,0,0
122003,-100,4,1,1,55,0,0
122303,-100,4,2,1,90,0,1
126803,-100,4,2,1,70,0,1
127103,-100,4,2,1,90,0,1
129703,-100,4,2,1,70,0,1
129803,-100,4,2,1,90,0,1
130003,-100,4,2,1,70,0,1
130103,-100,4,2,1,90,0,1
130303,-100,4,2,1,70,0,1
130403,-100,4,2,1,90,0,1
130603,-100,4,2,1,70,0,1
130703,-100,4,2,1,90,0,1
131303,-100,4,1,1,70,0,1
131603,-100,4,1,1,60,0,1
131903,-100,4,2,1,90,0,1
136403,-100,4,2,1,70,0,1
136703,-100,4,2,1,90,0,1
139303,-100,4,2,1,70,0,1
139403,-100,4,2,1,90,0,1
139603,-100,4,2,1,70,0,1
139703,-100,4,2,1,90,0,1
139903,-100,4,2,1,70,0,1
140003,-100,4,2,1,90,0,1
140203,-100,4,2,1,70,0,1
140303,-100,4,2,1,90,0,1
140903,-100,4,2,1,70,0,1
141203,-100,4,2,1,60,0,1
141503,-133.333333333333,4,1,2,70,0,0
142003,-133.333333333333,4,2,1,50,0,0
143603,-133.333333333333,4,1,2,50,0,0
143903,-133.333333333333,4,2,1,50,0,0
146003,-133.333333333333,4,1,2,50,0,0
146303,-133.333333333333,4,2,1,50,0,0
148403,-133.333333333333,4,1,2,50,0,0
148703,-133.333333333333,4,2,1,50,0,0
150803,-133.333333333333,4,1,0,50,0,0
151103,-100,4,2,1,60,0,0
153203,-100,4,1,0,60,0,0
153503,-100,4,2,1,60,0,0
155603,-100,4,1,0,60,0,0
155903,-100,4,2,1,70,0,0
162503,-100,4,2,1,60,0,0
163103,-100,4,1,0,70,0,0
165103,-100,4,1,0,50,0,0
165503,-100,4,2,1,90,0,1
167603,-100,4,2,1,70,0,1
167903,-100,4,2,1,90,0,1
170503,-100,4,2,1,70,0,1
170603,-100,4,2,1,90,0,1
170803,-100,4,2,1,70,0,1
170903,-100,4,2,1,90,0,1
171103,-100,4,2,1,70,0,1
171203,-100,4,2,1,90,0,1
171403,-100,4,2,1,70,0,1
171503,-100,4,2,1,90,0,1
172103,-100,4,1,1,70,0,1
172403,-100,4,1,1,60,0,1
172703,-100,4,2,1,90,0,1
177203,-100,4,2,1,70,0,1
177503,-100,4,2,1,90,0,1
180103,-100,4,2,1,70,0,1
180203,-100,4,2,1,90,0,1
180403,-100,4,2,1,70,0,1
180503,-100,4,2,1,90,0,1
180703,-100,4,2,1,70,0,1
180803,-100,4,2,1,90,0,1
181003,-100,4,2,1,70,0,1
181103,-100,4,2,1,90,0,1
181703,-100,4,2,1,70,0,1
182003,-100,4,2,1,60,0,1
182303,-100,4,2,1,80,0,0

[Colours]
Combo1 : 255,0,128
Combo2 : 128,0,255
Combo3 : 255,0,255
Combo4 : 0,0,191

[HitObjects]
144,72,5903,6,0,B|168:120|136:168,1,96,0|2,0:0|0:0,0:0:0
72,208,6203,2,0,B|48:160|80:112,1,96,0|2,0:0|0:0,0:0:0
144,72,6503,2,0,B|240:8,1,96,0|2,0:0|0:0,0:0:0
336,120,7003,6,0,B|376:88|448:104|464:152,1,144,0|2,0:0|0:0,0:0:0
488,216,7403,2,0,B|504:272|464:312,1,96,0|2,0:0|0:0,0:0:0
408,344,7703,2,0,B|360:376|304:352,1,96,0|2,0:0|0:0,0:0:0
248,336,8003,2,0,B|192:312|184:256,1,96
208,200,8303,6,0,B|240:152|216:104,1,96,0|2,0:0|0:0,0:0:0
160,56,8603,2,0,B|128:104|152:152,1,96,0|2,0:0|0:0,0:0:0
218,108,8903,2,0,B|320:56,1,96,0|2,0:0|0:0,0:0:0
424,200,9403,6,0,B|384:224|312:208|296:152,1,144,0|2,0:0|0:0,0:0:0
312,232,9803,2,0,B|312:288|264:312,1,96,0|2,0:0|0:0,0:0:0
200,336,10103,2,0,B|152:352,3,48,8|8|8|8,0:0|0:0|0:0|0:0,0:0:0
56,224,10703,6,0,B|104:192|96:128,1,96,0|2,0:0|0:0,0:0:0
64,72,11003,2,0,B|16:104|24:168,1,96,0|2,0:0|0:0,0:0:0
97,142,11303,2,0,B|200:120,1,96,0|2,0:0|0:0,0:0:0
344,40,11803,6,0,B|384:16|456:32|472:80,1,144,0|2,0:0|0:0,0:0:0
496,144,12203,2,0,B|512:192|480:240,1,96,0|2,0:0|0:0,0:0:0
432,288,12503,2,0,B|384:328|328:304,1,96,0|2,0:0|0:0,0:0:0
272,288,12803,2,0,B|216:264|208:208,1,96
176,152,13103,6,0,B|144:112|88:128,1,96,0|2,0:0|0:0,0:0:0
32,176,13403,2,0,B|64:216|120:200,1,96,0|2,0:0|0:0,0:0:0
176,152,13703,2,0,B|256:80,1,96,0|2,0:0|0:0,0:0:0
416,216,14203,6,0,B|392:176|328:160|288:184,1,144,0|2,0:0|0:0,0:0:0
272,256,14603,2,0,B|248:304|192:304,1,96,0|2,0:0|0:0,0:0:0
120,304,14903,2,0,B|72:304,3,48,8|8|8|8,0:0|0:0|0:0|0:0,0:0:0
32,184,15503,6,0,B|152:152,1,96
152,152,15803,1,2,0:0:0
48,88,16103,6,0,B|168:56,1,96
168,56,16403,1,2,0:0:0
272,32,16703,5,2,0:0:0
272,32,17303,2,0,B|296:64|368:72|408:40,1,144,2|0,0:0|0:0,0:0:0
272,32,17903,2,0,B|168:56,1,96,2|2,0:0|0:0,0:0:0
96,176,18403,1,0,0:0:0
96,176,18503,2,0,B|112:216|192:232|232:192,1,144,2|2,0:0|0:0,0:0:0
328,96,19103,5,2,0:0:0
432,72,19303,2,0,B|496:56,1,48,0|2,0:0|0:0,0:0:0
424,144,19603,2,0,B|480:168,1,48,0|2,0:0|0:0,0:0:0
376,200,19903,2,0,B|400:248,1,48,0|2,0:0|0:0,0:0:0
304,208,20203,2,0,B|288:256,1,48,0|2,0:0|0:0,0:0:0
176,344,20603,5,0,0:0:0
48,280,20903,1,2,0:0:0
64,136,21203,1,2,0:0:0
208,112,21503,5,2,0:0:0
208,112,22103,2,0,B|256:104|304:64|304:0,1,144,2|0,0:0|0:0,0:0:0
208,112,22703,2,0,B|256:216,1,96,2|2,0:0|0:0,0:0:0
208,336,23203,1,0,0:0:0
208,336,23303,2,0,B|240:368|320:360|336:304,1,144,2|2,0:0|0:0,0:0:0
384,176,23903,5,2,0:0:0
352,32,24103,2,0,B|368:96,1,48,0|2,0:0|0:0,0:0:0
264,80,24403,2,0,B|312:120,1,48,0|2,0:0|0:0,0:0:0
224,176,24703,2,0,B|280:176,1,48,0|2,0:0|0:0,0:0:0
240,272,25003,2,0,B|288:248,1,48,0|2,0:0|0:0,0:0:0
192,104,25403,5,0,0:0:0
24,160,25703,1,2,0:0:0
136,208,25903,1,2,0:0:0
136,208,26003,1,0,0:0:0
184,320,26203,1,2,0:0:0
184,320,26303,5,2,0:0:0
184,320,26903,2,0,B|144:352|64:336|48:280,1,144,2|0,0:0|0:0,0:0:0
184,320,27503,2,0,B|240:296|240:296|264:352|360:360|400:320,1,240,2|0,0:0|0:0,0:0:0
448,272,28103,6,0,B|480:224|464:168,1,96,2|0,0:0|0:0,0:0:0
456,112,28403,2,0,B|448:64|400:32,1,96,2|0,0:0|0:0,0:0:0
336,16,28703,5,2,0:0:0
184,88,29003,2,0,B|280:104,1,96,2|0,0:0|0:0,0:0:0
296,176,29303,2,0,B|200:160,1,96,2|0,0:0|0:0,0:0:0
216,232,29603,2,0,B|312:248,1,96,2|0,0:0|0:0,0:0:0
368,296,29903,5,2,0:0:0
248,376,30203,1,0,0:0:0
104,352,30503,2,0,B|64:312|80:248,1,96,2|8,0:0|0:0,0:0:0
88,192,30803,2,0,B|96:136|144:112,1,96,8|0,0:0|0:0,0:0:0
200,80,31103,5,2,0:0:0
200,80,31703,2,0,B|152:104|80:88|56:32,1,144,2|0,0:0|0:0,0:0:0
200,80,32303,2,0,B|280:56|280:56|264:112|320:160|392:136,1,240,2|0,0:0|0:0,0:0:0
416,200,32903,2,0,B|464:184|520:224|512:280,1,144,2|2,0:0|0:0,0:0:0
360,344,33503,6,0,B|320:376|264:352,1,96,2|0,0:0|0:0,0:0:0
200,336,33803,2,0,B|144:320|128:264,1,96,2|0,0:0|0:0,0:0:0
200,336,34103,2,0,B|224:288|192:232,1,96,2|0,0:0|0:0,0:0:0
160,184,34403,2,0,B|128:136|64:136,1,96,2|0,0:0|0:0,0:0:0
8,144,34703,5,2,0:0:0
184,64,35003,1,8,0:0:0
368,112,35303,2,0,B|352:168|384:208,1,96,2|0,0:0|0:0,0:0:0
440,152,35603,2,0,B|472:192|448:248,1,96,2|0,0:0|0:0,0:0:0
424,312,35903,5,4,0:0:0
248,344,36203,1,8,0:0:0
312,176,36503,1,8,0:0:0
424,312,36803,2,0,B|328:280,1,96,0|8,0:0|0:0,0:0:0
332,281,37303,6,0,B|296:248|224:248|192:288,1,144,4|0,0:0|0:0,0:0:0
136,312,37703,2,0,B|80:312|48:272,1,96,2|0,0:0|0:0,0:0:0
16,208,38003,2,0,B|-8:160|16:112,1,96,2|0,0:0|0:0,0:0:0
48,48,38303,6,0,B|96:24|144:48,1,96,2|0,0:0|0:0,0:0:0
208,72,38603,2,0,B|256:96|256:152,1,96,2|0,0:0|0:0,0:0:0
248,224,38903,1,0,0:0:0
112,312,39203,1,2,0:0:0
232,296,39403,1,0,0:0:0
232,296,39503,5,2,0:0:0
80,248,39803,1,2,0:0:0
80,88,40103,1,0,0:0:0
232,32,40403,2,0,B|280:32|312:80,1,96,2|0,0:0|0:0,0:0:0
336,144,40703,5,4,0:0:0
296,328,41003,1,8,0:0:0
472,272,41303,1,8,0:0:0
336,144,41603,2,0,B|368:240,1,96,0|8,0:0|0:0,0:0:0
366,235,42103,6,0,B|319:263|239:223|239:167,1,144,4|0,0:0|0:0,0:0:0
232,120,42503,2,0,B|208:72|152:64,1,96,2|0,0:0|0:0,0:0:0
88,64,42803,2,0,B|40:64|8:120,1,96,2|0,0:0|0:0,0:0:0
48,176,43103,6,0,B|72:224|48:272,1,96,2|0,0:0|0:0,0:0:0
104,312,43403,2,0,B|160:312|192:344,1,96,2|0,0:0|0:0,0:0:0
256,312,43703,1,0,0:0:0
344,160,44003,1,2,0:0:0
320,280,44203,1,0,0:0:0
320,280,44303,5,2,0:0:0
288,112,44603,1,2,0:0:0
448,168,44903,1,0,0:0:0
448,344,45203,2,0,B|504:360,2,48,10|8|8,0:0|0:0|0:0,0:0:0
384,320,45503,5,4,0:0:0
200,352,45803,1,8,0:0:0
264,176,46103,1,8,0:0:0
384,320,46403,2,0,B|272:280,1,96,0|8,0:0|0:0,0:0:0
293,287,46903,6,0,B|247:303|175:279|159:223,1,144,4|0,0:0|0:0,0:0:0
144,168,47303,2,0,B|128:112|168:72,1,96,2|0,0:0|0:0,0:0:0
216,32,47603,2,0,B|264:8|320:32,1,96,2|0,0:0|0:0,0:0:0
368,72,47903,6,0,B|360:128|408:160,1,96,2|0,0:0|0:0,0:0:0
392,224,48203,2,0,B|352:264|368:320,1,96,2|0,0:0|0:0,0:0:0
312,360,48503,1,0,0:0:0
176,240,48803,1,2,0:0:0
296,288,49003,1,0,0:0:0
296,288,49103,5,2,0:0:0
120,288,49403,1,2,0:0:0
64,120,49703,2,0,B|104:88|160:112,1,96,0|0,0:0|0:0,0:0:0
216,144,50003,2,0,B|264:168|312:128,1,96,2|0,0:0|0:0,0:0:0
352,80,50303,6,0,B|496:96,2,144,0|8|0,0:0|0:0|0:0,0:0:0
360,176,51103,1,0,0:0:0
360,176,51203,1,8,0:0:0
440,232,51403,1,0,0:0:0
440,232,51503,6,0,B|464:376,2,144,0|8|0,0:0|0:0|0:0,0:0:0
352,272,52303,1,0,0:0:0
352,272,52403,1,8,0:0:0
328,368,52603,1,0,0:0:0
328,368,52703,6,0,B|272:384|232:344,1,96,8|0,0:0|0:0,0:0:0
192,296,53003,2,0,B|160:256|176:200,1,96,8|0,0:0|0:0,0:0:0
192,136,53303,2,0,B|208:80|264:72,1,96,8|0,0:0|0:0,0:0:0
328,64,53603,1,8,0:0:0
328,64,53803,5,2,0:0:0
192,136,54103,1,2,0:0:0
192,296,54403,1,2,0:0:0
328,368,54703,1,2,0:0:0
328,368,54803,2,0,B|384:368|408:336,1,72.0000027465821
328,368,55103,6,0,B|368:344|368:280,1,96,2|0,0:0|0:0,0:0:0
368,216,55403,2,0,B|368:160|328:128,1,96,10|0,0:0|0:0,0:0:0
272,88,55703,2,0,B|224:56|176:64,1,96,2|2,0:0|0:0,0:0:0
112,80,56003,1,8,0:0:0
272,88,56203,6,0,B|264:152|168:184|112:152,1,192,2|10,0:0|0:0,0:0:0
32,288,56903,1,2,0:0:0
168,368,57203,1,8,0:0:0
264,240,57503,6,0,B|296:280|352:264,1,96,2|2,0:0|0:0,0:0:0
424,248,57803,2,0,B|472:232|488:176,1,96,10|0,0:0|0:0,0:0:0
496,112,58103,2,0,B|496:64|448:32,1,96,2|2,0:0|0:0,0:0:0
376,16,58403,1,10,0:0:0
496,112,58603,6,0,B|440:152|336:120|320:64,1,192,2|10,0:0|0:0,0:0:0
176,24,59303,1,2,0:0:0
64,136,59603,1,8,0:0:0
56,160,59703,1,8,0:0:0
48,184,59803,1,8,0:0:0
40,208,59903,6,0,B|32:256|64:304,1,96,2|0,0:0|0:0,0:0:0
120,344,60203,2,0,B|160:376|224:352,1,96,10|0,0:0|0:0,0:0:0
280,336,60503,2,0,B|328:304|336:256,1,96,2|0,0:0|0:0,0:0:0
344,184,60803,1,10,0:0:0
280,336,61003,6,0,B|232:296|232:192|280:152,1,192,2|10,0:0|0:0,0:0:0
408,120,61603,1,2,0:0:0
408,120,61703,2,0,B|440:160|432:224|392:256,1,144,2|10,0:0|0:0,0:0:0
280,336,62303,5,2,0:0:0
256,192,62603,1,8,0:0:0
280,336,62903,1,2,0:0:0
144,288,63203,1,8,0:0:0
8,336,63503,2,0,B|48:312|64:232|32:192,1,144,2|10,0:0|0:0,0:0:0
88,48,64103,5,2,0:0:0
112,56,64203,1,2,0:0:0
136,64,64303,1,0,0:0:0
160,88,64403,5,10,0:0:0
168,112,64503,1,10,0:0:0
176,136,64603,1,8,0:0:0
200,160,64703,6,0,B|304:192,1,96,2|2,0:0|0:0,0:0:0
216,240,65003,2,0,B|320:272,1,96,10|0,0:0|0:0,0:0:0
328,352,65303,2,0,B|168:304,1,144,2|10,0:0|0:0,0:0:0
200,160,65803,6,0,B|224:112|320:96|376:144,1,192,2|10,0:0|0:0,0:0:0
464,272,66503,1,2,0:0:0
328,352,66803,1,8,0:0:0
168,328,67103,6,0,B|112:328|80:288,1,96,2|0,0:0|0:0,0:0:0
40,232,67403,2,0,B|8:184|40:128,1,96,10|0,0:0|0:0,0:0:0
64,72,67703,2,0,B|96:24|152:24,1,96,2|0,0:0|0:0,0:0:0
216,32,68003,1,10,0:0:0
64,72,68203,6,0,B|64:120|152:136|176:88,1,144,2|2,0:0|0:0,0:0:0
216,32,68603,2,0,B|256:0|312:24,1,96,10|2,0:0|0:0,0:0:0
368,56,68903,2,0,B|408:32|480:72|464:128,1,144,6|8,0:0|0:0,0:0:0
464,152,69303,1,8,0:0:0
456,184,69403,1,8,0:0:0
440,216,69503,6,0,B|416:264|368:272,1,96,2|2,0:0|0:0,0:0:0
296,280,69803,2,0,B|240:288|192:248,1,96,10|0,0:0|0:0,0:0:0
152,208,70103,2,0,B|112:168|128:104,1,96,2|2,0:0|0:0,0:0:0
144,48,70403,1,10,0:0:0
152,208,70603,6,0,B|216:184|248:104|216:48,1,192,2|10,0:0|0:0,0:0:0
64,32,71203,1,2,0:0:0
64,32,71303,2,0,B|32:64|32:144|80:176,1,144,2|10,0:0|0:0,0:0:0
160,288,71803,1,2,0:0:0
160,288,71903,5,2,0:0:0
264,168,72203,1,8,0:0:0
160,288,72503,1,2,0:0:0
320,320,72803,1,8,0:0:0
424,200,73103,6,0,B|464:40,1,144,2|10,0:0|0:0,0:0:0
304,24,73703,1,8,0:0:0
280,32,73803,1,8,0:0:0
256,40,73903,1,8,0:0:0
232,48,74003,1,8,0:0:0
208,56,74103,1,8,0:0:0
184,64,74203,1,8,0:0:0
160,72,74303,5,4,0:0:0
160,192,83903,6,0,B|152:248|104:280|48:272,1,144,2|0,0:0|0:0,0:0:0
160,192,84503,2,0,B|176:136|152:80|96:56,1,144,2|0,0:0|0:0,0:0:0
160,192,85103,2,0,B|272:224,1,96,2|2,0:0|0:0,0:0:0
344,336,85603,1,0,0:0:0
344,336,85703,2,0,B|376:368|456:360|480:312,1,144,2|2,0:0|0:0,0:0:0
504,168,86303,6,0,B|448:152|408:184,1,96,2|0,0:0|0:0,0:0:0
352,224,86603,2,0,B|304:256|256:240,1,96,2|0,0:0|0:0,0:0:0
200,208,86903,2,0,B|184:152|136:136,1,96,2|0,0:0|0:0,0:0:0
72,160,87203,2,0,B|24:136|16:80,1,96,2|0,0:0|0:0,0:0:0
40,16,87503,5,2,0:0:0
168,72,87803,1,0,0:0:0
304,32,88103,1,2,0:0:0
424,104,88403,1,2,0:0:0
456,240,88703,6,0,B|448:288|392:336|336:320,1,144,2|0,0:0|0:0,0:0:0
456,240,89303,2,0,B|432:272|352:280|320:256,1,144,2|0,0:0|0:0,0:0:0
456,240,89903,2,0,B|352:192,1,96,2|2,0:0|0:0,0:0:0
288,48,90403,1,0,0:0:0
288,48,90503,2,0,B|256:16|176:24|152:64,1,144,2|2,0:0|0:0,0:0:0
88,184,91103,5,2,0:0:0
232,184,91403,2,0,B|240:240|200:272,1,96,2|0,0:0|0:0,0:0:0
136,304,91703,1,2,0:0:0
272,240,92003,2,0,B|328:216|384:256,1,96,2|0,0:0|0:0,0:0:0
432,272,92303,5,2,0:0:0
496,144,92603,1,0,0:0:0
432,272,92903,1,2,0:0:0
296,312,93203,1,8,0:0:0
272,320,93303,1,8,0:0:0
248,328,93403,1,8,0:0:0
224,336,93503,6,0,B|168:352|128:320,1,96
80,272,93803,2,0,B|48:224|72:176,1,96,2|2,0:0|0:0,0:0:0
128,136,94103,2,0,B|184:152|232:120,1,96
288,96,94403,2,0,B|328:56|320:8,1,96,2|2,0:0|0:0,0:0:0
352,72,94703,6,0,B|368:112|448:128|488:96,1,144,0|2,0:0|0:0,0:0:0
432,208,95203,1,0,0:0:0
432,208,95303,1,0,0:0:0
480,312,95503,1,0,0:0:0
480,312,95603,1,2,0:0:0
376,360,95803,1,2,0:0:0
376,360,95903,6,0,B|272:336,1,96
272,264,96203,2,0,B|376:288,1,96,2|2,0:0|0:0,0:0:0
352,208,96503,2,0,B|248:184,1,96
248,112,96803,2,0,B|352:136,1,96,2|2,0:0|0:0,0:0:0
400,88,97103,5,0,0:0:0
264,40,97403,1,2,0:0:0
128,80,97703,2,0,B|120:128|72:152,1,96
64,224,98003,2,0,B|112:256|120:312,1,96,2|0,0:0|0:0,0:0:0
136,368,98303,6,0,B|192:384|232:360,1,96
288,320,98603,2,0,B|328:288|320:224,1,96,2|2,0:0|0:0,0:0:0
296,168,98903,2,0,B|304:112|352:96,1,96
424,80,99203,2,0,B|480:72|520:112,1,96,2|2,0:0|0:0,0:0:0
472,168,99503,6,0,B|448:208|448:208|480:248|456:304,1,144,0|2,0:0|0:0,0:0:0
336,264,100003,1,0,0:0:0
336,264,100103,2,0,B|296:224|312:168,1,96
264,120,100403,2,0,B|208:112|184:64,1,96,2|2,0:0|0:0,0:0:0
112,72,100703,6,0,B|72:56|72:56|40:80|64:128,1,96
80,168,101003,2,0,B|104:216|152:224,1,96,2|2,0:0|0:0,0:0:0
152,224,101303,2,0,B|208:208|224:168,1,96
238,99,101603,2,0,B|246:75|222:51|222:51|182:67,1,96,2|2,0:0|0:0,0:0:0
152,136,101903,5,0,0:0:0
328,64,102203,1,2,0:0:0
272,160,102403,1,0,0:0:0
272,160,102503,1,4,0:0:0
288,272,102703,1,0,0:0:0
288,272,102803,2,0,B|320:320|374:309,1,96
424,264,103103,6,0,B|496:184,1,96,4|0,0:0|0:0,0:0:0
356,242,103403,2,0,B|404:146,1,96,8|0,0:0|0:0,0:0:0
288,256,103703,2,0,B|304:144,1,96,8|0,0:0|0:0,0:0:0
240,312,104003,1,0,0:0:0
424,264,104203,1,8,0:0:0
424,264,104503,6,0,B|384:232|320:232|280:264,1,144,4|0,0:0|0:0,0:0:0
240,312,104903,2,0,B|200:344|144:336,1,96,2|0,0:0|0:0,0:0:0
80,328,105203,2,0,B|24:320|0:272,1,96,2|0,0:0|0:0,0:0:0
32,208,105503,6,0,B|64:168|48:112,1,96,2|0,0:0|0:0,0:0:0
104,72,105803,2,0,B|160:64|192:24,1,96,2|0,0:0|0:0,0:0:0
256,48,106103,1,0,0:0:0
432,48,106403,2,0,B|440:104|400:136,1,96,2|0,0:0|0:0,0:0:0
392,208,106703,6,0,B|424:248|408:304,1,96,2|0,0:0|0:0,0:0:0
352,344,107003,2,0,B|296:336|264:280,1,96,2|0,0:0|0:0,0:0:0
200,280,107303,2,0,B|152:312|96:288,1,96
56,240,107603,2,0,B|64:184|112:160,1,96,2|0,0:0|0:0,0:0:0
176,144,107903,6,0,B|288:120,1,96,4|0,0:0|0:0,0:0:0
208,208,108203,2,0,B|328:216,1,96,8|0,0:0|0:0,0:0:0
200,280,108503,2,0,B|304:312,1,96,8|0,0:0|0:0,0:0:0
152,336,108803,1,0,0:0:0
176,144,109003,1,8,0:0:0
176,144,109303,6,0,B|208:168|224:240|192:296,1,144,4|0,0:0|0:0,0:0:0
152,336,109703,2,0,B|104:312|96:256,1,96,2|0,0:0|0:0,0:0:0
88,192,110003,2,0,B|80:136|128:96,1,96,2|0,0:0|0:0,0:0:0
184,72,110303,6,0,B|232:48|280:64,1,96,2|0,0:0|0:0,0:0:0
344,80,110603,2,0,B|392:104|400:152,1,96,2|0,0:0|0:0,0:0:0
400,224,110903,1,0,0:0:0
272,336,111203,2,0,B|224:312|216:264,1,96,2|0,0:0|0:0,0:0:0
168,208,111503,6,0,B|112:208|80:168,1,96,2|0,0:0|0:0,0:0:0
64,104,111803,2,0,B|88:48|144:40,1,96,2|0,0:0|0:0,0:0:0
200,32,112103,2,0,B|256:24|296:64,1,96,0|0,0:0|0:0,0:0:0
352,96,112403,2,0,B|408:56,2,48,10|8|8,0:0|0:0|0:0,0:0:0
368,168,112703,6,0,B|392:280,1,96,4|0,0:0|0:0,0:0:0
304,200,113003,2,0,B|296:312,1,96,8|0,0:0|0:0,0:0:0
232,208,113303,2,0,B|200:312,1,96,8|0,0:0|0:0,0:0:0
168,184,113603,1,0,0:0:0
368,168,113803,1,8,0:0:0
368,168,114103,6,0,B|304:216|224:208,1,144,4|0,0:0|0:0,0:0:0
168,184,114503,2,0,B|128:144|80:144,1,96,2|0,0:0|0:0,0:0:0
88,72,114803,2,0,B|144:88|192:48,1,96,2|0,0:0|0:0,0:0:0
248,80,115103,6,0,B|288:56|344:64,1,96,2|0,0:0|0:0,0:0:0
408,80,115403,2,0,B|464:96|488:144,1,96,2|0,0:0|0:0,0:0:0
504,208,115703,1,0,0:0:0
384,328,116003,2,0,B|344:352|288:344,1,96,2|0,0:0|0:0,0:0:0
224,336,116303,6,0,B|168:328|136:280,1,96,2|0,0:0|0:0,0:0:0
112,224,116603,1,2,0:0:0
160,48,116903,1,0,0:0:0
200,152,117103,1,0,0:0:0
200,152,117203,2,0,B|240:120|296:136,1,96,2|0,0:0|0:0,0:0:0
360,160,117503,6,8,B|488:232,2,144,0|8|0,0:0|0:0|0:0,0:0:0
336,256,118303,1,0,0:0:0
336,256,118403,1,8,0:0:0
248,304,118603,1,0,0:0:0
248,304,118703,6,0,B|96:384,2,144,0|8|0,0:0|0:0|0:0,0:0:0
192,224,119503,1,0,0:0:0
192,224,119603,1,8,0:0:0
96,192,119803,1,0,0:0:0
96,192,119903,6,0,B|72:144|104:96,1,96,8|0,0:0|0:0,0:0:0
152,48,120203,2,0,B|192:16|248:24,1,96,8|0,0:0|0:0,0:0:0
312,32,120503,2,0,B|368:48|392:104,1,96,8|0,0:0|0:0,0:0:0
408,160,120803,1,0,0:0:0
408,160,121003,5,2,0:0:0
312,32,121303,1,2,0:0:0
152,48,121603,1,2,0:0:0
152,48,121703,5,8,0:0:0
171,27,121803,1,8,0:0:0
198,18,121903,1,8,0:0:0
226,22,122003,1,8,0:0:0
245,43,122103,1,8,0:0:0
251,71,122203,1,8,0:0:0
240,96,122303,6,0,B|208:137|232:192,1,96,2|2,0:0|0:0,0:0:0
256,256,122603,2,0,B|280:304|336:312,1,96,10|0,0:0|0:0,0:0:0
400,312,122903,2,0,B|448:304|472:256,1,96,2|0,0:0|0:0,0:0:0
488,184,123203,1,10,0:0:0
400,312,123403,6,0,B|432:280|440:216|408:168,1,144,2|2,0:0|0:0,0:0:0
384,112,123803,2,0,B|280:80,1,96,10|0,0:0|0:0,0:0:0
248,24,124103,1,2,0:0:0
80,80,124403,2,0,B|48:176,1,96,8|0,0:0|0:0,0:0:0
64,240,124703,6,0,B|80:288|136:304,1,96,2|0,0:0|0:0,0:0:0
200,312,125003,2,0,B|248:320|288:280,1,96,10|0,0:0|0:0,0:0:0
336,232,125303,2,0,B|360:192|336:136,1,96,2|0,0:0|0:0,0:0:0
312,72,125603,1,10,0:0:0
336,232,125803,6,0,B|280:224|224:144|240:80,1,192,2|10,0:0|0:0,0:0:0
80,32,126503,1,2,0:0:0
24,192,126803,1,8,0:0:0
32,216,126903,1,8,0:0:0
40,240,127003,1,8,0:0:0
48,264,127103,6,0,B|80:296|136:288,1,96,2|2,0:0|0:0,0:0:0
208,280,127403,2,0,B|256:280|296:232,1,96,10|0,0:0|0:0,0:0:0
328,176,127703,2,0,B|352:136|344:80,1,96,2|2,0:0|0:0,0:0:0
336,16,128003,1,10,0:0:0
328,176,128203,6,0,B|352:136|328:72|272:56,1,144,2|2,0:0|0:0,0:0:0
216,88,128603,2,0,B|168:120|104:88,1,96,10|0,0:0|0:0,0:0:0
72,144,128903,2,0,B|32:176|40:232,1,96,2|0,0:0|0:0,0:0:0
64,296,129203,1,10,0:0:0
176,344,129403,1,0,0:0:0
176,344,129503,5,2,0:0:0
344,360,129803,1,8,0:0:0
416,208,130103,1,2,0:0:0
288,96,130403,1,8,0:0:0
136,176,130703,2,0,B|104:336,1,144,2|10,0:0|0:0,0:0:0
64,160,131303,5,2,0:0:0
74,132,131403,1,2,0:0:0
93,111,131503,1,0,0:0:0
120,102,131603,1,10,0:0:0
148,101,131703,1,10,0:0:0
175,110,131803,1,8,0:0:0
192,128,131903,6,0,B|232:160|288:144,1,96,2|2,0:0|0:0,0:0:0
336,96,132203,2,0,B|368:56|432:64,1,96,10|0,0:0|0:0,0:0:0
488,80,132503,2,0,B|504:136|456:176,1,96,2|2,0:0|0:0,0:0:0
408,208,132803,1,10,0:0:0
488,80,133003,6,0,B|432:64|352:112|344:176,1,192,2|10,0:0|0:0,0:0:0
424,288,133603,1,0,0:0:0
424,288,133703,2,0,B|400:328|328:336|296:304,1,144,2|10,0:0|0:0,0:0:0
144,336,134303,6,0,B|176:296|168:240,1,96,2|2,0:0|0:0,0:0:0
152,176,134603,2,0,B|136:128|88:104,1,96,10|0,0:0|0:0,0:0:0
24,88,134903,2,0,B|0:136|16:184,1,96,2|2,0:0|0:0,0:0:0
48,248,135203,1,10,0:0:0
24,88,135403,6,0,B|80:80|112:144|80:192,1,144,2|2,0:0|0:0,0:0:0
48,248,135803,2,0,B|24:296|56:344,1,96,10|0,0:0|0:0,0:0:0
120,368,136103,2,0,B|288:312,1,144,6|8,0:0|0:0,0:0:0
288,312,136503,1,8,0:0:0
320,304,136603,1,8,0:0:0
352,296,136703,6,0,B|392:264|392:208,1,96,2|2,0:0|0:0,0:0:0
392,144,137003,2,0,B|392:88|352:56,1,96,10|0,0:0|0:0,0:0:0
296,24,137303,2,0,B|256:0|200:16,1,96,2|2,0:0|0:0,0:0:0
136,32,137603,1,10,0:0:0
296,24,137803,6,0,B|256:8|192:24|184:88,1,144,2|0,0:0|0:0,0:0:0
224,144,138203,2,0,B|256:184|248:240,1,96,10|0,0:0|0:0,0:0:0
240,304,138503,2,0,B|224:352|168:376,1,96,2|2,0:0|0:0,0:0:0
104,376,138803,2,0,B|48:384|16:344,1,96,10|0,0:0|0:0,0:0:0
40,280,139103,5,2,0:0:0
104,136,139403,1,8,0:0:0
256,96,139703,1,2,0:0:0
408,136,140003,1,8,0:0:0
472,280,140303,6,0,B|312:360,1,144,2|10,0:0|0:0,0:0:0
304,152,140903,1,8,0:0:0
296,184,141003,1,8,0:0:0
288,216,141103,1,8,0:0:0
280,248,141203,1,8,0:0:0
272,280,141303,1,8,0:0:0
264,312,141403,1,8,0:0:0
256,344,141503,5,4,0:0:0
256,344,142103,1,2,0:0:0
256,344,142703,1,2,0:0:0
184,328,142903,1,2,0:0:0
184,328,143003,1,0,0:0:0
128,280,143203,1,0,0:0:0
128,280,143303,1,2,0:0:0
328,328,143603,5,2,0:0:0
128,280,143903,5,2,0:0:0
128,280,144503,1,2,0:0:0
128,280,145103,1,2,0:0:0
104,208,145303,1,2,0:0:0
104,208,145403,1,0,0:0:0
128,136,145603,1,0,0:0:0
128,136,145703,1,2,0:0:0
184,328,146003,5,2,0:0:0
128,136,146303,5,2,0:0:0
128,136,146903,1,2,0:0:0
128,136,147503,1,2,0:0:0
184,88,147703,1,2,0:0:0
184,88,147803,1,0,0:0:0
256,72,148003,1,0,0:0:0
256,72,148103,1,2,0:0:0
104,208,148403,5,2,0:0:0
256,72,148703,5,2,0:0:0
256,72,149303,1,2,0:0:0
256,72,149903,1,2,0:0:0
328,88,150103,1,2,0:0:0
328,88,150203,1,0,0:0:0
384,136,150403,1,0,0:0:0
384,136,150503,1,2,0:0:0
256,256,150803,5,0,0:0:0
384,136,151103,6,0,B|400:184|368:240|320:256,1,144,2|0,0:0|0:0,0:0:0
384,136,151703,2,0,B|360:184|296:208|248:176,1,144,2|0,0:0|0:0,0:0:0
384,136,152303,2,0,B|328:152|288:112,1,96,2|2,0:0|0:0,0:0:0
240,72,152603,2,0,B|200:32|144:48,1,96
80,56,152903,1,2,0:0:0
16,224,153203,5,0,0:0:0
80,56,153503,6,0,B|112:88|112:160|72:192,1,144,2|0,0:0|0:0,0:0:0
80,56,154103,2,0,B|128:64|160:120|144:176,1,144,2|0,0:0|0:0,0:0:0
80,56,154703,2,0,B|136:48|168:80,1,96,2|2,0:0|0:0,0:0:0
216,136,155003,2,0,B|248:176|224:232,1,96
184,288,155303,1,2,0:0:0
317,370,155603,5,0,0:0:0
184,288,155903,6,0,B|216:320|272:312,1,96,4|0,0:0|0:0,0:0:0
344,304,156203,2,0,B|400:296|424:248,1,96,2|2,0:0|0:0,0:0:0
448,184,156503,2,0,B|464:136|432:88,1,96
384,40,156803,2,0,B|352:8|296:16,1,96,2|0,0:0|0:0,0:0:0
160,48,157103,6,0,B|120:80|128:136,1,96,4|0,0:0|0:0,0:0:0
144,200,157403,2,0,B|152:248|208:280,1,96,2|2,0:0|0:0,0:0:0
264,304,157703,2,0,B|320:320|376:288,1,96
424,280,158003,2,0,B|472:256|488:200,1,96,2|0,0:0|0:0,0:0:0
488,136,158303,5,0,0:0:0
392,48,158603,1,2,0:0:0
272,16,158903,1,0,0:0:0
152,48,159203,1,2,0:0:0
64,144,159503,2,0,B|24:208|24:208|160:128|200:168|200:168|320:112|360:160,1,432,4|0,0:0|0:0,0:0:0
488,136,160703,5,0,0:0:0
392,48,161003,1,2,0:0:0
272,16,161303,1,0,0:0:0
152,48,161603,1,2,0:0:0
64,144,161903,6,0,B|16:240,1,96,2|0,0:0|0:0,0:0:0
80,272,162203,2,0,B|128:176,1,96,2|0,0:0|0:0,0:0:0
200,184,162503,2,0,B|176:240,3,48,12|8|8|8,0:0|0:0|0:0|0:0,0:0:0
104,352,163003,1,8,0:0:0
104,352,163103,5,0,0:0:0
104,352,164003,5,0,0:0:0
208,328,164203,1,0,0:0:0
208,328,164903,6,0,B|304:352,1,96
368,328,165503,6,0,B|424:336|464:296,1,96,2|2,0:0|0:0,0:0:0
496,240,165803,2,0,B|520:192|496:144,1,96,10|0,0:0|0:0,0:0:0
464,80,166103,2,0,B|432:40|376:40,1,96,2|2,0:0|0:0,0:0:0
312,56,166403,1,10,0:0:0
464,80,166603,6,0,B|440:136|344:160|288:120,1,192,2|10,0:0|0:0,0:0:0
168,40,167303,1,2,0:0:0
48,136,167603,1,8,0:0:0
40,160,167703,1,8,0:0:0
32,184,167803,1,8,0:0:0
24,208,167903,6,0,B|8:264|48:304,1,96,2|0,0:0|0:0,0:0:0
96,344,168203,2,0,B|144:376|208:352,1,96,10|0,0:0|0:0,0:0:0
256,344,168503,2,0,B|304:320|312:264,1,96,2|0,0:0|0:0,0:0:0
312,200,168803,1,10,0:0:0
256,344,169003,6,0,B|208:304|208:208|256:160,1,192,2|10,0:0|0:0,0:0:0
352,72,169603,1,2,0:0:0
352,72,169703,2,0,B|392:64|456:88|472:136,1,144,2|10,0:0|0:0,0:0:0
464,272,170203,1,0,0:0:0
464,272,170303,6,0,B|448:328|392:336,1,96,2|0,0:0|0:0,0:0:0
392,264,170603,2,0,B|349:287|300:267,1,96,8|0,0:0|0:0,0:0:0
344,205,170903,2,0,B|296:184|248:208,1,96,2|0,0:0|0:0,0:0:0
246,134,171203,2,0,B|190:142|178:202,1,96,8|0,0:0|0:0,0:0:0
208,264,171503,2,0,B|112:384,1,144,2|10,0:0|0:0,0:0:0
32,208,172103,5,2,0:0:0
40,176,172203,1,2,0:0:0
48,144,172303,1,0,0:0:0
80,112,172403,5,10,0:0:0
112,104,172503,1,10,0:0:0
144,96,172603,1,8,0:0:0
176,64,172703,6,0,B|280:40,1,96,2|2,0:0|0:0,0:0:0
216,128,173003,2,0,B|320:104,1,96,10|0,0:0|0:0,0:0:0
352,168,173303,2,0,B|184:208,1,144,2|10,0:0|0:0,0:0:0
269,42,173803,6,0,B|312:0|416:8|448:64,1,192,2|10,0:0|0:0,0:0:0
504,192,174403,1,0,0:0:0
504,192,174503,2,0,B|488:240|416:256|384:232,1,144,2|10,0:0|0:0,0:0:0
264,344,175103,6,0,B|224:312|168:320,1,96,2|0,0:0|0:0,0:0:0
112,280,175403,2,0,B|104:232|64:200,1,96,10|0,0:0|0:0,0:0:0
72,128,175703,2,0,B|120:104|128:48,1,96,2|0,0:0|0:0,0:0:0
192,24,176003,1,10,0:0:0
72,128,176203,6,0,B|104:160|184:144|192:88,1,144,2|2,0:0|0:0,0:0:0
192,24,176603,2,0,B|248:24|264:80,1,96,10|2,0:0|0:0,0:0:0
288,144,176903,2,0,B|280:192|336:248|392:232,1,144,6|8,0:0|0:0,0:0:0
400,256,177303,1,8,0:0:0
424,280,177403,1,8,0:0:0
448,304,177503,6,0,B|416:352|352:336,1,96,2|2,0:0|0:0,0:0:0
296,328,177803,2,0,B|240:320|216:272,1,96,10|0,0:0|0:0,0:0:0
192,208,178103,2,0,B|184:160|224:120,1,96,2|2,0:0|0:0,0:0:0
272,72,178403,1,10,0:0:0
192,208,178603,6,0,B|248:224|328:168|336:96,1,192,2|10,0:0|0:0,0:0:0
208,40,179203,1,2,0:0:0
208,40,179303,2,0,B|152:24|112:64,1,96,2|2,0:0|0:0,0:0:0
64,104,179603,2,0,B|32:144|40:200,1,96,10|2,0:0|0:0,0:0:0
48,264,179903,6,0,B|136:312,1,96,2|0,0:0|0:0,0:0:0
200,344,180203,2,0,B|248:368|304:336,1,96,8|0,0:0|0:0,0:0:0
360,304,180503,2,0,B|416:224,1,96,2|0,0:0|0:0,0:0:0
456,160,180803,2,0,B|480:112|448:64,1,96,10|0,0:0|0:0,0:0:0
408,8,181103,6,0,B|256:40,1,144,4|8,0:0|0:0,0:0:0
208,176,181703,1,8,0:0:0
216,208,181803,1,8,0:0:0
224,240,181903,1,8,0:0:0
232,272,182003,1,8,0:0:0
240,304,182103,1,8,0:0:0
248,336,182203,1,8,0:0:0
256,368,182303,5,4,0:0:0
