osu file format v10

[General]
AudioFilename: Utatabigarasu.mp3
AudioLeadIn: 0
PreviewTime: 54603
Countdown: 0
SampleSet: Normal
StackLeniency: 0.3
Mode: 0
LetterboxInBreaks: 0

[Editor]
DistanceSpacing: 1
BeatDivisor: 3
GridSize: 8

[Metadata]
Title:Utatabigarasu
TitleUnicode:Utatabigarasu
Artist:capitaro
ArtistUnicode:capitaro
Creator:NatsumeRin
Version:Easy
Source:Vocaloid
Tags:Hatsune Miku tanaka karenying Kotone
BeatmapID:180805
BeatmapSetID:59982

[Difficulty]
HPDrainRate:2
CircleSize:3
OverallDifficulty:2
ApproachRate:3
SliderMultiplier:0.8
SliderTickRate:1

[Events]
//Background and Video events
0,0,"BG.jpg"
Video,0,"PV.flv"
//Break Periods
2,74503,82463
2,141703,149663
//Storyboard Layer 0 (Background)
//Storyboard Layer 1 (Fail)
//Storyboard Layer 2 (Pass)
//Storyboard Layer 3 (Foreground)
//Storyboard Sound Samples
//Background Colour Transformations
3,100,163,162,255

[TimingPoints]
5903,300,4,1,1,70,1,0
10103,-100,4,1,1,55,0,0
10603,-100,4,1,1,70,0,0
14903,-100,4,1,1,55,0,0
15503,-100,4,2,2,50,0,0
16703,-100,4,2,1,60,0,0
21203,-100,4,1,2,60,0,0
21503,-100,4,2,1,60,0,0
25903,-100,4,1,1,60,0,0
26303,-100,4,2,1,60,0,0
30503,-100,4,2,1,45,0,0
30803,-100,4,2,1,60,0,0
33203,-100,4,2,1,45,0,0
33503,-100,4,2,1,60,0,0
34703,-100,4,2,1,70,0,0
35903,-100,4,2,1,80,0,0
37303,-100,4,2,1,70,0,0
40703,-100,4,2,1,80,0,0
42103,-100,4,2,1,70,0,0
45503,-100,4,2,1,80,0,0
46903,-100,4,2,1,70,0,0
50303,-100,4,2,1,80,0,0
52703,-100,4,2,1,90,0,0
55103,-100,4,2,1,90,0,1
59603,-100,4,2,1,70,0,1
59903,-100,4,2,1,90,0,1
64103,-100,4,1,1,70,0,1
64403,-100,4,1,1,60,0,1
64703,-100,4,2,1,90,0,1
69203,-100,4,2,1,70,0,1
69503,-100,4,2,1,90,0,1
73703,-100,4,2,1,70,0,1
74003,-100,4,2,1,60,0,1
74303,-100,4,1,2,70,0,0
83903,-100,4,2,1,60,0,0
88403,-100,4,1,2,60,0,0
88703,-100,4,2,1,60,0,0
93203,-100,4,2,1,50,0,0
93503,-100,4,1,1,70,0,0
102503,-100,4,1,0,35,0,0
102703,-100,4,1,1,70,0,0
103103,-100,4,2,1,80,0,0
104503,-100,4,2,1,70,0,0
107903,-100,4,2,1,80,0,0
109303,-100,4,2,1,70,0,0
112403,-100,4,2,1,60,0,0
112703,-100,4,2,1,80,0,0
114103,-100,4,2,1,70,0,0
117503,-100,4,2,1,80,0,0
119903,-100,4,2,1,90,0,0
121703,-100,4,1,1,65,0,0
122003,-100,4,1,1,55,0,0
122303,-100,4,2,1,90,0,1
126803,-100,4,2,1,70,0,1
127103,-100,4,2,1,90,0,1
131303,-100,4,1,1,70,0,1
131603,-100,4,1,1,60,0,1
131903,-100,4,2,1,90,0,1
136403,-100,4,2,1,70,0,1
136703,-100,4,2,1,90,0,1
140903,-100,4,2,1,70,0,1
141203,-100,4,2,1,60,0,1
141503,-100,4,1,2,70,0,0
151103,-100,4,2,1,60,0,0
153203,-100,4,1,0,60,0,0
153503,-100,4,2,1,60,0,0
155603,-100,4,1,0,60,0,0
155903,-100,4,2,1,70,0,0
162503,-100,4,2,1,60,0,0
163103,-100,4,1,0,70,0,0
165103,-100,4,1,0,50,0,0
165503,-100,4,2,1,90,0,1
167603,-100,4,2,1,70,0,1
167903,-100,4,2,1,90,0,1
172103,-100,4,1,1,70,0,1
172403,-100,4,1,1,60,0,1
172703,-100,4,2,1,90,0,1
177203,-100,4,2,1,70,0,1
177503,-100,4,2,1,90,0,1
181703,-100,4,2,1,70,0,1
182003,-100,4,2,1,60,0,1
182303,-100,4,2,1,80,0,0

[Colours]
Combo1 : 255,0,128
Combo2 : 128,0,255
Combo3 : 255,0,255
Combo4 : 0,0,191

[HitObjects]
88,136,5903,5,0,0:0:0
256,104,6503,2,0,B|280:32,1,53.3333333333333,0|2,0:0|0:0,0:0:0
344,24,7003,2,0,B|392:0|448:24,1,106.666666666667,0|2,0:0|0:0,0:0:0
504,80,7703,2,0,B|472:176,1,80,0|2,0:0|0:0,0:0:0
448,232,8303,5,0,0:0:0
312,312,8903,2,0,B|256:336,1,53.3333333333333,0|2,0:0|0:0,0:0:0
184,320,9403,2,0,B|128:344|80:320,1,106.666666666667,0|2,0:0|0:0,0:0:0
32,256,10103,2,0,B|32:168,1,80,8|8,0:0|0:0,0:0:0
64,104,10703,5,0,0:0:0
216,56,11303,2,0,B|232:112,1,53.3333333333333,0|2,0:0|0:0,0:0:0
256,184,11803,2,0,B|224:240|264:328|344:328,1,186.666666666667
402,297,12803,1,0,0:0:0
472,336,13103,5,0,0:0:0
360,224,13703,2,0,B|376:168,1,53.3333333333333,0|2,0:0|0:0,0:0:0
392,96,14203,2,0,B|344:56|248:80|232:136,1,186.666666666667,0|8,0:0|0:0,0:0:0
224,216,15203,1,0,0:0:0
264,288,15503,5,0,0:0:0
112,336,16103,1,0,0:0:0
152,184,16703,5,2,0:0:0
152,184,17303,1,2,0:0:0
152,184,17903,2,0,B|176:136|248:120|296:152,1,160,2|2,0:0|0:0,0:0:0
360,200,18803,1,8,0:0:0
400,272,19103,5,2,0:0:0
448,120,19703,1,2,0:0:0
296,72,20303,1,2,0:0:0
248,224,20903,2,0,B|216:320,1,80,2|2,0:0|0:0,0:0:0
144,328,21503,5,2,0:0:0
144,328,22103,1,2,0:0:0
144,328,22703,2,0,B|104:352|24:312|24:248,1,160,2|0,0:0|0:0,0:0:0
64,184,23603,1,8,0:0:0
24,112,23903,5,2,0:0:0
168,48,24503,1,2,0:0:0
312,112,25103,2,0,B|344:80|392:96,1,80,2|0,0:0|0:0,0:0:0
440,152,25703,2,0,B|408:184|360:168,1,80,2|8,0:0|0:0,0:0:0
288,192,26303,5,2,0:0:0
288,192,26903,1,2,0:0:0
288,192,27503,2,0,B|312:240|280:312|224:328,1,160,2|2,0:0|0:0,0:0:0
152,344,28403,1,8,0:0:0
72,328,28703,5,2,0:0:0
152,192,29303,1,2,0:0:0
232,56,29903,1,2,0:0:0
384,96,30503,2,0,B|424:80|464:96,1,80,2|8,0:0|0:0,0:0:0
496,168,31103,5,2,0:0:0
496,168,31703,1,2,0:0:0
496,168,32303,2,0,B|480:216|400:240|352:208,1,160,2|2,0:0|0:0,0:0:0
296,168,33203,1,8,0:0:0
248,104,33503,6,0,B|224:56|144:40|104:72,1,160,2|2,0:0|0:0,0:0:0
8,192,34703,2,0,B|32:240|112:256|152:224,1,160,2|2,0:0|0:0,0:0:0
216,264,35603,1,0,0:0:0
248,336,35903,5,4,0:0:0
248,336,37303,2,0,B|296:336|296:336|328:360|400:352|416:304,1,186.666666666667,4|0,0:0|0:0,0:0:0
416,224,38303,5,2,0:0:0
360,72,38903,1,0,0:0:0
256,192,39503,1,2,0:0:0
200,40,40103,1,0,0:0:0
56,104,40703,5,4,0:0:0
56,104,42103,2,0,B|47:141|80:184|128:200|128:200|96:264,1,186.666666666667,4|0,0:0|0:0,0:0:0
64,320,43103,5,2,0:0:0
216,368,43703,1,0,0:0:0
376,344,44303,1,2,0:0:0
480,216,44903,1,0,0:0:0
464,56,45503,5,4,0:0:0
464,56,46903,2,0,B|408:56|408:56|392:104|336:120|296:104,1,186.666666666667,4|0,0:0|0:0,0:0:0
232,64,47903,5,2,0:0:0
72,88,48503,1,0,0:0:0
224,144,49103,1,2,0:0:0
64,168,49703,2,0,B|80:256,1,80,0|2,0:0|0:0,0:0:0
96,328,50303,6,0,B|128:368|200:384|200:384|264:344|272:288,1,240
352,280,51503,2,0,B|408:272|456:216|456:216|448:144|400:104,1,240
352,56,52703,6,0,B|312:32|232:48|216:104,1,160,8|8,0:0|0:0,0:0:0
320,184,53803,6,0,B|240:248,2,80,2|2|2,0:0|0:0|0:0,0:0:0
216,336,55103,6,0,B|176:368|88:352|72:304,1,160,2|2,0:0|0:0,0:0:0
160,208,56203,2,0,B|152:160|104:144|104:144|128:48,1,186.666666666667,2|2,0:0|0:0,0:0:0
280,88,57503,6,0,B|296:40|384:32|424:72,1,160,2|2,0:0|0:0,0:0:0
480,184,58603,2,0,B|440:216|384:192|384:192|352:288,1,186.666666666667,2|2,0:0|0:0,0:0:0
328,352,59603,1,8,0:0:0
248,368,59903,6,0,B|208:392|120:376|104:328,1,160,2|2,0:0|0:0,0:0:0
16,232,61003,2,0,B|32:200|80:184|120:200,1,106.666666666667,2|2,0:0|0:0,0:0:0
184,216,61703,2,0,B|280:184,1,80,2|0,0:0|0:0,0:0:0
336,168,62303,5,2,0:0:0
480,232,62903,1,0,0:0:0
456,72,63503,1,2,0:0:0
304,16,64103,2,0,B|208:40,1,80,2|10,0:0|0:0,0:0:0
152,56,64703,6,0,B|104:80|88:152|128:208,1,160,2|2,0:0|0:0,0:0:0
240,144,65803,2,0,B|264:184|264:224|240:264|240:264|296:304,1,186.666666666667,2|2,0:0|0:0,0:0:0
432,224,67103,6,0,B|480:208|504:136|472:88,1,160,2|2,0:0|0:0,0:0:0
352,32,68203,2,0,B|304:56|304:56|264:32|200:40|184:80,1,186.666666666667,2|4,0:0|0:0,0:0:0
160,152,69203,1,8,0:0:0
184,232,69503,6,0,B|192:280|272:304|320:272,1,160,2|2,0:0|0:0,0:0:0
448,312,70603,2,0,B|472:256|440:208,1,106.666666666667,2|0,0:0|0:0,0:0:0
384,152,71303,1,2,0:0:0
256,56,71903,5,2,0:0:0
128,152,72503,1,2,0:0:0
184,304,73103,2,0,B|200:344|312:344|328:296,1,160,2|8,0:0|0:0,0:0:0
256,160,74303,5,4,0:0:0
80,256,83903,5,2,0:0:0
80,256,84503,1,2,0:0:0
80,256,85103,2,0,B|120:280|208:264|232:208,1,160,2|2,0:0|0:0,0:0:0
264,152,86003,1,0,0:0:0
256,72,86303,5,2,0:0:0
408,32,86903,1,2,0:0:0
496,168,87503,1,2,0:0:0
384,280,88103,2,0,B|288:304,1,80,2|2,0:0|0:0,0:0:0
240,256,88703,5,2,0:0:0
240,256,89303,1,2,0:0:0
240,256,89903,2,0,B|208:288|112:272|96:224,1,160,2|2,0:0|0:0,0:0:0
72,152,90803,1,0,0:0:0
104,80,91103,6,0,B|136:40|208:32|256:64,1,160,2|2,0:0|0:0,0:0:0
376,160,92303,2,0,B|416:136|456:144,1,80,2|0,0:0|0:0,0:0:0
432,224,92903,2,0,B|480:216|512:256,1,80,2|8,0:0|0:0,0:0:0
448,304,93503,6,0,B|376:360,1,80,0|2,0:0|0:0,0:0:0
224,352,94403,1,2,0:0:0
144,208,95003,1,2,0:0:0
80,160,95303,2,0,B|104:128|152:128,1,80,0|2,0:0|0:0,0:0:0
224,96,95903,6,0,B|272:96|296:64,1,80,0|2,0:0|0:0,0:0:0
448,96,96803,1,2,0:0:0
472,256,97403,1,2,0:0:0
320,312,98003,1,2,0:0:0
240,312,98303,6,0,B|160:312,1,80,0|2,0:0|0:0,0:0:0
24,232,99203,1,2,0:0:0
56,72,99803,2,0,B|96:96|144:64,1,80,2|0,0:0|0:0,0:0:0
200,24,100403,1,2,0:0:0
280,40,100703,6,0,B|368:40,1,80,0|2,0:0|0:0,0:0:0
464,160,101603,1,2,0:0:0
480,240,101903,2,0,B|432:248|400:208,2,80,0|2|4,0:0|0:0|0:0,0:0:0
328,304,103103,5,4,0:0:0
328,304,104503,2,0,B|280:280|280:280|264:320|200:344|152:320,1,186.666666666667,4|0,0:0|0:0,0:0:0
88,296,105503,5,2,0:0:0
40,144,106103,1,0,0:0:0
168,48,106703,1,2,0:0:0
296,144,107303,1,0,0:0:0
424,48,107903,5,4,0:0:0
424,48,109303,2,0,B|384:88|384:88|416:120|416:184|376:216,1,186.666666666667,4|0,0:0|0:0,0:0:0
328,264,110303,5,2,0:0:0
184,336,110903,1,0,0:0:0
72,224,111503,1,2,0:0:0
144,80,112103,1,0,0:0:0
304,104,112703,5,4,0:0:0
304,104,114103,2,0,B|360:88|360:88|376:120|448:136|480:96,1,186.666666666667,4|0,0:0|0:0,0:0:0
424,40,115103,5,2,0:0:0
464,192,115703,1,0,0:0:0
368,320,116303,1,2,0:0:0
208,352,116903,2,0,B|120:320,1,80,0|2,0:0|0:0,0:0:0
56,296,117503,6,0,B|16:224|16:224|48:152|48:152|88:120|136:136,1,240
112,216,118703,2,0,B|160:224|192:184|192:184|264:192|264:192|328:264,1,240
368,312,119903,5,8,0:0:0
448,296,120203,1,8,0:0:0
472,216,120503,1,8,0:0:0
376,128,121003,6,0,B|376:40,2,80,2|2|2,0:0|0:0|0:0,0:0:0
192,88,122303,6,0,B|152:56|64:72|48:128,1,160,2|2,0:0|0:0,0:0:0
144,208,123403,2,0,B|120:264|120:264|136:304|120:352|72:368,1,186.666666666667,2|2,0:0|0:0,0:0:0
216,272,124703,6,0,B|256:240|336:248|360:304,1,160,2|2,0:0|0:0,0:0:0
464,224,125803,2,0,B|424:248|424:248|392:200|344:176|296:176,1,186.666666666667,2|2,0:0|0:0,0:0:0
232,176,126803,1,8,0:0:0
160,208,127103,6,0,B|112:224|40:200|32:144,1,160,2|2,0:0|0:0,0:0:0
136,64,128203,2,0,B|256:64,1,106.666666666667,2|2,0:0|0:0,0:0:0
312,24,128903,2,0,B|352:8|392:24,1,80,2|0,0:0|0:0,0:0:0
464,64,129503,5,2,0:0:0
352,176,130103,1,0,0:0:0
464,296,130703,2,0,B|448:344|368:368|312:336,1,160,2|2,0:0|0:0,0:0:0
264,288,131603,1,10,0:0:0
184,304,131903,6,0,B|136:320|56:296|40:240,1,160,2|2,0:0|0:0,0:0:0
16,120,133003,2,0,B|64:104|104:136|104:136|160:48,1,186.666666666667,2|2,0:0|0:0,0:0:0
312,96,134303,6,0,B|336:48|424:40|464:80,1,160,2|2,0:0|0:0,0:0:0
416,200,135403,2,0,B|400:240|400:240|384:272|304:288|264:248,1,186.666666666667,2|4,0:0|0:0,0:0:0
112,288,136703,6,0,B|56:264|40:184|88:136,1,160,2|2,0:0|0:0,0:0:0
56,24,137803,2,0,B|112:8|160:48,1,106.666666666667,2|0,0:0|0:0,0:0:0
208,104,138503,2,0,B|240:192,1,80,2|0,0:0|0:0,0:0:0
264,256,139103,5,2,0:0:0
424,280,139703,1,0,0:0:0
368,128,140303,1,2,0:0:0
208,104,140903,2,0,B|149:174,1,80,10|8,0:0|0:0,0:0:0
104,224,141503,5,4,0:0:0
104,224,151103,5,2,0:0:0
104,224,151703,1,2,0:0:0
104,224,152303,2,0,B|136:256|192:240,1,80,2|0,0:0|0:0,0:0:0
256,224,152903,1,2,0:0:0
256,224,153503,5,2,0:0:0
256,224,154103,1,2,0:0:0
256,224,154703,2,0,B|288:192|344:208,1,80,2|0,0:0|0:0,0:0:0
408,224,155303,1,2,0:0:0
408,224,155903,5,2,0:0:0
408,224,156503,1,2,0:0:0
408,224,157103,2,0,B|336:264|344:360|408:384|496:384|512:320|496:272|448:256|424:304,1,320,4|2,0:0|0:0,0:0:0
296,368,158903,5,0,0:0:0
152,296,159503,1,2,0:0:0
152,136,160103,1,0,0:0:0
296,64,160703,6,0,B|336:96|336:176|296:208,1,160,2|2,0:0|0:0,0:0:0
224,176,161603,1,0,0:0:0
152,136,161903,2,0,B|64:136,2,80,2|2|4,0:0|0:0|0:0,0:0:0
272,240,163103,5,0,0:0:0
272,240,164903,2,0,B|252:174,1,53.3333333333333
232,88,165503,6,0,B|216:40|128:32|88:72,1,160,2|2,0:0|0:0,0:0:0
32,184,166603,2,0,B|72:216|128:192|128:192|160:288,1,186.666666666667,2|2,0:0|0:0,0:0:0
184,352,167603,1,8,0:0:0
264,368,167903,6,0,B|304:392|392:376|408:328,1,160,2|2,0:0|0:0,0:0:0
496,232,169003,2,0,B|480:200|432:184|392:200,1,106.666666666667,2|2,0:0|0:0,0:0:0
328,216,169703,2,0,B|232:184,1,80,2|0,0:0|0:0,0:0:0
176,168,170303,5,2,0:0:0
32,232,170903,1,0,0:0:0
56,72,171503,1,2,0:0:0
208,16,172103,2,0,B|304:40,1,80,2|10,0:0|0:0,0:0:0
360,56,172703,6,0,B|408:80|424:152|384:208,1,160,2|2,0:0|0:0,0:0:0
272,144,173803,2,0,B|248:184|248:224|272:264|272:264|216:304,1,186.666666666667,2|2,0:0|0:0,0:0:0
80,224,175103,6,0,B|32:208|8:136|40:88,1,160,2|2,0:0|0:0,0:0:0
160,32,176203,2,0,B|208:56|208:56|248:32|312:40|328:80,1,186.666666666667,2|4,0:0|0:0,0:0:0
352,152,177203,1,8,0:0:0
328,232,177503,6,0,B|320:280|240:304|192:272,1,160,2|2,0:0|0:0,0:0:0
64,312,178603,2,0,B|40:256|72:208,1,106.666666666667,2|0,0:0|0:0,0:0:0
128,152,179303,1,2,0:0:0
256,56,179903,5,2,0:0:0
384,152,180503,1,2,0:0:0
328,304,181103,2,0,B|312:344|200:344|184:296,1,160,2|8,0:0|0:0,0:0:0
256,160,182303,5,4,0:0:0
