osu file format v12

[General]
AudioFilename: s.mp3
AudioLeadIn: 2000
PreviewTime: 145000
Countdown: 0
SampleSet: Soft
StackLeniency: 0.5
Mode: 0
LetterboxInBreaks: 0

[Editor]
Bookmarks: 6648,17412,40530,51824,74412,97000,119588,130883,147824
DistanceSpacing: 1
BeatDivisor: 4
GridSize: 4

[Metadata]
Title:Tenshinranman High Collar Hime
TitleUnicode:天真爛漫高襟姫
Artist:capitaro
ArtistUnicode:かぴたろう
Creator:Midasmens
Version:Insane
Source:
Tags:hatsune miku tanaka banana kds kite xakyrie xcherry vocaloid
BeatmapID:169387
BeatmapSetID:55925

[Difficulty]
HPDrainRate:7
CircleSize:4
OverallDifficulty:7
ApproachRate:9
SliderMultiplier:1.8
SliderTickRate:2

[Events]
//Background and Video events
0,0,"BG.jpg",0,0
//Break Periods
2,6923,16888
2,64806,73888
2,109982,119065
2,145076,146771
//Storyboard Layer 0 (Background)
//Storyboard Layer 1 (Fail)
//Storyboard Layer 2 (Pass)
//Storyboard Layer 3 (Foreground)
//Storyboard Sound Samples
//Background Colour Transformations
3,100,255,191,255

[TimingPoints]
372,352.941176470588,4,2,1,50,1,0
6371,-200,4,1,1,80,0,0
6724,352.941176470588,4,1,2,80,1,0
17488,-100,4,1,2,70,0,0
23135,-100,4,1,2,40,0,0
23312,-100,4,1,2,50,0,0
23488,-100,4,1,2,60,0,0
23665,-100,4,1,2,70,0,0
25782,-200,4,1,2,70,0,0
26488,-100,4,1,2,70,0,0
29312,-100,4,1,1,70,0,0
29488,-100,4,1,2,70,0,0
34253,-100,4,1,2,40,0,0
34429,-100,4,1,2,50,0,0
34606,-100,4,1,2,60,0,0
34782,-100,4,1,2,70,0,0
37076,-200,4,1,2,70,0,0
37782,-100,4,1,2,70,0,0
39900,-100,4,1,2,40,0,0
40076,-100,4,1,2,50,0,0
40253,-100,4,1,2,60,0,0
40429,-100,4,2,2,60,0,0
49076,-133.333333333333,4,1,1,70,0,0
50223,-100,4,1,1,50,0,0
51900,-100,4,2,1,80,0,1
52253,-100,4,1,2,80,0,1
52297,-100,4,2,1,80,0,1
52782,-100,4,1,2,80,0,1
54723,-100,4,2,1,80,0,1
55076,-100,4,1,2,80,0,1
55121,-100,4,2,1,80,0,1
55606,-100,4,1,2,80,0,1
57547,-100,4,2,1,80,0,1
57900,-100,4,1,2,80,0,1
57944,-100,4,2,1,80,0,1
58385,-100,4,1,2,80,0,1
60371,-100,4,2,1,80,0,1
61429,-100,4,1,2,80,0,1
62665,-200,4,1,1,70,0,0
63018,-100,4,2,1,80,0,0
63194,-100,4,1,1,80,0,0
74488,-100,4,1,2,60,0,0
85782,-100,4,2,2,50,0,0
94253,-100,4,2,2,50,0,0
96723,-200,4,1,1,60,0,0
96900,-100,4,1,1,60,0,0
97076,-100,4,2,1,80,0,1
97429,-100,4,1,2,80,0,1
97473,-100,4,2,1,80,0,1
97959,-100,4,1,2,80,0,1
99900,-100,4,2,1,80,0,1
100253,-100,4,1,2,80,0,1
100297,-100,4,2,1,80,0,1
100782,-100,4,1,2,80,0,1
102723,-100,4,2,1,80,0,1
103076,-100,4,1,2,80,0,1
103121,-100,4,2,1,80,0,1
103606,-100,4,1,2,80,0,1
105547,-100,4,2,1,80,0,1
105900,-100,4,1,2,80,0,1
105944,-100,4,2,1,80,0,1
106429,-100,4,1,2,80,0,1
107841,-200,4,1,1,60,0,0
108018,-100,4,1,1,60,0,0
121076,-100,4,2,1,60,0,0
122488,-100,4,1,1,60,0,0
123900,-100,4,2,1,60,0,0
125312,-100,4,1,1,60,0,0
126723,-100,4,2,1,60,0,0
128135,-100,4,1,1,60,0,0
129547,-100,4,2,1,60,0,0
130959,-100,4,1,2,70,0,0
136076,-100,4,2,1,60,0,0
136253,-100,4,1,1,60,0,0
136606,-100,4,1,2,70,0,0
139429,-133.333333333333,4,1,1,60,0,0
140488,-100,4,1,1,60,0,0
140841,-100,4,1,2,60,0,0
147371,-133.333333333333,4,2,1,60,0,0
147900,-100,4,2,1,80,0,1
148253,-100,4,1,2,80,0,1
148297,-100,4,2,1,80,0,1
148782,-100,4,1,2,80,0,1
150723,-100,4,2,1,80,0,1
151076,-100,4,1,2,80,0,1
151121,-100,4,2,1,80,0,1
151562,-100,4,1,2,80,0,1
153547,-100,4,2,1,80,0,1
154606,-100,4,1,2,80,0,1
156371,-100,4,2,1,80,0,1
156723,-100,4,1,2,80,0,1
156768,-100,4,2,1,80,0,1
157253,-100,4,1,2,80,0,1
157782,-100,4,2,1,80,0,1
158135,-100,4,1,2,80,0,1
158179,-100,4,2,1,80,0,1
158665,-100,4,1,2,80,0,1
159194,-100,4,2,1,80,0,1
159547,-100,4,1,2,80,0,1
159591,-100,4,2,1,80,0,1
160076,-100,4,1,2,80,0,1
163959,-100,4,2,1,80,0,1
164665,-100,4,1,2,80,0,1
165547,-100,4,1,2,60,0,1
165723,-133.333333333333,4,2,1,50,0,0
166076,-100,4,1,1,5,0,0
171900,-100,4,1,1,70,0,0
173312,-100,4,2,1,80,0,0

[Colours]
Combo1 : 0,206,103
Combo2 : 255,128,192

[HitObjects]
356,296,372,2,0,B|408:288|424:232,1,90,0|2,0:0|0:0,0:0:0:0:
416,204,636,1,0,0:0:0:0:
400,172,724,1,8,0:0:0:0:
312,112,901,1,0,0:0:0:0:
208,88,1077,1,0,0:0:0:0:
116,144,1254,5,2,0:0:0:0:
92,180,1342,1,0,0:0:0:0:
92,224,1430,1,8,0:0:0:0:
148,316,1607,1,0,0:0:0:0:
256,336,1783,1,0,0:0:0:0:
356,296,1960,2,0,B|396:328,2,45,2|0|8,0:0|0:0|0:0,0:0:0:0:
256,148,2313,1,0,0:0:0:0:
352,100,2489,1,0,0:0:0:0:
448,152,2666,1,2,0:0:0:0:
424,192,2754,1,0,0:0:0:0:
380,204,2842,1,8,0:0:0:0:
136,284,3019,5,0,0:0:0:0:
208,232,3195,2,0,B|251:261|291:229,1,90,0|2,0:0|0:0,0:0:0:0:
316,204,3460,1,0,0:0:0:0:
328,172,3548,1,8,0:0:0:0:
256,92,3724,1,0,0:0:0:0:
152,68,3901,1,0,0:0:0:0:
68,136,4077,1,2,0:0:0:0:
48,176,4166,1,0,0:0:0:0:
56,220,4254,1,8,0:0:0:0:
120,328,4430,5,4,0:0:0:0:
208,352,4607,1,0,0:0:0:0:
184,264,4783,1,0,0:0:0:0:
296,320,4960,1,8,0:0:0:0:
232,192,5136,1,0,0:0:0:0:
368,268,5313,1,0,0:0:0:0:
256,112,5489,1,0,0:0:0:0:
400,188,5666,1,8,0:0:0:0:
256,32,5842,1,2,0:0:0:0:
256,280,6371,6,0,B|256:188,1,90,0|2,0:0|0:0,0:0:0:0:
344,116,17488,5,2,0:0:0:0:
420,196,17665,1,8,0:0:0:0:
404,236,17753,1,0,0:0:0:0:
368,264,17841,1,0,0:0:0:0:
264,228,18018,2,0,B|228:260|164:248|144:192,1,135,0|0,0:0|0:0,0:0:0:0:
132,132,18371,2,0,B|164:164|156:240|96:252,1,135,2|0,0:0|0:0,0:0:0:0:
111,247,18723,1,0,0:0:0:0:
192,312,18900,1,0,0:0:0:0:
232,336,18988,1,0,0:0:0:0:
272,336,19076,1,10,0:0:0:0:
368,284,19253,1,0,0:0:0:0:
424,192,19429,6,0,B|448:152|424:92|376:88,1,135
412,48,19782,2,0,B|385:86|328:72,1,90,2|0,0:0|0:0,0:0:0:0:
208,64,20135,1,0,0:0:0:0:
208,64,20312,1,0,0:0:0:0:
172,92,20400,1,0,0:0:0:0:
160,136,20488,2,0,B|180:184|240:176,1,90,10|0,0:0|0:0,0:0:0:0:
324,196,20841,6,0,B|336:240|304:296|252:296,1,135
212,304,21194,2,0,B|192:256|148:248,1,90,2|0,0:0|0:0,0:0:0:0:
92,324,21547,2,0,B|48:312|20:260|40:212,1,135
56,172,21900,2,0,B|16:144,2,45,10|0|0,0:0|0:0|0:0,0:0:0:0:
187,101,22253,5,0,0:0:0:0:
258,305,22429,1,0,0:0:0:0:
320,98,22606,1,0,0:0:0:0:
149,229,22782,1,0,0:0:0:0:
364,224,22959,1,0,0:0:0:0:
260,228,23135,5,2,0:0:0:0:
220,192,23312,1,2,0:0:0:0:
256,152,23488,1,2,0:0:0:0:
296,188,23665,1,2,0:0:0:0:
100,320,23841,5,0,0:0:0:0:
64,300,23929,1,0,0:0:0:0:
52,260,24018,1,2,0:0:0:0:
52,152,24194,2,0,P|84:120|140:108,1,90
152,232,24547,2,0,B|160:284|216:292,1,90,0|10,0:0|0:0,0:0:0:0:
256,192,24900,1,0,0:0:0:0:
380,144,25076,6,0,B|371:81|304:71,1,90
239,324,25429,2,0,B|299:344|338:290,1,90,2|0,0:0|0:0,0:0:0:0:
174,86,25782,6,0,B|117:109|128:176,1,90,0|10,0:0|0:0,0:0:0:0:
164,252,26312,1,0,0:0:0:0:
256,192,26488,6,0,B|308:180|308:120,1,90
376,212,26841,2,0,B|428:220|432:280,2,90,2|0|0,0:0|0:0|0:0,0:0:0:0:
420,112,27371,1,0,0:0:0:0:
296,56,27547,1,10,0:0:0:0:
164,80,27723,1,0,0:0:0:0:
92,192,27900,5,0,0:0:0:0:
146,325,28076,1,0,0:0:0:0:
181,185,28253,1,0,0:0:0:0:
70,278,28429,1,0,0:0:0:0:
215,269,28606,5,2,0:0:0:0:
308,324,28782,1,2,0:0:0:0:
280,208,28959,1,2,0:0:0:0:
380,264,29135,1,2,0:0:0:0:
320,132,29312,1,4,0:0:0:0:
276,56,29488,5,0,0:0:0:0:
232,56,29576,1,0,0:0:0:0:
196,84,29665,1,2,0:0:0:0:
112,56,29841,2,0,P|80:88|80:148,1,90
164,160,30194,2,0,B|180:208|136:240,1,90,0|10,0:0|0:0,0:0:0:0:
52,216,30547,1,0,0:0:0:0:
172,332,30723,6,0,B|216:344|272:316|284:272,1,135
308,236,31076,2,0,B|336:200|392:208,1,90,2|0,0:0|0:0,0:0:0:0:
444,276,31429,2,0,B|484:260|500:196|476:156,1,135
452,124,31782,2,0,B|496:88,2,45,10|0|0,0:0|0:0|0:0,0:0:0:0:
324,48,32135,6,0,B|272:32|224:60|216:112,1,135
216,152,32488,2,0,B|176:184|124:172,1,90,2|0,0:0|0:0,0:0:0:0:
44,148,32841,2,0,B|4:180|4:232|32:268,1,135
32,268,33194,1,10,0:0:0:0:
128,320,33371,1,0,0:0:0:0:
236,336,33547,2,0,B|280:352|328:316,1,90
364,224,33900,2,0,B|316:204|280:240,1,90
256,124,34253,5,2,0:0:0:0:
232,116,34429,1,2,0:0:0:0:
208,108,34606,1,2,0:0:0:0:
180,100,34782,1,2,0:0:0:0:
156,92,34959,6,0,B|108:92|72:128,1,90
52,164,35223,1,0,0:0:0:0:
44,208,35312,1,0,0:0:0:0:
120,280,35488,2,0,B|144:328|196:316,1,90
256,252,35841,2,0,B|256:196,2,45,0|0|10,0:0|0:0|0:0,0:0:0:0:
332,304,36194,2,0,B|380:296|396:248,1,90
320,172,36547,2,0,B|312:124|364:92,1,90,0|2,0:0|0:0,0:0:0:0:
424,180,36900,1,0,0:0:0:0:
196,72,37076,6,0,B|148:60|112:96,1,90,0|10,0:0|0:0,0:0:0:0:
88,260,37782,6,0,B|104:304|156:328|204:312,1,135
240,288,38135,2,0,B|216:248,2,45,2|0|0,0:0|0:0|0:0,0:0:0:0:
344,312,38488,1,0,0:0:0:0:
424,240,38665,1,0,0:0:0:0:
324,204,38841,1,10,0:0:0:0:
404,132,39018,1,0,0:0:0:0:
288,64,39194,5,0,0:0:0:0:
152,76,39371,1,0,0:0:0:0:
56,172,39547,1,0,0:0:0:0:
68,308,39724,1,0,0:0:0:0:
152,276,39900,5,2,0:0:0:0:
176,188,40076,1,2,0:0:0:0:
256,148,40253,1,2,0:0:0:0:
344,156,40429,1,2,0:0:0:0:
344,156,40518,1,0,0:0:0:0:
344,156,40606,2,0,B|428:192,1,90,0|2,0:0|0:0,0:0:0:0:
448,296,40959,2,0,B|364:256,1,90,8|2,0:0|0:0,0:0:0:0:
168,156,41312,2,0,B|84:192,1,90,0|2,0:0|0:0,0:0:0:0:
64,296,41665,2,0,B|148:256,1,90,0|10,0:0|0:0,0:0:0:0:
256,336,42018,6,0,B|336:328|344:244,1,135
344,156,42371,2,0,B|264:160|256:248,1,135
176,280,42724,2,0,B|104:264|100:180,1,135
124,104,43076,1,0,0:0:0:0:
256,40,43253,2,0,B|256:132,1,90,10|8,0:0|0:0,0:0:0:0:
388,96,43606,1,0,0:0:0:0:
388,96,43694,1,0,0:0:0:0:
388,96,43782,6,0,B|456:168,1,90,0|10,0:0|0:0,0:0:0:0:
460,296,44135,2,0,B|398:230,1,90,0|2,0:0|0:0,0:0:0:0:
124,96,44488,2,0,B|56:168,1,90,0|10,0:0|0:0,0:0:0:0:
52,296,44841,2,0,B|113:230,1,90,0|2,0:0|0:0,0:0:0:0:
196,192,45194,6,0,B|208:272|280:284,1,135
284,192,45547,2,0,B|272:112|200:100,1,135
199,100,45900,1,0,0:0:0:0:
360,296,46076,6,0,B|388:256|444:268,1,90,10|8,0:0|0:0,0:0:0:0:
360,88,46429,2,0,B|388:128|444:116,1,90,2|0,0:0|0:0,0:0:0:0:
372,192,46782,2,0,B|284:192,1,90,10|0,0:0|0:0,0:0:0:0:
212,276,47135,2,0,B|168:272|144:224,1,90,2|0,0:0|0:0,0:0:0:0:
36,204,47488,2,0,B|80:200|104:152,1,90,10|0,0:0|0:0,0:0:0:0:
172,68,47841,5,0,0:0:0:0:
280,52,48018,1,0,0:0:0:0:
384,84,48194,1,10,0:0:0:0:
428,116,48282,1,0,0:0:0:0:
436,168,48371,1,0,0:0:0:0:
404,272,48547,1,0,0:0:0:0:
312,212,48724,2,0,B|260:220|248:272,1,90,0|10,0:0|0:0,0:0:0:0:
88,292,49076,6,0,B|40:236|80:164,1,135.000005149842,0|8,0:0|0:0,0:0:0:0:
172,68,49782,2,0,B|220:124|180:196,1,135.000005149842,0|8,0:0|0:0,0:0:0:0:
256,272,50488,5,10,0:0:0:0:
256,228,50665,1,10,0:0:0:0:
256,184,50841,1,10,0:0:0:0:
256,140,51018,1,10,0:0:0:0:
256,40,51194,5,8,0:0:0:0:
256,40,51547,1,4,0:0:0:0:
160,60,51900,6,0,B|184:108,1,45,2|0,0:0|0:0,0:0:0:0:
132,176,52076,2,0,B|111:135,1,45
16,72,52253,2,0,B|36:112,1,45,8|0,0:0|0:0,0:0:0:0:
92,276,52429,2,0,B|71:235,1,45,2|0,0:0|0:0,0:0:0:0:
176,252,52606,2,0,B|220:268|264:240,1,90,2|2,0:0|0:0,0:0:0:0:
332,160,52959,2,0,B|376:144|420:172,1,90,8|0,0:0|0:0,0:0:0:0:
428,272,53312,5,0,0:0:0:0:
308,328,53488,1,0,0:0:0:0:
444,308,53665,1,8,0:0:0:0:
312,292,53841,1,0,0:0:0:0:
260,196,54018,1,0,0:0:0:0:
156,164,54194,1,0,0:0:0:0:
60,212,54371,2,0,B|16:184|36:124,1,90,8|0,0:0|0:0,0:0:0:0:
200,44,54724,6,0,B|252:44,1,45,2|0,0:0|0:0,0:0:0:0:
436,80,54900,2,0,B|391:80,1,45,2|0,0:0|0:0,0:0:0:0:
256,152,55076,2,0,B|308:152,1,45,8|0,0:0|0:0,0:0:0:0:
412,232,55253,2,0,B|367:232,1,45,2|0,0:0|0:0,0:0:0:0:
296,288,55429,2,0,B|268:328|216:324,1,90,2|2,0:0|0:0,0:0:0:0:
68,136,55782,2,0,B|88:96|152:84|196:116,1,135,8|0,0:0|0:0,0:0:0:0:
186,110,56135,5,8,0:0:0:0:
144,240,56312,1,8,0:0:0:0:
232,344,56488,1,8,0:0:0:0:
144,240,56665,1,8,0:0:0:0:
401,108,57018,5,0,0:0:0:0:
426,133,57106,1,0,0:0:0:0:
432,168,57194,1,0,0:0:0:0:
423,202,57282,1,0,0:0:0:0:
395,226,57371,1,0,0:0:0:0:
359,228,57459,1,0,0:0:0:0:
325,216,57547,6,0,B|277:216,1,45,2|0,0:0|0:0,0:0:0:0:
165,160,57724,2,0,B|210:160,1,45,2|0,0:0|0:0,0:0:0:0:
233,72,57900,2,0,B|269:100,1,45,8|0,0:0|0:0,0:0:0:0:
341,44,58076,2,0,B|361:88,1,45,2|0,0:0|0:0,0:0:0:0:
232,72,58253,6,0,B|184:52|144:76,1,90,2|0,0:0|0:0,0:0:0:0:
80,136,58606,2,0,B|104:168|96:228|56:256,1,135,8|0,0:0|0:0,0:0:0:0:
56,256,58959,2,0,B|137:296,1,90
236,236,59312,2,0,B|264:272|256:324,1,90,8|0,0:0|0:0,0:0:0:0:
340,204,59665,2,0,B|312:164|320:120,1,90
400,56,60018,1,8,0:0:0:0:
432,72,60106,1,0,0:0:0:0:
448,104,60194,1,0,0:0:0:0:
448,196,60371,6,0,B|456:248|400:268,1,90,2|0,0:0|0:0,0:0:0:0:
372,236,60635,1,0,0:0:0:0:
340,204,60723,2,0,B|296:188|240:216|228:264,1,135,2|0,0:0|0:0,0:0:0:0:
229,257,61076,2,0,B|147:212,1,90
140,124,61429,2,0,B|88:144,2,45
256,48,61782,5,8,0:0:0:0:
256,336,61959,1,8,0:0:0:0:
101,192,62135,1,8,0:0:0:0:
409,192,62312,1,8,0:0:0:0:
256,152,62665,6,0,B|256:244,1,90,0|4,0:0|0:0,0:0:0:0:
256,192,63194,12,4,64606,0:0:0:0:
412,120,74488,6,0,B|376:148,1,45
340,172,74665,2,0,B|296:196|256:160,1,90,0|2,0:0|0:0,0:0:0:0:
184,108,75018,2,0,B|148:72|92:80,1,90
76,184,75371,1,0,0:0:0:0:
76,228,75459,1,0,0:0:0:0:
104,264,75547,1,10,0:0:0:0:
196,316,75723,1,0,0:0:0:0:
308,340,75900,2,0,B|352:344|400:308|404:256,1,135
428,224,76253,2,0,B|468:256,2,45,2|0|0,0:0|0:0|0:0,0:0:0:0:
332,64,76606,6,0,B|264:28|200:64,1,135
136,124,76959,2,0,B|204:160|268:124,1,135,10|0,0:0|0:0,0:0:0:0:
352,152,77312,1,0,0:0:0:0:
128,312,77665,6,0,B|72:316|52:268,1,90,2|0,0:0|0:0,0:0:0:0:
48,164,78018,1,0,0:0:0:0:
104,72,78194,1,0,0:0:0:0:
212,56,78371,1,10,0:0:0:0:
316,92,78547,1,0,0:0:0:0:
256,180,78724,5,0,0:0:0:0:
168,160,78900,1,0,0:0:0:0:
108,228,79076,1,2,0:0:0:0:
128,312,79253,1,0,0:0:0:0:
212,340,79429,2,0,B|304:340,1,90
324,252,79782,2,0,B|416:252,1,90,0|10,0:0|0:0,0:0:0:0:
336,76,80135,6,0,B|288:56|252:84,1,90
120,112,80488,1,2,0:0:0:0:
92,132,80576,1,0,0:0:0:0:
84,168,80665,1,0,0:0:0:0:
96,200,80753,1,0,0:0:0:0:
128,220,80841,2,0,B|168:252|216:220,1,90
252,140,81194,2,0,B|304:144|312:196,1,90,10|0,0:0|0:0,0:0:0:0:
276,300,81547,6,0,B|300:340|360:328,1,90
400,316,81812,1,0,0:0:0:0:
436,292,81900,2,0,B|400:264|388:200|420:164,1,135,2|0,0:0|0:0,0:0:0:0:
415,170,82253,2,0,B|341:115,1,90
248,68,82606,2,0,B|196:56|168:96,1,90,10|0,0:0|0:0,0:0:0:0:
28,132,82959,2,0,B|80:120|108:160,1,90
132,264,83312,2,0,B|80:276|52:236,1,90,2|0,0:0|0:0,0:0:0:0:
176,184,83665,5,0,0:0:0:0:
260,252,83841,1,0,0:0:0:0:
340,180,84018,1,10,0:0:0:0:
256,112,84194,1,0,0:0:0:0:
368,324,84371,6,0,B|420:316|432:264,1,90
492,180,84724,2,0,B|440:172|428:120,1,90,2|0,0:0|0:0,0:0:0:0:
340,180,85076,1,0,0:0:0:0:
256,112,85253,2,0,B|220:84,2,45,0|0|10,0:0|0:0|0:0,0:0:0:0:
96,168,85606,1,0,0:0:0:0:
96,168,85782,6,0,B|64:204|64:256|100:296,1,135
140,300,86135,2,0,B|168:272|232:272|264:304,1,135,10|0,0:0|0:0,0:0:0:0:
264,304,86488,2,0,B|340:258,1,90
420,212,86841,1,10,0:0:0:0:
420,212,87018,1,0,0:0:0:0:
284,96,87194,6,0,B|232:40|160:72,1,135
84,120,87547,2,0,B|136:176|208:144,1,135,10|0,0:0|0:0,0:0:0:0:
288,184,87900,2,0,B|296:264|232:296,1,135
231,296,88253,1,10,0:0:0:0:
208,144,88429,2,0,B|220:96,1,45
232,56,88606,2,0,B|256:92|312:108|356:88,1,135
400,80,88959,2,0,B|444:80|488:120|488:168,1,135,10|0,0:0|0:0,0:0:0:0:
488,166,89312,2,0,B|417:227,1,90
344,276,89665,1,10,0:0:0:0:
344,276,89841,1,0,0:0:0:0:
256,340,90018,6,0,B|212:352|156:320|152:276,1,135
128,236,90371,2,0,B|80:208,2,45,10|0|0,0:0|0:0|0:0,0:0:0:0:
176,140,90724,2,0,B|208:104|260:116,1,90
300,124,90988,1,0,0:0:0:0:
336,152,91076,1,10,0:0:0:0:
368,236,91253,1,0,0:0:0:0:
300,292,91429,6,0,B|264:316|200:308|172:272,1,135
176,276,91782,2,0,B|127:291,2,45,10|0|0,0:0|0:0|0:0,0:0:0:0:
256,200,92135,2,0,B|280:156|272:100|228:72,1,135
236,77,92488,2,0,B|268:34,2,45,10|0|0,0:0|0:0|0:0,0:0:0:0:
340,92,92841,6,0,B|360:132|408:160|459:146,1,135
453,147,93194,1,10,0:0:0:0:
380,228,93371,1,0,0:0:0:0:
424,244,93459,1,0,0:0:0:0:
464,268,93547,2,0,B|452:316|396:324,1,90
304,332,93900,1,10,0:0:0:0:
200,296,94076,1,0,0:0:0:0:
132,228,94253,6,0,B|108:188|124:140,1,90
388,140,94606,2,0,B|404:192|380:228,1,90
256,328,94959,6,0,B|256:236,1,90
256,56,95312,2,0,B|256:148,1,90
160,192,95665,5,8,0:0:0:0:
256,145,95841,1,8,0:0:0:0:
352,192,96018,1,8,0:0:0:0:
256,236,96194,1,8,0:0:0:0:
256,236,96371,1,8,0:0:0:0:
256,236,96724,6,0,B|256:188,1,45,0|4,0:0|0:0,0:0:0:0:
88,56,97076,6,0,B|112:92,1,45,2|0,0:0|0:0,0:0:0:0:
60,156,97253,2,0,B|84:192,1,45,2|0,0:0|0:0,0:0:0:0:
48,268,97429,2,0,B|72:304,1,45,8|0,0:0|0:0,0:0:0:0:
164,300,97606,2,0,B|139:262,1,45,2|0,0:0|0:0,0:0:0:0:
180,184,97782,2,0,B|208:144|260:152,1,90,2|2,0:0|0:0,0:0:0:0:
332,200,98135,2,0,B|304:240|252:232,1,90,8|0,0:0|0:0,0:0:0:0:
320,80,98488,5,0,0:0:0:0:
404,112,98665,1,0,0:0:0:0:
444,192,98841,2,0,B|480:232|456:288,2,90,8|0|0,0:0|0:0|0:0,0:0:0:0:
368,272,99371,2,0,B|292:324,1,90,0|8,0:0|0:0,0:0:0:0:
192,352,99724,1,0,0:0:0:0:
156,136,99900,6,0,B|128:100,1,45,2|0,0:0|0:0,0:0:0:0:
220,104,100076,2,0,B|212:60,1,45,2|0,0:0|0:0,0:0:0:0:
292,104,100253,2,0,B|300:60,1,45,8|0,0:0|0:0,0:0:0:0:
356,136,100429,2,0,B|384:100,1,45,2|0,0:0|0:0,0:0:0:0:
256,176,100606,2,0,B|256:268,1,90,2|2,0:0|0:0,0:0:0:0:
256,356,100959,1,0,0:0:0:0:
256,356,101135,1,0,0:0:0:0:
132,288,101312,5,8,0:0:0:0:
68,120,101488,1,8,0:0:0:0:
236,56,101665,1,8,0:0:0:0:
312,220,101841,1,8,0:0:0:0:
132,288,102194,5,0,0:0:0:0:
164,272,102282,1,0,0:0:0:0:
184,244,102371,1,0,0:0:0:0:
192,208,102459,1,0,0:0:0:0:
188,172,102547,1,0,0:0:0:0:
164,144,102635,1,0,0:0:0:0:
140,120,102724,6,0,B|188:92,1,45,2|0,0:0|0:0,0:0:0:0:
320,60,102900,2,0,B|281:82,1,45,2|0,0:0|0:0,0:0:0:0:
276,172,103076,2,0,B|324:144,1,45,8|0,0:0|0:0,0:0:0:0:
448,128,103253,2,0,B|409:150,1,45,2|0,0:0|0:0,0:0:0:0:
388,236,103429,1,2,0:0:0:0:
304,304,103606,1,2,0:0:0:0:
200,328,103782,1,8,0:0:0:0:
92,312,103959,1,0,0:0:0:0:
48,212,104135,6,0,B|56:164|112:156,1,90
216,176,104488,2,0,B|208:224|152:232,1,90,8|0,0:0|0:0,0:0:0:0:
176,100,104841,1,0,0:0:0:0:
256,40,105018,1,0,0:0:0:0:
332,100,105194,2,0,B|380:96|412:132,1,90,8|0,0:0|0:0,0:0:0:0:
412,224,105547,6,0,B|444:260,1,45,2|0,0:0|0:0,0:0:0:0:
328,228,105724,2,0,B|298:194,1,45,2|0,0:0|0:0,0:0:0:0:
264,280,105900,2,0,B|296:316,1,45,8|0,0:0|0:0,0:0:0:0:
184,288,106076,2,0,B|154:254,1,45,2|0,0:0|0:0,0:0:0:0:
64,244,106253,2,0,B|32:204|56:152,1,90,2|2,0:0|0:0,0:0:0:0:
124,76,106606,1,0,0:0:0:0:
124,76,106782,1,0,0:0:0:0:
256,88,106959,5,8,0:0:0:0:
404,192,107135,1,8,0:0:0:0:
256,296,107312,1,8,0:0:0:0:
108,192,107488,1,8,0:0:0:0:
256,260,107841,6,0,B|256:168,1,90,0|4,0:0|0:0,0:0:0:0:
256,192,108371,12,0,109782,0:0:0:0:
144,248,119665,5,0,0:0:0:0:
256,192,119841,1,2,0:0:0:0:
256,192,119929,1,2,0:0:0:0:
256,192,120018,1,2,0:0:0:0:
256,84,120194,1,2,0:0:0:0:
368,136,120371,5,0,0:0:0:0:
256,192,120547,1,2,0:0:0:0:
256,192,120635,1,2,0:0:0:0:
256,192,120724,1,2,0:0:0:0:
256,300,120900,1,2,0:0:0:0:
344,312,121076,5,10,0:0:0:0:
168,272,121253,1,10,0:0:0:0:
356,232,121429,1,10,0:0:0:0:
156,196,121606,1,10,0:0:0:0:
368,156,121782,1,10,0:0:0:0:
140,124,121959,1,10,0:0:0:0:
380,84,122135,1,10,0:0:0:0:
124,52,122312,1,8,0:0:0:0:
256,56,122488,5,0,0:0:0:0:
256,192,122665,1,2,0:0:0:0:
256,192,122753,1,2,0:0:0:0:
256,192,122841,1,2,0:0:0:0:
256,328,123018,1,2,0:0:0:0:
256,328,123194,5,0,0:0:0:0:
256,192,123371,1,2,0:0:0:0:
256,192,123459,1,2,0:0:0:0:
256,192,123547,1,2,0:0:0:0:
256,56,123724,1,2,0:0:0:0:
352,84,123900,5,2,0:0:0:0:
308,116,123988,1,2,0:0:0:0:
256,124,124076,1,2,0:0:0:0:
204,116,124165,1,2,0:0:0:0:
160,88,124253,1,2,0:0:0:0:
136,192,124429,1,4,0:0:0:0:
160,296,124606,1,2,0:0:0:0:
204,268,124694,1,2,0:0:0:0:
256,260,124782,1,2,0:0:0:0:
308,268,124871,1,2,0:0:0:0:
352,300,124959,1,2,0:0:0:0:
388,340,125047,1,2,0:0:0:0:
440,352,125135,1,2,0:0:0:0:
396,192,125312,5,0,0:0:0:0:
256,192,125488,1,2,0:0:0:0:
256,192,125576,1,2,0:0:0:0:
256,192,125665,1,2,0:0:0:0:
256,328,125841,1,2,0:0:0:0:
116,192,126018,5,0,0:0:0:0:
256,192,126194,1,2,0:0:0:0:
256,192,126282,1,2,0:0:0:0:
256,192,126371,1,2,0:0:0:0:
256,56,126547,1,2,0:0:0:0:
360,76,126724,5,10,0:0:0:0:
448,140,126900,1,10,0:0:0:0:
344,112,127076,1,10,0:0:0:0:
432,204,127253,1,10,0:0:0:0:
320,136,127429,1,10,0:0:0:0:
392,252,127606,1,10,0:0:0:0:
292,152,127782,1,10,0:0:0:0:
348,296,127959,1,8,0:0:0:0:
128,308,128135,5,0,0:0:0:0:
256,260,128312,1,2,0:0:0:0:
256,260,128400,1,2,0:0:0:0:
256,260,128488,1,2,0:0:0:0:
256,124,128665,1,2,0:0:0:0:
384,76,128841,5,0,0:0:0:0:
256,124,129018,1,2,0:0:0:0:
256,124,129106,1,2,0:0:0:0:
256,124,129194,1,2,0:0:0:0:
256,260,129371,1,2,0:0:0:0:
152,284,129547,5,10,0:0:0:0:
64,220,129724,1,10,0:0:0:0:
168,248,129900,1,10,0:0:0:0:
80,156,130076,1,8,0:0:0:0:
196,220,130253,5,2,0:0:0:0:
236,204,130341,1,2,0:0:0:0:
280,204,130429,1,2,0:0:0:0:
324,220,130518,1,2,0:0:0:0:
352,256,130606,1,2,0:0:0:0:
360,300,130694,1,2,0:0:0:0:
344,340,130782,1,2,0:0:0:0:
256,308,130959,6,8,B|172:348,1,90
232,292,132371,6,8,B|148:332,1,90
204,272,133782,6,8,B|120:312,1,90
172,248,135194,6,8,B|88:288,1,90
96,164,136076,6,0,B|76:124,2,45,2|0|2,0:0|0:0|0:0,0:0:0:0:
184,100,136429,1,0,0:0:0:0:
184,100,136518,1,0,0:0:0:0:
184,100,136606,6,0,B|228:92|280:124|280:172,1,135
260,212,136959,2,0,B|260:252|300:300|344:304,1,135,8|0,0:0|0:0,0:0:0:0:
388,292,137312,2,0,B|368:252|380:200|428:176,1,135
468,160,137665,2,0,B|488:120|460:56|424:48,1,135,8|0,0:0|0:0,0:0:0:0:
384,72,138018,2,0,B|384:120,2,45
280,116,138371,6,0,B|228:128|196:88,1,90,8|0,0:0|0:0,0:0:0:0:
156,104,138635,1,0,0:0:0:0:
124,132,138723,2,0,B|94:168|42:156,1,90
43,156,139076,2,0,B|64:248,1,90,8|0,0:0|0:0,0:0:0:0:
188,312,139429,6,0,B|252:336|316:292,1,135.000005149842
428,176,140135,2,0,B|356:144|304:196,1,135.000005149842
128,37,140841,5,8,0:0:0:0:
45,164,141018,1,8,0:0:0:0:
173,247,141194,1,8,0:0:0:0:
256,120,141371,1,8,0:0:0:0:
256,312,141547,5,8,0:0:0:0:
205,214,147371,6,0,B|210:170|299:213|318:157,1,135.000005149842
312,340,147900,6,0,B|260:340,1,45,2|0,0:0|0:0,0:0:0:0:
76,304,148076,2,0,B|121:304,1,45,2|0,0:0|0:0,0:0:0:0:
256,232,148253,2,0,B|204:232,1,45,8|0,0:0|0:0,0:0:0:0:
100,152,148429,2,0,B|145:152,1,45,2|0,0:0|0:0,0:0:0:0:
216,96,148606,2,0,B|244:56|296:60,1,90,2|2,0:0|0:0,0:0:0:0:
452,252,148959,2,0,B|424:280|356:288|324:272,1,135,8|0,0:0|0:0,0:0:0:0:
324,272,149312,5,8,0:0:0:0:
368,144,149488,1,8,0:0:0:0:
280,40,149665,1,8,0:0:0:0:
368,144,149841,1,8,0:0:0:0:
111,108,150194,5,0,0:0:0:0:
86,133,150282,1,0,0:0:0:0:
80,168,150371,1,0,0:0:0:0:
89,202,150459,1,0,0:0:0:0:
117,226,150547,1,0,0:0:0:0:
153,228,150635,1,0,0:0:0:0:
187,216,150724,6,0,B|235:216,1,45,2|0,0:0|0:0,0:0:0:0:
347,160,150900,2,0,B|302:160,1,45,2|0,0:0|0:0,0:0:0:0:
279,72,151076,2,0,B|243:100,1,45,8|0,0:0|0:0,0:0:0:0:
171,44,151253,2,0,B|151:88,1,45,2|0,0:0|0:0,0:0:0:0:
280,72,151429,6,0,B|324:56|368:72,1,90,2|0,0:0|0:0,0:0:0:0:
428,140,151782,2,0,B|404:176|412:232|452:260,1,135,8|0,0:0|0:0,0:0:0:0:
453,260,152135,2,0,B|372:300,1,90
276,236,152488,2,0,B|248:276|256:324,1,90,8|0,0:0|0:0,0:0:0:0:
172,204,152841,2,0,B|196:164|192:116,1,90
112,56,153194,1,8,0:0:0:0:
80,72,153282,1,0,0:0:0:0:
68,104,153371,1,0,0:0:0:0:
20,224,153547,6,0,B|56:268|104:264,1,90,2|0,0:0|0:0,0:0:0:0:
140,252,153812,1,0,0:0:0:0:
172,204,153900,2,0,B|212:188|264:208|284:264,1,135,2|0,0:0|0:0,0:0:0:0:
281,257,154253,2,0,B|368:232,1,90
404,140,154606,2,0,B|440:176,2,45
256,48,154959,5,8,0:0:0:0:
256,336,155135,1,8,0:0:0:0:
428,192,155312,1,8,0:0:0:0:
84,192,155488,1,8,0:0:0:0:
256,192,155841,5,8,0:0:0:0:
256,192,156018,1,8,0:0:0:0:
356,352,156371,6,0,B|332:304,1,45,2|0,0:0|0:0,0:0:0:0:
360,200,156547,2,0,B|381:241,1,45,2|0,0:0|0:0,0:0:0:0:
504,344,156724,2,0,B|484:304,1,45,8|0,0:0|0:0,0:0:0:0:
456,128,156900,2,0,B|477:169,1,45,2|0,0:0|0:0,0:0:0:0:
352,120,157076,2,0,B|304:100|264:128,1,90,2|2,0:0|0:0,0:0:0:0:
192,244,157429,2,0,B|144:264|104:232,1,90,8|2,0:0|0:0,0:0:0:0:
100,112,157782,6,0,B|140:80,1,45,2|0,0:0|0:0,0:0:0:0:
272,56,157959,2,0,B|236:84,1,45,2|0,0:0|0:0,0:0:0:0:
192,244,158135,2,0,B|232:212,1,45,8|0,0:0|0:0,0:0:0:0:
352,120,158312,2,0,B|316:148,1,45,2|0,0:0|0:0,0:0:0:0:
336,236,158488,2,0,B|360:280|416:272,1,90,2|2,0:0|0:0,0:0:0:0:
176,148,158841,2,0,B|152:104|96:112,1,90,8|2,0:0|0:0,0:0:0:0:
40,240,159194,6,0,B|51:289,1,45,2|0,0:0|0:0,0:0:0:0:
112,156,159371,2,0,B|101:112,1,45,2|0,0:0|0:0,0:0:0:0:
192,244,159547,2,0,B|203:293,1,45,8|0,0:0|0:0,0:0:0:0:
264,160,159724,2,0,B|253:116,1,45,2|0,0:0|0:0,0:0:0:0:
344,100,159900,2,0,B|384:68|432:92,1,90,2|2,0:0|0:0,0:0:0:0:
192,244,160253,2,0,B|152:276|104:252,1,90,8|2,0:0|0:0,0:0:0:0:
256,356,160606,5,8,0:0:0:0:
412,268,160782,1,8,0:0:0:0:
344,100,160959,1,8,0:0:0:0:
164,120,161135,1,8,0:0:0:0:
84,316,161665,5,0,0:0:0:0:
128,312,161753,1,0,0:0:0:0:
152,276,161841,1,0,0:0:0:0:
116,192,162018,5,8,0:0:0:0:
256,84,162194,1,8,0:0:0:0:
400,192,162371,1,8,0:0:0:0:
256,304,162547,1,8,0:0:0:0:
392,304,163076,6,0,B|360:336,2,45
404,124,163429,1,8,0:0:0:0:
256,228,163606,1,8,0:0:0:0:
108,124,163782,1,8,0:0:0:0:
68,224,163959,5,10,0:0:0:0:
168,264,164135,1,2,0:0:0:0:
68,304,164312,1,2,0:0:0:0:
168,344,164488,1,2,0:0:0:0:
256,304,164665,6,0,B|256:356,2,45
256,124,165018,1,8,0:0:0:0:
424,192,165194,1,8,0:0:0:0:
256,124,165371,1,0,0:0:0:0:
68,304,165724,6,0,B|107:325|144:234|189:255,1,135.000005149842
256,192,166341,12,2,171900,0:0:0:0:
256,192,173312,5,8,0:0:0:0:
