osu file format v14

[General]
AudioFilename: THH.mp3
AudioLeadIn: 0
PreviewTime: 51547
Countdown: 0
SampleSet: Soft
StackLeniency: 0.7
Mode: 3
LetterboxInBreaks: 0
SpecialStyle: 0
WidescreenStoryboard: 0

[Editor]
DistanceSpacing: 1.2
BeatDivisor: 4
GridSize: 32
TimelineZoom: 1.299998

[Metadata]
Title:Tenshinranman Haikara Hime
TitleUnicode:天真爛漫高襟姫
Artist:capitaro
ArtistUnicode:かぴたろう
Creator:Syadow-
Version:NM
Source:
Tags:天響ノ和樂 Tenkyou no Wagaku YCCV-10010 vocaloid Hatsune Miku 初音ミク 高畠竣太朗
BeatmapID:1016104
BeatmapSetID:475591

[Difficulty]
HPDrainRate:7
CircleSize:4
OverallDifficulty:7.5
ApproachRate:5
SliderMultiplier:1.4
SliderTickRate:1

[Events]
//Background and Video events
0,0,"New BG.jpg",0,0
//Break Periods
//Storyboard Layer 0 (Background)
//Storyboard Layer 1 (Fail)
//Storyboard Layer 2 (Pass)
//Storyboard Layer 3 (Foreground)
//Storyboard Sound Samples

[TimingPoints]
371,352.941176470588,4,2,1,50,1,0
6724,352.941176470588,4,2,1,50,1,0
51900,-100,4,2,1,50,0,1
63194,-100,4,2,1,50,0,0
97076,-100,4,2,1,50,0,1
108371,-100,4,2,1,50,0,0
109782,400,4,2,1,50,1,0
109782,-88.4955752212389,4,2,1,50,0,0
110082,331.491712707182,4,2,1,50,1,0
110082,-106.382978723404,4,2,1,50,0,0
110330,437.956204379562,4,2,1,50,1,0
110330,-80.6451612903226,4,2,1,50,0,0
110548,370.37037037037,4,2,1,50,1,0
110548,-95.2380952380952,4,2,1,50,0,0
110733,392.156862745098,4,2,1,50,1,0
110733,-90.0900900900901,4,2,1,50,0,0
110929,300,4,2,1,50,1,0
110929,-117.647058823529,4,2,1,50,0,0
111194,352.941176470588,4,2,1,50,1,0
119664,-100,4,2,1,50,0,1
130958,-100,4,2,1,50,0,0
147899,-100,4,2,1,50,0,1
156017,-100,4,2,1,50,0,0
156370,-100,4,2,1,50,0,1
166252,-100,4,2,1,50,0,0
167318,521.739130434783,4,2,1,50,1,0
167318,-67.5675675675676,4,2,1,50,0,0
167839,359.281437125748,4,2,1,50,1,0
167839,-98.0392156862745,4,2,1,50,0,0
168198,320.855614973262,4,2,1,50,1,0
168198,-109.89010989011,4,2,1,50,0,0
168518,434.782608695652,4,2,1,50,1,0
168518,-81.3008130081301,4,2,1,50,0,0
168735,342.857142857143,4,2,1,50,1,0
168735,-103.092783505155,4,2,1,50,0,0
168906,292.682926829268,4,2,1,50,1,0
168906,-120.481927710843,4,2,1,50,0,0
169198,285.714285714286,4,2,1,50,1,0
169198,-123.456790123457,4,2,1,50,0,0
169483,266.666666666667,4,2,1,50,1,0
169483,-131.578947368421,4,2,1,50,0,0
169749,285.714285714286,4,2,1,50,1,0
169749,-123.456790123457,4,2,1,50,0,0
169891,342.857142857143,4,2,1,50,1,0
169891,-103.092783505155,4,2,1,50,0,0
170062,444.444444444444,4,2,1,50,1,0
170062,-79.3650793650794,4,2,1,50,0,0
170284,582.52427184466,4,2,1,50,1,0
170284,-60.6060606060606,4,2,1,50,0,0
170575,346.820809248555,4,2,1,50,1,0
170575,-102.040816326531,4,2,1,50,0,0
170921,454.545454545455,4,2,1,50,1,0
170921,-77.5193798449612,4,2,1,50,0,0
171375,535.714285714286,4,2,1,50,1,0
171375,-65.7894736842105,4,2,1,50,0,0
171910,352.941176470588,4,2,1,50,1,0

[HitObjects]
64,192,371,5,0,0:0:0:50:LR_J Hit.wav
448,192,547,1,0,0:0:0:0:
192,192,723,1,0,0:0:0:50:LR_J Hit.wav
320,192,900,1,0,0:0:0:50:LR_J Hit.wav
64,192,1253,1,0,0:0:0:0:
448,192,1606,1,0,0:0:0:50:LR_J Hit.wav
192,192,1782,1,0,0:0:0:50:LR_J Hit.wav
448,192,1959,1,0,0:0:0:0:
64,192,2135,1,0,0:0:0:50:LR_J Hit.wav
320,192,2312,1,0,0:0:0:50:LR_J Hit.wav
64,192,2665,1,0,0:0:0:0:
320,192,3018,1,0,0:0:0:50:LR_J Hit.wav
64,192,3194,1,0,0:0:0:50:LR_J Hit.wav
192,192,3370,1,0,0:0:0:0:
448,192,3547,1,0,0:0:0:50:LR_J Hit.wav
320,192,3723,1,0,0:0:0:50:LR_J Hit.wav
64,192,4076,1,0,0:0:0:0:
192,192,4429,1,0,0:0:0:50:LR_J Hit.wav
448,192,4606,1,0,0:0:0:50:LR_J Hit.wav
320,192,4782,1,0,0:0:0:0:
64,192,4959,1,0,0:0:0:50:LR_J Hit.wav
192,192,5135,1,0,0:0:0:50:LR_J Hit.wav
448,192,5312,1,0,0:0:0:50:LR_J Hit.wav
320,192,5488,1,0,0:0:0:0:
64,192,5665,1,0,0:0:0:50:LR_J Hit.wav
448,192,5841,1,0,0:0:0:50:LR_J Hit.wav
320,192,6370,128,0,6723:0:0:0:50:LR_Drum J Hit Med Bass.wav
448,192,6723,1,2,0:0:0:0:
64,192,6723,1,4,0:0:0:0:
192,192,6900,1,0,0:0:0:0:
448,192,7076,1,8,0:0:0:0:
320,192,7076,1,0,0:0:0:0:
192,192,7253,1,0,0:0:0:0:
64,192,7606,1,0,0:0:0:0:
192,192,7782,1,8,0:0:0:0:
320,192,7782,1,0,0:0:0:0:
448,192,7959,1,0,0:0:0:0:
192,192,8135,1,2,0:0:0:0:
320,192,8312,1,0,0:0:0:0:
64,192,8488,1,8,0:0:0:0:
448,192,8488,1,0,0:0:0:0:
192,192,8665,1,0,0:0:0:0:
320,192,9018,1,0,0:0:0:0:
192,192,9194,1,8,0:0:0:0:
64,192,9194,1,0,0:0:0:0:
448,192,9371,1,0,0:0:0:0:
64,192,9547,1,4,0:0:0:0:
320,192,9547,1,2,0:0:0:0:
192,192,9723,1,0,0:0:0:0:
448,192,9900,1,8,0:0:0:0:
320,192,9900,1,0,0:0:0:0:
64,192,10076,1,0,0:0:0:0:
448,192,10429,1,0,0:0:0:0:
64,192,10606,1,8,0:0:0:0:
320,192,10606,1,0,0:0:0:0:
192,192,10782,1,0,0:0:0:0:
448,192,10959,1,2,0:0:0:0:
320,192,11135,1,8,0:0:0:0:
192,192,11135,1,4,0:0:0:0:
64,192,11312,1,2,0:0:0:0:
192,192,11488,1,8,0:0:0:0:
448,192,11488,1,4,0:0:0:0:
320,192,11665,1,2,0:0:0:0:
448,192,11841,1,4,0:0:0:0:
64,192,11841,1,8,0:0:0:0:
192,192,12018,1,4,0:0:0:0:
320,192,12018,1,8,0:0:0:0:
64,192,12194,1,0,0:0:0:0:
192,192,12371,1,2,0:0:0:0:
448,192,12371,1,4,0:0:0:0:
320,192,12547,1,0,0:0:0:0:
192,192,12723,1,8,0:0:0:0:
64,192,12723,1,0,0:0:0:0:
448,192,12900,1,0,0:0:0:0:
192,192,13253,1,0,0:0:0:0:
320,192,13429,1,8,0:0:0:0:
448,192,13429,1,0,0:0:0:0:
64,192,13606,1,0,0:0:0:0:
192,192,13782,1,2,0:0:0:0:
448,192,13959,1,0,0:0:0:0:
320,192,14135,1,8,0:0:0:0:
192,192,14135,1,0,0:0:0:0:
64,192,14312,1,0,0:0:0:0:
448,192,14665,1,0,0:0:0:0:
64,192,14841,1,8,0:0:0:0:
320,192,14841,1,0,0:0:0:0:
192,192,15018,1,0,0:0:0:0:
448,192,15194,1,4,0:0:0:0:
320,192,15194,1,2,0:0:0:0:
64,192,15371,1,0,0:0:0:0:
192,192,15547,1,8,0:0:0:0:
448,192,15547,1,0,0:0:0:0:
320,192,15723,1,0,0:0:0:0:
64,192,15900,1,2,0:0:0:0:
192,192,16076,1,0,0:0:0:0:
320,192,16253,1,8,0:0:0:0:
448,192,16253,1,0,0:0:0:0:
64,192,16429,1,0,0:0:0:0:
448,192,16606,1,8,0:0:0:0:
448,192,16782,1,8,0:0:0:0:
192,192,16959,1,6,0:0:0:0:
320,192,17135,1,8,0:0:0:0:
64,192,17135,1,4,0:0:0:0:
448,192,17488,1,2,0:0:0:0:
192,192,17488,1,0,0:0:0:0:
64,192,17665,1,8,0:0:0:0:
192,192,17753,1,2,0:0:0:0:
448,192,17841,1,2,0:0:0:0:
320,192,17929,1,2,0:0:0:0:
64,192,18018,1,2,0:0:0:0:
192,192,18371,1,2,0:0:0:0:
320,192,18723,128,2,19076:0:0:0:0:
192,192,19076,1,2,0:0:0:0:
64,192,19076,1,0,0:0:0:0:
448,192,19429,1,2,0:0:0:0:
320,192,19782,1,2,0:0:0:0:
192,192,20135,128,2,20488:0:0:0:0:
448,192,20488,1,2,0:0:0:0:
320,192,20488,1,0,0:0:0:0:
64,192,20841,1,2,0:0:0:0:
320,192,21194,1,2,0:0:0:0:
448,192,21547,128,2,21900:0:0:0:0:
64,192,21900,1,2,0:0:0:0:
320,192,21900,1,0,0:0:0:0:
192,192,22253,1,2,0:0:0:0:
448,192,22606,1,2,0:0:0:0:
192,192,22959,1,2,0:0:0:0:
320,192,23135,1,0,0:0:0:0:
192,192,23312,1,8,0:0:0:0:
448,192,23312,1,0,0:0:0:0:
64,192,23488,1,8,0:0:0:0:
320,192,23488,1,0,0:0:0:0:
192,192,23665,1,8,0:0:0:0:
448,192,23665,1,4,0:0:0:0:
320,192,24018,1,2,0:0:0:0:
64,192,24371,128,2,24723:0:0:0:0:
192,192,24723,1,2,0:0:0:0:
448,192,24723,1,8,0:0:0:0:
320,192,25076,1,2,0:0:0:0:
192,192,25429,1,2,0:0:0:0:
320,192,25782,128,2,26135:0:0:0:0:
64,192,26135,1,2,0:0:0:0:
448,192,26135,1,8,0:0:0:0:
192,192,26488,1,2,0:0:0:0:
320,192,26841,1,2,0:0:0:0:
192,192,27194,128,2,27547:0:0:0:0:
64,192,27547,1,2,0:0:0:0:
448,192,27547,1,8,0:0:0:0:
320,192,27900,1,2,0:0:0:0:
192,192,28253,1,2,0:0:0:0:
64,192,28606,1,2,0:0:0:0:
192,192,28782,1,0,0:0:0:0:
448,192,28959,1,2,0:0:0:0:
320,192,29135,1,2,0:0:0:0:
192,192,29312,1,4,0:0:0:0:
64,192,29312,1,2,0:0:0:0:
448,192,29665,1,2,0:0:0:0:
192,192,30018,128,2,30371:0:0:0:0:
320,192,30371,1,2,0:0:0:0:
64,192,30371,1,8,0:0:0:0:
448,192,30723,1,2,0:0:0:0:
64,192,31076,1,2,0:0:0:0:
320,192,31429,128,2,31782:0:0:0:0:
448,192,31782,1,2,0:0:0:0:
192,192,31782,1,8,0:0:0:0:
64,192,32135,1,2,0:0:0:0:
192,192,32488,1,2,0:0:0:0:
320,192,32841,128,2,33194:0:0:0:0:
64,192,33194,1,2,0:0:0:0:
192,192,33194,1,8,0:0:0:0:
448,192,33547,1,2,0:0:0:0:
320,192,33900,1,2,0:0:0:0:
64,192,34253,1,2,0:0:0:0:
448,192,34429,1,0,0:0:0:0:
192,192,34606,1,8,0:0:0:0:
64,192,34606,1,2,0:0:0:0:
320,192,34782,1,8,0:0:0:0:
448,192,34782,1,0,0:0:0:0:
192,192,34959,1,2,0:0:0:0:
64,192,34959,1,4,0:0:0:0:
320,192,35312,1,2,0:0:0:0:
448,192,35665,128,2,36018:0:0:0:0:
192,192,36018,1,8,0:0:0:0:
320,192,36018,1,2,0:0:0:0:
64,192,36371,1,2,0:0:0:0:
320,192,36723,1,2,0:0:0:0:
64,192,37076,128,2,37429:0:0:0:0:
320,192,37429,1,2,0:0:0:0:
192,192,37429,1,8,0:0:0:0:
448,192,37782,1,2,0:0:0:0:
320,192,38135,1,2,0:0:0:0:
192,192,38488,128,2,38841:0:0:0:0:
320,192,38841,1,2,0:0:0:0:
448,192,38841,1,8,0:0:0:0:
64,192,39194,1,2,0:0:0:0:
448,192,39547,1,2,0:0:0:0:
320,192,39900,1,2,0:0:0:0:
192,192,40076,1,0,0:0:0:0:
320,192,40253,1,8,0:0:0:0:
448,192,40253,1,4,0:0:0:0:
64,192,40429,1,8,0:0:0:0:
192,192,40429,1,0,0:0:0:0:
320,192,40606,1,8,0:0:0:0:
448,192,40606,1,0,0:0:0:0:
192,192,40782,1,8,0:0:0:0:
64,192,40782,1,0,0:0:0:0:
448,192,40959,128,2,41312:0:0:0:0:
64,192,41312,1,2,0:0:0:0:
448,192,41665,1,2,0:0:0:0:
192,192,41841,1,8,0:0:0:0:
320,192,41841,1,4,0:0:0:0:
64,192,42018,1,8,0:0:0:0:
448,192,42018,1,4,0:0:0:0:
320,192,42194,1,8,0:0:0:0:
192,192,42194,1,0,0:0:0:0:
64,192,42371,1,2,0:0:0:0:
448,192,42723,1,2,0:0:0:0:
192,192,43076,1,2,0:0:0:0:
320,192,43253,1,8,0:0:0:0:
448,192,43253,1,4,0:0:0:0:
192,192,43429,1,8,0:0:0:0:
64,192,43429,1,4,0:0:0:0:
320,192,43606,1,8,0:0:0:0:
448,192,43606,1,0,0:0:0:0:
64,192,43782,128,2,44135:0:0:0:0:
448,192,44135,1,2,0:0:0:0:
320,192,44488,1,2,0:0:0:0:
64,192,44665,1,4,0:0:0:0:
448,192,44665,1,8,0:0:0:0:
192,192,44841,1,4,0:0:0:0:
320,192,44841,1,8,0:0:0:0:
448,192,45018,1,8,0:0:0:0:
64,192,45018,1,0,0:0:0:0:
192,192,45194,1,2,0:0:0:0:
320,192,45547,1,2,0:0:0:0:
192,192,45900,1,2,0:0:0:0:
320,192,46076,1,4,0:0:0:0:
448,192,46076,1,8,0:0:0:0:
64,192,46253,1,4,0:0:0:0:
192,192,46253,1,8,0:0:0:0:
320,192,46429,1,8,0:0:0:0:
448,192,46429,1,0,0:0:0:0:
192,192,46606,128,2,46959:0:0:0:0:
64,192,46959,1,2,0:0:0:0:
320,192,47312,1,2,0:0:0:0:
64,192,47488,1,8,0:0:0:0:
448,192,47488,1,4,0:0:0:0:
192,192,47665,1,4,0:0:0:0:
320,192,47665,1,8,0:0:0:0:
64,192,47841,1,8,0:0:0:0:
448,192,47841,1,0,0:0:0:0:
192,192,48018,1,2,0:0:0:0:
448,192,48371,1,2,0:0:0:0:
64,192,48547,1,2,0:0:0:0:
192,192,48547,1,0,0:0:0:0:
320,192,48723,1,2,0:0:0:0:
192,192,48900,1,8,0:0:0:0:
64,192,49076,1,4,0:0:0:0:
448,192,49076,128,2,49429:0:0:0:0:
320,192,49429,1,8,0:0:0:0:
192,192,49606,1,2,0:0:0:0:
64,192,49782,128,4,50135:0:0:0:0:
448,192,49782,1,2,0:0:0:0:
192,192,50135,1,8,0:0:0:0:
320,192,50135,1,0,0:0:0:0:
448,192,50312,1,0,0:0:0:0:
192,192,50488,1,2,0:0:0:0:
320,192,50665,1,2,0:0:0:0:
64,192,50841,1,2,0:0:0:0:
448,192,51018,1,2,0:0:0:0:
192,192,51194,1,8,0:0:0:0:
320,192,51194,1,4,0:0:0:0:
64,192,51900,1,2,0:0:0:0:
448,192,51900,1,4,0:0:0:0:
320,192,52076,1,0,0:0:0:0:
192,192,52253,1,8,0:0:0:0:
64,192,52253,1,0,0:0:0:0:
448,192,52429,1,0,0:0:0:0:
192,192,52606,1,2,0:0:0:0:
320,192,52782,1,0,0:0:0:0:
64,192,52959,1,8,0:0:0:0:
448,192,52959,1,0,0:0:0:0:
192,192,53135,1,0,0:0:0:0:
320,192,53312,1,2,0:0:0:0:
64,192,53488,1,0,0:0:0:0:
320,192,53665,1,8,0:0:0:0:
192,192,53665,1,0,0:0:0:0:
448,192,53841,1,0,0:0:0:0:
192,192,54018,1,2,0:0:0:0:
64,192,54194,1,0,0:0:0:0:
448,192,54371,1,8,0:0:0:0:
320,192,54371,1,0,0:0:0:0:
64,192,54547,1,0,0:0:0:0:
192,192,54723,1,4,0:0:0:0:
448,192,54723,1,2,0:0:0:0:
320,192,54900,1,0,0:0:0:0:
64,192,55076,1,8,0:0:0:0:
192,192,55076,1,0,0:0:0:0:
448,192,55253,1,0,0:0:0:0:
320,192,55429,1,2,0:0:0:0:
192,192,55606,1,0,0:0:0:0:
320,192,55782,1,8,0:0:0:0:
448,192,55782,1,0,0:0:0:0:
192,192,55959,1,0,0:0:0:0:
448,192,56135,1,8,0:0:0:0:
64,192,56135,1,0,0:0:0:0:
192,192,56312,1,8,0:0:0:0:
320,192,56312,1,0,0:0:0:0:
64,192,56488,1,2,0:0:0:0:
320,192,56665,1,8,0:0:0:0:
448,192,56665,1,4,0:0:0:0:
448,192,57018,1,8,0:0:0:0:
64,192,57018,1,4,0:0:0:0:
192,192,57194,1,0,0:0:0:0:
320,192,57371,1,0,0:0:0:0:
64,192,57547,1,8,0:0:0:0:
448,192,57547,1,2,0:0:0:0:
320,192,57723,1,0,0:0:0:0:
64,192,57900,1,8,0:0:0:0:
192,192,57900,1,0,0:0:0:0:
448,192,58076,1,0,0:0:0:0:
320,192,58253,1,2,0:0:0:0:
192,192,58429,1,0,0:0:0:0:
64,192,58606,1,8,0:0:0:0:
320,192,58606,1,0,0:0:0:0:
448,192,58782,1,0,0:0:0:0:
192,192,58959,1,2,0:0:0:0:
64,192,59135,1,0,0:0:0:0:
320,192,59312,1,8,0:0:0:0:
192,192,59312,1,0,0:0:0:0:
448,192,59488,1,0,0:0:0:0:
320,192,59665,1,2,0:0:0:0:
64,192,59841,1,0,0:0:0:0:
192,192,60018,1,8,0:0:0:0:
448,192,60018,1,0,0:0:0:0:
320,192,60194,1,0,0:0:0:0:
192,192,60371,1,2,0:0:0:0:
64,192,60371,1,4,0:0:0:0:
448,192,60547,1,0,0:0:0:0:
64,192,60723,1,8,0:0:0:0:
320,192,60723,1,0,0:0:0:0:
192,192,60900,1,0,0:0:0:0:
448,192,61076,1,2,0:0:0:0:
64,192,61253,1,0,0:0:0:0:
192,192,61429,1,8,0:0:0:0:
320,192,61429,1,0,0:0:0:0:
448,192,61606,1,0,0:0:0:0:
192,192,61782,1,8,0:0:0:0:
64,192,61782,1,0,0:0:0:0:
448,192,61959,1,8,0:0:0:0:
320,192,61959,1,0,0:0:0:0:
64,192,62135,1,2,0:0:0:0:
192,192,62312,1,8,0:0:0:0:
320,192,62312,1,4,0:0:0:0:
448,192,62665,1,8,0:0:0:0:
64,192,62665,1,0,0:0:0:0:
320,192,62841,1,0,0:0:0:0:
192,192,63018,1,0,0:0:0:0:
64,192,63194,1,4,0:0:0:0:
448,192,63194,1,2,0:0:0:0:
320,192,63371,1,0,0:0:0:0:
64,192,63547,1,8,0:0:0:0:
192,192,63547,1,0,0:0:0:0:
448,192,63723,1,0,0:0:0:0:
64,192,64076,1,0,0:0:0:0:
192,192,64253,1,8,0:0:0:0:
448,192,64253,1,0,0:0:0:0:
320,192,64429,1,0,0:0:0:0:
448,192,64606,1,2,0:0:0:0:
64,192,64782,1,0,0:0:0:0:
192,192,64959,1,8,0:0:0:0:
320,192,64959,1,0,0:0:0:0:
448,192,65135,1,0,0:0:0:0:
64,192,65488,1,0,0:0:0:0:
192,192,65665,1,8,0:0:0:0:
448,192,65665,1,0,0:0:0:0:
320,192,65841,1,0,0:0:0:0:
192,192,66018,1,2,0:0:0:0:
64,192,66018,1,4,0:0:0:0:
448,192,66194,1,0,0:0:0:0:
320,192,66371,1,8,0:0:0:0:
64,192,66371,1,0,0:0:0:0:
192,192,66547,1,0,0:0:0:0:
64,192,66900,1,0,0:0:0:0:
320,192,67076,1,8,0:0:0:0:
448,192,67076,1,0,0:0:0:0:
192,192,67253,1,0,0:0:0:0:
448,192,67429,1,2,0:0:0:0:
320,192,67606,1,8,0:0:0:0:
64,192,67606,1,4,0:0:0:0:
192,192,67782,1,2,0:0:0:0:
448,192,67959,1,8,0:0:0:0:
64,192,67959,1,4,0:0:0:0:
320,192,68135,1,2,0:0:0:0:
192,192,68312,1,4,0:0:0:0:
64,192,68312,1,8,0:0:0:0:
448,192,68488,1,4,0:0:0:0:
320,192,68488,1,8,0:0:0:0:
192,192,68665,1,0,0:0:0:0:
64,192,68841,1,2,0:0:0:0:
448,192,68841,1,4,0:0:0:0:
320,192,69018,1,0,0:0:0:0:
192,192,69194,1,8,0:0:0:0:
64,192,69194,1,0,0:0:0:0:
448,192,69371,1,0,0:0:0:0:
192,192,69723,1,0,0:0:0:0:
320,192,69900,1,8,0:0:0:0:
64,192,69900,1,0,0:0:0:0:
448,192,70076,1,0,0:0:0:0:
192,192,70253,1,2,0:0:0:0:
320,192,70429,1,0,0:0:0:0:
192,192,70606,1,8,0:0:0:0:
64,192,70606,1,0,0:0:0:0:
448,192,70782,1,0,0:0:0:0:
64,192,71135,1,0,0:0:0:0:
192,192,71312,1,8,0:0:0:0:
448,192,71312,1,0,0:0:0:0:
320,192,71488,1,0,0:0:0:0:
64,192,71665,1,2,0:0:0:0:
192,192,71665,1,4,0:0:0:0:
448,192,71841,1,0,0:0:0:0:
320,192,72018,1,8,0:0:0:0:
64,192,72018,1,0,0:0:0:0:
192,192,72194,1,0,0:0:0:0:
448,192,72371,1,2,0:0:0:0:
320,192,72547,1,0,0:0:0:0:
64,192,72723,1,8,0:0:0:0:
192,192,72723,1,0,0:0:0:0:
320,192,72900,1,8,0:0:0:0:
448,192,72900,1,0,0:0:0:0:
192,192,73076,1,0,0:0:0:0:
448,192,73253,1,0,0:0:0:0:
320,192,73429,1,0,0:0:0:0:
64,192,73606,1,0,0:0:0:0:
192,192,73782,1,0,0:0:0:0:
320,192,73959,1,0,0:0:0:50:LR_J Hit.wav
320,192,74135,1,0,0:0:0:50:LR_J Hit.wav
320,192,74312,1,0,0:0:0:50:LR_J Hit.wav
448,192,74488,1,4,0:0:0:0:
64,192,74488,1,8,0:0:0:0:
448,192,74841,1,2,0:0:0:0:
192,192,75018,1,0,0:0:0:70:LR_J Hit.wav
320,192,75194,1,0,0:0:0:70:LR_J Hit.wav
64,192,75547,1,8,0:0:0:0:
192,192,75547,1,0,0:0:0:0:
448,192,75900,1,2,0:0:0:0:
64,192,76253,1,2,0:0:0:0:
320,192,76429,1,0,0:0:0:50:LR_J Hit.wav
192,192,76606,1,0,0:0:0:50:LR_J Hit.wav
448,192,76959,1,8,0:0:0:0:
64,192,76959,1,0,0:0:0:0:
64,192,77312,1,2,0:0:0:0:
192,192,77665,1,2,0:0:0:0:
448,192,77841,1,0,0:0:0:50:LR_J Hit.wav
320,192,78018,1,0,0:0:0:50:LR_J Hit.wav
192,192,78371,1,8,0:0:0:0:
320,192,78371,1,0,0:0:0:0:
64,192,78723,1,2,0:0:0:0:
192,192,79076,1,2,0:0:0:0:
320,192,79253,1,0,0:0:0:50:LR_J Hit.wav
64,192,79429,128,0,79606:0:0:0:50:LR_J Hit.wav
192,192,79606,128,2,79782:0:0:0:0:
448,192,79782,128,8,79959:0:0:0:0:
320,192,79782,1,0,0:0:0:0:
64,192,79959,128,2,80135:0:0:0:0:
192,192,80135,1,4,0:0:0:0:
320,192,80135,1,2,0:0:0:0:
192,192,80488,1,2,0:0:0:0:
448,192,80665,1,0,0:0:0:50:LR_J Hit.wav
320,192,80841,1,0,0:0:0:50:LR_J Hit.wav
448,192,81194,1,8,0:0:0:0:
64,192,81194,1,0,0:0:0:0:
192,192,81547,1,2,0:0:0:0:
448,192,81900,1,2,0:0:0:0:
320,192,82076,1,0,0:0:0:50:LR_J Hit.wav
192,192,82253,1,0,0:0:0:50:LR_J Hit.wav
64,192,82606,1,8,0:0:0:0:
320,192,82606,1,0,0:0:0:0:
448,192,82959,1,2,0:0:0:0:
320,192,83312,1,2,0:0:0:0:
64,192,83488,1,0,0:0:0:50:LR_J Hit.wav
192,192,83665,1,0,0:0:0:50:LR_J Hit.wav
64,192,84018,1,8,0:0:0:0:
448,192,84018,1,0,0:0:0:0:
320,192,84371,1,2,0:0:0:0:
192,192,84723,1,2,0:0:0:0:
320,192,84900,1,0,0:0:0:50:LR_J Hit.wav
448,192,85076,1,0,0:0:0:50:LR_J Hit.wav
192,192,85253,1,0,0:0:0:0:
64,192,85341,1,8,0:0:0:0:
320,192,85429,1,8,0:0:0:0:
448,192,85606,1,2,0:0:0:0:
64,192,85782,128,4,86135:0:0:0:0:
192,192,85782,1,2,0:0:0:0:
448,192,86047,1,8,0:0:0:0:
320,192,86135,1,8,0:0:0:0:
448,192,86312,1,0,0:0:0:0:
192,192,86488,128,2,86841:0:0:0:0:
64,192,86841,1,8,0:0:0:0:
320,192,87018,1,0,0:0:0:0:
64,192,87194,128,2,87547:0:0:0:0:
448,192,87459,1,8,0:0:0:0:
320,192,87547,1,8,0:0:0:0:
192,192,87723,1,0,0:0:0:0:
320,192,87900,128,2,88253:0:0:0:0:
448,192,88253,1,8,0:0:0:0:
64,192,88429,1,2,0:0:0:0:
192,192,88606,128,4,88959:0:0:0:0:
320,192,88606,1,2,0:0:0:0:
448,192,88871,1,8,0:0:0:0:
64,192,88959,1,8,0:0:0:0:
320,192,89135,1,0,0:0:0:0:
64,192,89312,128,2,89665:0:0:0:0:
448,192,89665,1,8,0:0:0:0:
320,192,89841,1,0,0:0:0:0:
448,192,90018,128,2,90371:0:0:0:0:
192,192,90282,1,8,0:0:0:0:
320,192,90371,1,8,0:0:0:0:
64,192,90547,1,0,0:0:0:0:
192,192,90723,1,2,0:0:0:0:
448,192,90900,1,8,0:0:0:0:
320,192,90988,1,8,0:0:0:0:
192,192,91076,1,4,0:0:0:0:
320,192,91253,1,2,0:0:0:0:
64,192,91429,128,4,91782:0:0:0:0:
448,192,91429,1,2,0:0:0:0:
320,192,91694,1,8,0:0:0:0:
448,192,91782,1,8,0:0:0:0:
192,192,91959,1,0,0:0:0:0:
320,192,92135,128,2,92488:0:0:0:0:
64,192,92488,1,8,0:0:0:0:
192,192,92665,1,0,0:0:0:0:
448,192,92841,128,2,93194:0:0:0:0:
192,192,93106,1,8,0:0:0:0:
320,192,93194,1,8,0:0:0:0:
448,192,93371,1,8,0:0:0:0:
192,192,93547,1,8,0:0:0:0:
64,192,93723,1,8,0:0:0:0:
320,192,93900,1,8,0:0:0:0:
192,192,94076,1,2,0:0:0:0:
64,192,94253,128,4,94606:0:0:0:0:
448,192,94253,1,8,0:0:0:0:
192,192,94606,1,8,0:0:0:0:
448,192,94782,1,2,0:0:0:0:
320,192,94959,128,2,95312:0:0:0:0:
64,192,95312,1,8,0:0:0:0:
448,192,95665,1,8,0:0:0:0:
192,192,95841,1,2,0:0:0:0:
320,192,96018,1,2,0:0:0:0:
64,192,96194,1,2,0:0:0:0:
192,192,96371,1,8,0:0:0:0:
320,192,96371,1,4,0:0:0:0:
448,192,96547,1,0,0:0:0:0:
320,192,96635,1,0,0:0:0:0:
192,192,96723,1,8,0:0:0:0:
64,192,96900,1,2,0:0:0:0:
448,192,97076,1,6,0:0:0:0:
192,192,97253,1,0,0:0:0:0:
64,192,97429,1,8,0:0:0:0:
320,192,97606,1,0,0:0:0:0:
448,192,97782,1,2,0:0:0:0:
64,192,97959,1,0,0:0:0:0:
192,192,98135,1,8,0:0:0:0:
320,192,98135,1,0,0:0:0:0:
448,192,98312,1,0,0:0:0:0:
320,192,98488,1,2,0:0:0:0:
64,192,98665,1,0,0:0:0:0:
192,192,98841,1,8,0:0:0:0:
448,192,98841,1,0,0:0:0:0:
320,192,99018,1,0,0:0:0:0:
64,192,99194,1,2,0:0:0:0:
448,192,99371,1,0,0:0:0:0:
320,192,99547,1,8,0:0:0:0:
192,192,99547,1,0,0:0:0:0:
64,192,99723,1,0,0:0:0:0:
192,192,99900,1,2,0:0:0:0:
448,192,99900,1,4,0:0:0:0:
320,192,100076,1,0,0:0:0:0:
64,192,100253,1,8,0:0:0:0:
192,192,100253,1,0,0:0:0:0:
448,192,100429,1,0,0:0:0:0:
192,192,100606,1,2,0:0:0:0:
320,192,100782,1,0,0:0:0:0:
448,192,100959,1,8,0:0:0:0:
64,192,100959,1,0,0:0:0:0:
320,192,101135,1,0,0:0:0:0:
192,192,101312,1,8,0:0:0:0:
64,192,101312,1,0,0:0:0:0:
448,192,101488,1,8,0:0:0:0:
320,192,101488,1,0,0:0:0:0:
192,192,101665,1,2,0:0:0:0:
448,192,101841,1,8,0:0:0:0:
64,192,101841,1,4,0:0:0:0:
192,192,102194,1,8,0:0:0:0:
320,192,102194,1,0,0:0:0:0:
448,192,102371,1,0,0:0:0:0:
64,192,102547,1,0,0:0:0:0:
448,192,102723,1,4,0:0:0:0:
320,192,102723,1,2,0:0:0:0:
192,192,102900,1,0,0:0:0:0:
448,192,103076,1,8,0:0:0:0:
64,192,103076,1,0,0:0:0:0:
192,192,103253,1,0,0:0:0:0:
320,192,103429,1,2,0:0:0:0:
64,192,103606,1,0,0:0:0:0:
192,192,103782,1,8,0:0:0:0:
320,192,103782,1,0,0:0:0:0:
448,192,103959,1,0,0:0:0:0:
64,192,104135,1,2,0:0:0:0:
448,192,104312,1,0,0:0:0:0:
192,192,104488,1,8,0:0:0:0:
320,192,104488,1,0,0:0:0:0:
64,192,104665,1,0,0:0:0:0:
448,192,104841,1,2,0:0:0:0:
320,192,105018,1,0,0:0:0:0:
64,192,105194,1,8,0:0:0:0:
192,192,105194,1,0,0:0:0:0:
320,192,105371,1,0,0:0:0:0:
448,192,105547,1,2,0:0:0:0:
64,192,105547,1,4,0:0:0:0:
192,192,105723,1,0,0:0:0:0:
320,192,105900,1,8,0:0:0:0:
448,192,105900,1,0,0:0:0:0:
64,192,106076,1,0,0:0:0:0:
320,192,106253,1,2,0:0:0:0:
448,192,106429,1,0,0:0:0:0:
64,192,106606,1,8,0:0:0:0:
192,192,106606,1,0,0:0:0:0:
320,192,106782,1,0,0:0:0:0:
448,192,106959,1,8,0:0:0:0:
64,192,106959,1,0,0:0:0:0:
320,192,107135,1,8,0:0:0:0:
192,192,107135,1,0,0:0:0:0:
64,192,107312,1,2,0:0:0:0:
320,192,107488,1,4,0:0:0:0:
448,192,107488,1,8,0:0:0:0:
448,192,107841,1,2,0:0:0:0:
192,192,108018,1,8,0:0:0:0:
64,192,108018,1,0,0:0:0:0:
320,192,108106,1,2,0:0:0:0:
448,192,108194,1,2,0:0:0:0:
64,192,108371,128,2,109606:0:0:0:0:
192,192,108371,1,4,0:0:0:0:
320,192,109606,1,2,0:0:0:0:
448,192,109782,1,0,0:0:0:0:
320,192,110082,1,0,0:0:0:0:
192,192,110330,1,0,0:0:0:0:
64,192,110548,1,0,0:0:0:0:
448,192,110733,1,0,0:0:0:0:
320,192,110929,1,0,0:0:0:0:
192,192,111079,1,0,0:0:0:0:
448,192,111194,1,2,0:0:0:0:
64,192,111194,1,4,0:0:0:0:
320,192,112429,1,2,0:0:0:0:
192,192,112605,1,2,0:0:0:0:
448,192,112782,1,0,0:0:0:50:LR_J Hit.wav
64,192,112958,1,0,0:0:0:50:LR_J Hit.wav
448,192,113135,1,0,0:0:0:50:LR_J Hit.wav
64,192,113311,1,0,0:0:0:50:LR_J Hit.wav
448,192,113488,1,0,0:0:0:50:LR_J Hit.wav
64,192,113664,1,0,0:0:0:50:LR_J Hit.wav
448,192,113841,1,0,0:0:0:50:LR_J Hit.wav
192,192,114017,128,8,114370:0:0:0:0:
320,192,114017,1,4,0:0:0:0:
64,192,114370,1,0,0:0:0:0:
192,192,114723,1,0,0:0:0:0:
448,192,115076,1,0,0:0:0:0:
320,192,115252,1,2,0:0:0:0:
64,192,115429,1,2,0:0:0:0:
192,192,115782,1,0,0:0:0:0:
320,192,116135,1,0,0:0:0:0:
64,192,116488,1,0,0:0:0:0:
448,192,116664,1,0,0:0:0:0:
320,192,116752,1,0,0:0:0:0:
192,192,116841,1,4,0:0:0:0:
64,192,116841,1,2,0:0:0:0:
448,192,117194,1,2,0:0:0:0:
192,192,117370,1,2,0:0:0:0:
320,192,117546,1,2,0:0:0:0:
64,192,117723,1,2,0:0:0:0:
320,192,117899,1,8,0:0:0:0:
192,192,118076,1,8,0:0:0:0:
448,192,118252,1,4,0:0:0:0:
64,192,118252,1,2,0:0:0:0:
320,192,118429,1,8,0:0:0:0:
192,192,118605,1,4,0:0:0:0:
64,192,118605,1,2,0:0:0:0:
448,192,118782,1,8,0:0:0:0:
320,192,118958,1,2,0:0:0:0:
192,192,118958,1,4,0:0:0:0:
64,192,119135,1,8,0:0:0:0:
64,192,119311,1,8,0:0:0:0:
192,192,119488,1,8,0:0:0:0:
448,192,119664,1,2,0:0:0:0:
320,192,119664,1,4,0:0:0:0:
64,192,119841,1,0,0:0:0:0:
320,192,120017,1,8,0:0:0:0:
448,192,120370,1,2,0:0:0:0:
320,192,120546,1,0,0:0:0:0:
64,192,120723,1,8,0:0:0:0:
192,192,121076,1,2,0:0:0:0:
320,192,121252,1,0,0:0:0:0:
64,192,121429,1,8,0:0:0:0:
448,192,121782,1,2,0:0:0:0:
64,192,121958,1,0,0:0:0:0:
192,192,122135,1,8,0:0:0:0:
320,192,122488,1,4,0:0:0:0:
64,192,122488,1,2,0:0:0:0:
448,192,122664,1,0,0:0:0:0:
192,192,122841,1,8,0:0:0:0:
64,192,123194,1,2,0:0:0:0:
192,192,123370,1,0,0:0:0:0:
448,192,123546,1,8,0:0:0:0:
448,192,123899,128,2,124252:0:0:0:0:
320,192,123899,1,0,0:0:0:0:
64,192,124252,1,8,0:0:0:0:
320,192,124429,1,0,0:0:0:0:
64,192,124605,128,2,124958:0:0:0:0:
448,192,124958,128,8,125311:0:0:0:0:
64,192,125311,1,2,0:0:0:0:
192,192,125311,1,4,0:0:0:0:
320,192,125488,1,0,0:0:0:0:
192,192,125664,1,8,0:0:0:0:
64,192,126017,1,2,0:0:0:0:
320,192,126193,1,0,0:0:0:0:
448,192,126370,1,8,0:0:0:0:
320,192,126723,1,2,0:0:0:0:
64,192,126899,1,0,0:0:0:0:
192,192,127076,1,8,0:0:0:0:
448,192,127429,1,2,0:0:0:0:
192,192,127605,1,0,0:0:0:0:
64,192,127782,1,8,0:0:0:0:
320,192,128135,1,2,0:0:0:0:
448,192,128135,1,4,0:0:0:0:
64,192,128311,1,0,0:0:0:0:
192,192,128488,1,8,0:0:0:0:
64,192,128841,1,2,0:0:0:0:
448,192,129017,1,0,0:0:0:0:
320,192,129193,1,8,0:0:0:0:
64,192,129546,1,2,0:0:0:0:
192,192,129723,1,0,0:0:0:0:
448,192,129899,1,8,0:0:0:0:
192,192,130076,1,0,0:0:0:0:
64,192,130252,1,2,0:0:0:0:
320,192,130252,128,0,130605:0:0:0:0:
448,192,130605,1,8,0:0:0:0:
192,192,130605,1,0,0:0:0:0:
64,192,130782,1,2,0:0:0:0:
192,192,130958,1,8,0:0:0:0:
320,192,130958,1,0,0:0:0:0:
64,192,131135,1,8,0:0:0:0:
448,192,131135,1,0,0:0:0:0:
320,192,131311,1,2,0:0:0:0:
320,192,131664,1,2,0:0:0:0:
192,192,132017,1,2,0:0:0:0:
320,192,132370,1,8,0:0:0:0:
448,192,132370,1,0,0:0:0:0:
192,192,132546,1,8,0:0:0:0:
64,192,132546,1,0,0:0:0:0:
320,192,132723,1,2,0:0:0:0:
320,192,133076,1,2,0:0:0:0:
64,192,133429,1,2,0:0:0:0:
320,192,133782,1,8,0:0:0:0:
448,192,133782,1,0,0:0:0:0:
64,192,133958,1,8,0:0:0:0:
192,192,133958,1,0,0:0:0:0:
320,192,134135,1,2,0:0:0:0:
320,192,134488,1,2,0:0:0:0:
448,192,134841,1,2,0:0:0:0:
64,192,135194,1,8,0:0:0:0:
192,192,135194,1,0,0:0:0:0:
320,192,135370,1,8,0:0:0:0:
448,192,135370,1,0,0:0:0:0:
192,192,135546,1,2,0:0:0:0:
64,192,135899,1,2,0:0:0:0:
448,192,136076,1,0,0:0:0:0:
64,192,136252,1,2,0:0:0:0:
320,192,136429,1,2,0:0:0:0:
448,192,136429,1,0,0:0:0:0:
64,192,136605,1,8,0:0:0:0:
192,192,136605,1,4,0:0:0:0:
320,192,136782,1,0,0:0:0:0:
448,192,136958,1,2,0:0:0:0:
64,192,137135,1,2,0:0:0:0:
320,192,137311,1,2,0:0:0:0:
448,192,137488,1,0,0:0:0:0:
192,192,137664,1,2,0:0:0:0:
64,192,137664,1,0,0:0:0:0:
320,192,137841,1,0,0:0:0:0:
64,192,138017,1,6,0:0:0:0:
448,192,138193,1,0,0:0:0:0:
192,192,138370,1,2,0:0:0:0:
64,192,138546,1,0,0:0:0:0:
448,192,138723,1,2,0:0:0:0:
320,192,138899,1,0,0:0:0:0:
64,192,139076,1,6,0:0:0:0:
192,192,139252,1,0,0:0:0:0:
320,192,139429,128,4,139782:0:0:0:0:
448,192,139429,1,2,0:0:0:0:
192,192,139782,1,8,0:0:0:0:
448,192,139958,1,0,0:0:0:0:
64,192,140135,128,2,140488:0:0:0:0:
192,192,140135,1,0,0:0:0:0:
320,192,140488,1,8,0:0:0:0:
448,192,140664,1,0,0:0:0:0:
64,192,140841,1,8,0:0:0:0:
448,192,141017,1,2,0:0:0:0:
192,192,141193,1,2,0:0:0:0:
320,192,141370,1,2,0:0:0:0:
64,192,141546,1,8,0:0:0:0:
448,192,141546,1,4,0:0:0:0:
320,192,145076,5,0,0:0:0:50:LR_J Hit.wav
192,192,145341,1,0,0:0:0:50:LR_J Hit.wav
448,192,145429,1,0,0:0:0:50:LR_J Hit.wav
64,192,145605,1,0,0:0:0:50:LR_J Hit.wav
448,192,145782,1,0,0:0:0:50:LR_J Hit.wav
320,192,146046,1,0,0:0:0:50:LR_J Hit.wav
64,192,146135,1,0,0:0:0:50:LR_J Hit.wav
448,192,146311,1,0,0:0:0:50:LR_J Hit.wav
192,192,146488,1,0,0:0:0:50:LR_J Hit.wav
320,192,146664,1,0,0:0:0:50:LR_J Hit.wav
192,192,146752,1,0,0:0:0:50:LR_J Hit.wav
64,192,146841,1,0,0:0:0:50:LR_J Hit.wav
320,192,147017,1,0,0:0:0:50:LR_J Hit.wav
448,192,147370,128,0,147899:0:0:0:0:
192,192,147899,1,4,0:0:0:0:
320,192,147899,1,2,0:0:0:0:
64,192,148076,1,0,0:0:0:0:
192,192,148252,1,8,0:0:0:0:
320,192,148252,1,0,0:0:0:0:
448,192,148429,1,0,0:0:0:0:
64,192,148605,1,2,0:0:0:0:
192,192,148782,1,0,0:0:0:0:
320,192,148958,1,8,0:0:0:0:
448,192,148958,1,0,0:0:0:0:
64,192,149135,1,0,0:0:0:0:
192,192,149311,1,8,0:0:0:0:
320,192,149311,1,0,0:0:0:0:
64,192,149488,1,8,0:0:0:0:
448,192,149488,1,0,0:0:0:0:
320,192,149664,1,2,0:0:0:0:
64,192,149841,1,8,0:0:0:0:
192,192,149841,1,0,0:0:0:0:
448,192,150193,1,4,0:0:0:0:
320,192,150193,1,8,0:0:0:0:
192,192,150370,1,8,0:0:0:0:
64,192,150546,1,8,0:0:0:0:
320,192,150723,1,4,0:0:0:0:
192,192,150723,1,2,0:0:0:0:
448,192,150899,1,0,0:0:0:0:
192,192,151076,1,8,0:0:0:0:
64,192,151076,1,0,0:0:0:0:
320,192,151252,1,0,0:0:0:0:
64,192,151429,1,2,0:0:0:0:
448,192,151605,1,0,0:0:0:0:
192,192,151782,1,8,0:0:0:0:
320,192,151782,1,0,0:0:0:0:
64,192,151958,1,0,0:0:0:0:
320,192,152135,1,2,0:0:0:0:
448,192,152311,1,0,0:0:0:0:
64,192,152488,1,8,0:0:0:0:
320,192,152488,1,0,0:0:0:0:
192,192,152664,1,0,0:0:0:0:
64,192,152841,1,2,0:0:0:0:
448,192,153017,1,0,0:0:0:0:
192,192,153193,1,8,0:0:0:0:
320,192,153193,1,0,0:0:0:0:
64,192,153370,1,0,0:0:0:0:
448,192,153546,1,2,0:0:0:0:
320,192,153546,1,4,0:0:0:0:
192,192,153723,1,0,0:0:0:0:
320,192,153899,1,8,0:0:0:0:
64,192,153899,1,0,0:0:0:0:
448,192,154076,1,0,0:0:0:0:
192,192,154252,1,2,0:0:0:0:
320,192,154429,1,0,0:0:0:0:
64,192,154605,1,8,0:0:0:0:
448,192,154605,1,0,0:0:0:0:
320,192,154782,1,0,0:0:0:0:
64,192,154958,1,8,0:0:0:0:
192,192,154958,1,0,0:0:0:0:
320,192,155135,1,8,0:0:0:0:
448,192,155135,1,0,0:0:0:0:
192,192,155311,1,2,0:0:0:0:
448,192,155488,1,8,0:0:0:0:
64,192,155488,1,0,0:0:0:0:
192,192,155841,1,8,0:0:0:0:
64,192,155841,1,4,0:0:0:0:
320,192,156017,1,8,0:0:0:0:
448,192,156017,1,4,0:0:0:0:
64,192,156193,1,0,0:0:0:0:
320,192,156370,1,4,0:0:0:0:
192,192,156370,1,8,0:0:0:0:
64,192,156546,1,0,0:0:0:0:
448,192,156723,1,8,0:0:0:0:
320,192,156723,1,0,0:0:0:0:
192,192,156899,1,0,0:0:0:0:
448,192,157076,1,8,0:0:0:0:
64,192,157076,1,0,0:0:0:0:
320,192,157252,1,0,0:0:0:0:
64,192,157429,1,8,0:0:0:0:
192,192,157429,1,0,0:0:0:0:
320,192,157605,1,0,0:0:0:0:
192,192,157782,1,8,0:0:0:0:
448,192,157782,1,4,0:0:0:0:
64,192,157958,1,0,0:0:0:0:
448,192,158135,1,8,0:0:0:0:
320,192,158135,1,0,0:0:0:0:
192,192,158311,1,0,0:0:0:0:
320,192,158488,1,8,0:0:0:0:
64,192,158488,1,0,0:0:0:0:
448,192,158664,1,0,0:0:0:0:
192,192,158841,1,8,0:0:0:0:
64,192,158841,1,0,0:0:0:0:
320,192,159017,1,0,0:0:0:0:
64,192,159193,1,8,0:0:0:0:
448,192,159193,1,4,0:0:0:0:
192,192,159370,1,0,0:0:0:0:
320,192,159546,1,8,0:0:0:0:
448,192,159546,1,0,0:0:0:0:
192,192,159723,1,0,0:0:0:0:
64,192,159899,1,8,0:0:0:0:
320,192,159899,1,0,0:0:0:0:
448,192,160076,1,8,0:0:0:0:
192,192,160076,1,0,0:0:0:0:
192,192,160252,1,8,0:0:0:0:
64,192,160252,1,0,0:0:0:0:
320,192,160429,1,0,0:0:0:0:
64,192,160605,1,4,0:0:0:0:
448,192,160605,1,8,0:0:0:0:
320,192,160782,1,8,0:0:0:0:
192,192,160782,1,0,0:0:0:0:
64,192,160958,1,8,0:0:0:0:
448,192,160958,1,0,0:0:0:0:
320,192,161135,128,4,161664:0:0:0:0:
192,192,161135,1,2,0:0:0:0:
192,192,161664,1,0,0:0:0:0:
64,192,161664,1,0,0:0:0:0:
448,192,161841,1,8,0:0:0:0:
64,192,162017,1,4,0:0:0:0:
192,192,162017,1,8,0:0:0:0:
448,192,162193,1,8,0:0:0:0:
320,192,162193,1,0,0:0:0:0:
192,192,162370,1,8,0:0:0:0:
64,192,162370,1,0,0:0:0:0:
448,192,162546,128,4,163076:0:0:0:0:
320,192,162546,1,2,0:0:0:0:
64,192,163076,1,0,0:0:0:0:
320,192,163076,1,0,0:0:0:0:
192,192,163252,1,8,0:0:0:0:
448,192,163429,1,8,0:0:0:0:
64,192,163429,1,0,0:0:0:0:
192,192,163605,1,8,0:0:0:0:
320,192,163605,1,0,0:0:0:0:
64,192,163782,1,8,0:0:0:0:
448,192,163782,1,0,0:0:0:0:
320,192,163958,1,6,0:0:0:0:
64,192,164135,1,2,0:0:0:0:
192,192,164311,1,8,0:0:0:0:
320,192,164488,1,2,0:0:0:0:
448,192,164664,1,2,0:0:0:0:
64,192,164841,1,8,0:0:0:0:
192,192,164841,1,0,0:0:0:0:
448,192,165017,1,8,0:0:0:0:
320,192,165017,1,0,0:0:0:0:
64,192,165193,1,8,0:0:0:0:
192,192,165193,1,0,0:0:0:0:
448,192,165370,1,8,0:0:0:0:
320,192,165370,1,0,0:0:0:0:
192,192,165723,128,0,166252:0:0:0:0:
64,192,166252,1,8,0:0:0:0:
320,192,166252,1,4,0:0:0:0:
192,192,167311,1,2,0:0:0:0:
320,192,167311,1,4,0:0:0:0:
64,192,167839,1,0,0:0:0:0:
320,192,168198,1,4,0:0:0:0:
192,192,168198,1,2,0:0:0:0:
448,192,168518,1,0,0:0:0:0:
64,192,168735,1,0,0:0:0:0:
320,192,168906,1,2,0:0:0:0:
192,192,168906,1,4,0:0:0:0:
448,192,169052,1,0,0:0:0:0:
64,192,169198,1,0,0:0:0:0:
448,192,169340,1,0,0:0:0:0:
320,192,169483,1,2,0:0:0:0:
192,192,169483,1,4,0:0:0:0:
64,192,169616,1,0,0:0:0:0:
448,192,169749,1,0,0:0:0:0:
320,192,169891,1,0,0:0:0:0:
64,192,170062,1,4,0:0:0:0:
192,192,170062,1,2,0:0:0:0:
320,192,170284,1,0,0:0:0:0:
448,192,170575,1,0,0:0:0:0:
320,192,170921,1,2,0:0:0:0:
64,192,170921,1,4,0:0:0:0:
192,192,171375,1,0,0:0:0:0:
64,192,171910,1,2,0:0:0:0:
448,192,171910,1,4,0:0:0:0:
320,192,173321,5,0,0:0:0:0:
