osu file format v14

[General]
AudioFilename: Karen Aikyou Hanasakugumi.mp3
AudioLeadIn: 500
PreviewTime: 131123
Countdown: 0
SampleSet: Soft
StackLeniency: 0.7
Mode: 0
LetterboxInBreaks: 1
WidescreenStoryboard: 0

[Editor]
Bookmarks: 35980
DistanceSpacing: 1.5
BeatDivisor: 4
GridSize: 4
TimelineZoom: 1

[Metadata]
Title:Karen Aikyou Hanasaka gumi
TitleUnicode:可憐愛嬌花咲組
Artist:capitaro
ArtistUnicode:かぴたろう
Creator:Tari
Version:Insane
Source:
Tags:vocaloid hatsune miku kagamine rin megpoid
BeatmapID:720614
BeatmapSetID:324320

[Difficulty]
HPDrainRate:6
CircleSize:4
OverallDifficulty:7
ApproachRate:8
SliderMultiplier:2
SliderTickRate:1

[Events]
//Background and Video events
0,0,"BGI.jpg",0,0
Video,700,"opto.flv"
//Break Periods
2,91030,103795
//Storyboard Layer 0 (Background)
//Storyboard Layer 1 (Fail)
//Storyboard Layer 2 (Pass)
//Storyboard Layer 3 (Foreground)
//Storyboard Sound Samples

[TimingPoints]
1688,428.571428571429,4,2,1,40,1,0
1688,-125,4,2,2,60,0,0
6830,-100,4,2,1,55,0,0
8545,-100,4,2,1,70,0,0
11973,-100,4,2,1,70,0,0
14973,-100,4,2,2,60,0,0
15402,-100,4,2,1,70,0,0
21402,-200,4,2,2,70,0,0
22045,-125,4,2,1,60,0,0
35973,-125,4,2,1,65,0,0
49688,-125,4,2,1,60,0,0
53116,-125,4,2,2,50,0,0
53223,-125,4,2,1,65,0,0
55688,-125,4,2,2,50,0,0
56116,-125,4,2,1,65,0,0
59116,-125,4,2,2,50,0,0
59545,-125,4,2,1,70,0,0
59973,-125,4,2,2,55,0,0
60295,-125,4,2,1,65,0,0
61473,-125,4,2,2,55,0,0
61902,-125,4,2,1,65,0,0
63402,-125,4,2,1,75,0,1
68330,-125,4,2,2,60,0,1
68438,-125,4,2,1,75,0,1
75188,-125,4,2,2,60,0,1
75295,-125,4,2,1,75,0,1
82045,-125,4,2,2,60,0,1
82152,-125,4,2,1,75,0,1
88902,-125,4,2,2,60,0,1
89009,-125,4,2,1,75,0,1
90830,-125,4,2,2,75,0,0
104545,-125,4,2,1,55,0,0
118259,-125,4,2,1,60,0,0
121688,-125,4,2,2,40,0,0
121795,-125,4,2,1,65,0,0
124259,-125,4,2,2,50,0,0
124366,-125,4,2,1,60,0,0
128545,-125,4,2,2,40,0,0
128866,-125,4,2,1,65,0,0
130045,-125,4,2,2,40,0,0
130152,-125,4,2,1,65,0,0
131973,-125,4,2,1,75,0,1
136902,-125,4,2,2,60,0,1
137009,-125,4,2,1,75,0,1
143759,-125,4,2,2,60,0,1
144188,-125,4,2,1,75,0,1
150616,-125,4,2,2,60,0,1
150723,-125,4,2,1,75,0,1
157473,-125,4,2,2,60,0,1
157580,-125,4,2,1,75,0,1
159402,-125,4,2,1,65,0,0
164330,-125,4,2,2,65,0,0
164438,-125,4,2,1,65,0,0
171188,-125,4,2,2,60,0,0
171295,-125,4,2,1,65,0,0
179973,-125,4,2,2,50,0,0
184259,-125,4,2,1,70,0,0
191973,-125,4,2,1,75,0,1
193473,-125,4,2,2,60,0,1
193688,-125,4,2,1,75,0,1
200330,-125,4,2,2,60,0,1
200438,-125,4,2,1,75,0,1
207188,-125,4,2,2,60,0,1
207295,-125,4,2,1,75,0,1
214045,-125,4,2,2,60,0,1
214152,-125,4,2,1,75,0,1
215973,-100,4,2,1,60,0,0
228830,-200,4,2,2,30,0,0
229259,-125,4,2,2,5,0,0

[Colours]
Combo1 : 155,55,255
Combo2 : 0,198,0
Combo3 : 0,145,215
Combo4 : 255,143,32

[HitObjects]
480,204,1688,6,0,P|504:256|496:320,1,120,2|0,0:0|0:0,0:0:0:0:
408,180,2116,2,0,P|444:136|472:128,1,80
415,255,2545,2,0,P|363:279|299:271,1,120,2|0,0:0|0:0,0:0:0:0:
303,273,2973,2,0,P|264:264|208:272,1,80
200,288,3295,1,0,0:0:0:0:
168,292,3402,6,0,B|148:276|140:236|140:236|160:212|164:164,1,120,2|0,0:0|0:0,0:0:0:0:
70,78,3830,2,0,P|69:118|90:176,1,80
256,72,4259,6,0,P|188:76|128:132,1,120,2|0,0:0|0:0,0:0:0:0:
332,92,4688,2,0,P|328:44|312:12,1,80
304,182,5116,6,0,P|372:178|432:122,1,120,2|0,0:0|0:0,0:0:0:0:
228,160,5545,2,0,P|232:208|248:240,1,80
256,68,5973,6,0,P|188:72|128:128,1,120,2|0,0:0|0:0,0:0:0:0:
332,88,6402,2,0,P|328:40|312:8,1,80
228,160,6830,6,0,P|232:228|292:296,1,150,6|0,0:0|0:0,0:0:0:0:
420,152,7259,2,0,P|368:116|264:112,1,150,8|0,0:0|0:0,0:0:0:0:
352,308,7688,2,0,P|416:280|468:196,1,150,0|4,0:0|0:0,0:0:0:0:
489,190,8116,1,0,0:0:0:0:
497,156,8223,1,0,0:0:0:0:
489,121,8330,1,0,0:0:0:0:
469,91,8438,1,0,0:0:0:0:
435,79,8545,6,0,P|379:107|279:99,1,150,6|0,0:0|0:0,0:0:0:0:
233,62,8973,2,0,P|221:110|241:162,1,100,8|0,0:0|0:0,0:0:0:0:
352,304,9402,2,0,P|316:268|212:244,1,150,2|0,0:0|0:0,0:0:0:0:
154,267,9830,1,8,0:0:0:0:
244,368,10045,1,2,0:0:0:0:
416,260,10259,6,0,P|444:196|428:104,1,150,2|0,0:0|0:0,0:0:0:0:
369,73,10688,2,0,P|445:41|489:53,1,100,8|0,0:0|0:0,0:0:0:0:
304,156,11116,2,0,P|248:168|132:108,1,150,2|0,0:0|0:0,0:0:0:0:
162,139,11545,1,8,0:0:0:0:
52,52,11759,1,2,0:0:0:0:
52,52,11866,1,0,0:0:0:0:
52,52,11973,6,0,L|28:212,1,150,6|0,0:2|0:0,0:0:0:0:
64,264,12402,1,0,1:0:0:0:
165,347,12616,1,0,0:0:0:0:
208,224,12830,2,0,P|284:208|360:248,1,150,2|0,0:0|0:0,0:0:0:0:
384,299,13259,2,0,P|432:315|484:303,1,100,8|0,0:0|0:0,0:0:0:0:
438,221,13688,5,6,0:0:0:0:
304,340,14009,1,0,0:0:0:0:
304,340,14116,1,8,0:0:0:0:
432,376,14330,1,2,0:0:0:0:
324,204,14545,2,0,L|332:104,1,100,2|0,0:0|0:0,0:0:0:0:
268,77,14866,1,0,0:0:0:0:
268,77,14973,6,0,L|200:69,1,50,2|0,0:0|0:0,0:0:0:0:
107,118,15188,2,0,L|175:110,1,50,0|0,1:0|0:0,0:0:0:0:
208,164,15402,6,0,L|176:316,1,150,4|0,0:0|0:0,0:0:0:0:
137,375,15830,2,0,P|108:335|109:286,1,100,8|0,0:0|0:0,0:0:0:0:
224,72,16259,2,0,P|276:108|288:200,1,150,2|0,0:0|0:0,0:0:0:0:
291,189,16688,1,8,0:0:0:0:
212,288,16902,1,2,0:0:0:0:
320,352,17116,6,0,P|376:360|464:288,1,150,6|0,0:0|0:0,0:0:0:0:
483,246,17545,2,0,L|455:142,1,100,8|0,0:0|0:0,0:0:0:0:
260,42,17973,2,0,L|291:189,1,150,2|0,0:0|0:0,0:0:0:0:
339,248,18402,1,8,0:0:0:0:
228,352,18616,1,2,0:0:0:0:
228,352,18723,1,0,0:0:0:0:
228,352,18830,6,0,L|60:332,1,150,6|0,0:0|0:0,0:0:0:0:
44,272,19259,2,0,P|100:268|148:244,1,100,8|0,0:0|0:0,0:0:0:0:
260,44,19688,2,0,P|188:44|116:84,1,150,2|0,0:0|0:0,0:0:0:0:
120,79,20116,1,8,0:0:0:0:
224,164,20330,1,2,0:0:0:0:
260,44,20545,5,4,0:0:0:0:
140,184,20866,1,2,0:0:0:0:
140,184,20973,1,8,0:0:0:0:
280,232,21188,1,0,0:0:0:0:
167,32,21402,6,0,B|111:32|111:32|61:46|47:115,1,150,4|8,0:0|0:0,0:0:0:0:
64,216,22259,5,8,0:0:0:0:
220,292,22473,1,0,0:0:0:0:
216,144,22688,1,8,0:0:0:0:
128,288,22902,1,0,0:0:0:0:
280,208,23116,1,0,0:0:0:0:
120,144,23330,1,0,0:0:0:0:
120,144,23438,1,0,0:0:0:0:
120,144,23545,2,0,L|104:64,1,80,2|8,0:0|0:0,0:0:0:0:
284,40,23973,6,0,L|300:120,1,80
192,224,24402,1,8,0:0:0:0:
200,64,24616,1,2,0:0:0:0:
328,200,24830,2,0,L|408:192,1,80,2|0,0:0|0:0,0:0:0:0:
432,208,25152,1,0,0:0:0:0:
456,224,25259,1,2,0:0:0:0:
356,312,25473,1,8,0:0:0:0:
252,140,25688,5,0,0:0:0:0:
192,224,25902,1,0,0:0:0:0:
344,156,26116,1,8,0:0:0:0:
200,64,26330,1,0,0:0:0:0:
288,232,26545,2,0,P|280:268|280:312,1,80
284,340,26866,1,0,0:0:0:0:
304,360,26973,1,2,0:0:0:0:
400,276,27188,1,8,0:0:0:0:
252,140,27402,6,0,P|212:140|168:148,1,80
60,366,27830,2,0,P|100:366|140:360,1,80,8|0,0:0|0:0,0:0:0:0:
188,252,28259,1,0,0:0:0:0:
84,204,28473,1,0,0:0:0:0:
84,204,28580,1,0,0:0:0:0:
84,204,28688,1,2,0:0:0:0:
140,360,28902,1,12,0:0:0:0:
256,188,29116,5,0,0:0:0:0:
92,288,29330,1,0,0:0:0:0:
272,280,29545,1,8,0:0:0:0:
168,152,29759,1,0,0:0:0:0:
236,356,29973,1,0,0:0:0:0:
336,220,30188,1,0,0:0:0:0:
336,220,30295,1,0,0:0:0:0:
336,220,30402,2,0,B|340:164|340:164|328:128,1,80,2|8,0:0|0:0,0:0:0:0:
187,75,30830,6,0,B|167:128|167:128|168:152,1,80
348,56,31259,2,0,B|295:35|295:35|271:36,1,80,8|0,0:0|0:0,0:0:0:0:
184,240,31688,2,0,B|236:260|236:260|260:259,1,80
260,259,32009,1,0,0:0:0:0:
260,259,32116,1,2,0:0:0:0:
228,136,32330,1,8,0:0:0:0:
108,212,32545,5,0,0:0:0:0:
312,184,32759,1,0,0:0:0:0:
136,116,32973,1,8,0:0:0:0:
152,320,33188,1,0,0:0:0:0:
228,136,33402,1,0,0:0:0:0:
260,259,33616,2,0,L|304:272,2,40,0|0|2,0:0|0:0|0:0,0:0:0:0:
108,212,34045,1,8,0:0:0:0:
228,136,34259,6,0,P|233:94|260:58,1,80,0|2,0:0|0:0,0:0:0:0:
108,212,34688,2,0,P|68:199|36:166,1,80,8|0,0:0|0:0,0:0:0:0:
260,260,35116,2,0,P|266:301|264:348,1,80
265,339,35438,1,0,0:0:0:0:
265,339,35545,1,2,0:0:0:0:
192,208,35759,1,8,0:0:0:0:
192,208,35866,1,8,0:0:0:0:
192,208,35973,5,12,0:0:0:0:
136,348,36188,1,0,0:0:0:0:
260,260,36402,1,10,0:0:0:0:
124,264,36616,1,0,0:0:0:0:
265,339,36830,2,0,P|312:344|344:336,1,80,2|0,0:0|0:0,0:0:0:0:
343,336,37152,1,0,0:0:0:0:
343,336,37259,1,2,0:0:0:0:
268,180,37473,1,8,0:0:0:0:
124,264,37688,6,0,P|80:280|32:272,1,80,2|0,0:0|0:0,0:0:0:0:
348,224,38116,2,0,P|384:252|403:297,1,80,10|0,0:0|0:0,0:0:0:0:
184,176,38545,2,0,P|162:134|163:86,1,80,2|2,0:0|0:0,0:0:0:0:
160,102,38866,1,0,0:0:0:0:
160,102,38973,1,2,0:0:0:0:
312,24,39188,1,8,0:0:0:0:
396,124,39402,6,0,P|440:120|496:88,1,80,2|0,0:0|0:0,0:0:0:0:
304,288,39830,2,0,P|260:292|204:324,1,80,10|0,0:0|0:0,0:0:0:0:
480,332,40259,1,2,0:0:0:0:
376,216,40473,1,0,0:0:0:0:
376,216,40580,1,0,0:0:0:0:
376,216,40688,2,0,P|396:256|396:296,1,80,2|8,0:0|0:0,0:0:0:0:
272,200,41116,5,2,0:0:0:0:
432,128,41330,1,0,0:0:0:0:
256,104,41545,1,10,0:0:0:0:
376,216,41759,1,0,0:0:0:0:
359,56,41973,2,0,P|388:35|434:30,1,80,2|0,0:0|0:0,0:0:0:0:
431,29,42295,1,0,0:0:0:0:
431,29,42402,1,2,0:0:0:0:
472,175,42616,1,8,0:0:0:0:
364,320,42830,5,2,0:0:0:0:
457,271,43045,1,0,0:0:0:0:
376,216,43259,1,10,0:0:0:0:
443,362,43473,1,0,0:0:0:0:
292,256,43688,1,2,0:0:0:0:
472,175,43902,1,0,0:0:0:0:
472,175,44009,1,0,0:0:0:0:
472,175,44116,2,0,L|464:95,1,80,2|8,0:0|0:0,0:0:0:0:
280,36,44545,6,0,L|288:116,1,80,2|0,0:0|0:0,0:0:0:0:
376,216,44973,1,10,0:0:0:0:
235,182,45188,1,0,0:0:0:0:
368,124,45402,1,2,0:0:0:0:
292,256,45616,1,0,0:0:0:0:
292,256,45723,1,0,0:0:0:0:
292,256,45830,1,2,0:0:0:0:
472,230,46045,1,8,0:0:0:0:
472,88,46259,6,0,L|454:9,1,80,2|0,0:0|0:0,0:0:0:0:
388,288,46688,2,0,L|405:366,1,80,10|0,0:0|0:0,0:0:0:0:
235,182,47116,2,0,P|183:158|167:122,1,80,2|0,0:0|0:0,0:0:0:0:
155,117,47438,1,0,0:0:0:0:
137,94,47545,2,0,P|89:102|57:130,1,80,2|8,0:0|0:0,0:0:0:0:
0,348,47973,6,0,P|48:340|80:312,1,80,2|0,0:0|0:0,0:0:0:0:
108,228,48402,1,8,0:0:0:0:
188,168,48616,1,0,0:0:0:0:
296,164,48830,1,2,0:0:0:0:
380,212,49045,1,0,0:0:0:0:
380,212,49152,1,8,0:0:0:0:
380,212,49259,1,0,0:0:0:0:
432,296,49473,1,8,0:0:0:0:
500,228,49688,6,0,L|482:132,1,80,4|0,0:0|0:0,0:0:0:0:
456,143,50009,1,0,0:0:0:0:
456,143,50116,2,0,L|438:58,1,80,2|0,0:0|0:0,0:0:0:0:
259,44,50545,2,0,L|275:122,1,80,4|0,0:3|0:0,0:0:0:0:
362,183,50973,1,8,0:0:0:0:
212,208,51188,1,0,0:0:0:0:
212,208,51295,1,0,0:0:0:0:
212,208,51402,6,0,L|202:313,1,80,6|0,0:0|0:0,0:0:0:0:
236,300,51723,1,0,0:0:0:0:
236,300,51830,2,0,P|180:312|144:336,1,80,2|0,0:0|0:0,0:0:0:0:
28,352,52259,1,6,0:0:0:0:
117,234,52473,1,8,0:0:0:0:
236,300,52688,1,8,0:0:0:0:
325,182,52902,1,0,0:0:0:0:
228,64,53116,6,0,P|272:60|312:84,1,80,4|0,0:0|0:0,0:0:0:0:
315,100,53438,1,0,0:0:0:0:
329,124,53545,2,0,P|373:112|393:76,1,80,2|8,0:0|0:3,0:0:0:0:
244,152,53973,2,0,P|264:188|298:210,1,80,4|0,0:3|0:0,0:0:0:0:
460,232,54402,2,0,P|428:208|380:204,1,80,8|0,0:0|0:0,0:0:0:0:
389,202,54723,1,0,0:0:0:0:
389,202,54830,5,4,0:0:0:0:
368,364,55045,1,0,0:0:0:0:
377,337,55152,1,0,0:0:0:0:
387,311,55259,1,2,0:0:0:0:
504,344,55473,1,0,0:0:0:0:
460,232,55688,2,0,P|464:188|444:152,1,80,8|0,0:3|0:0,0:0:0:0:
428,136,56009,1,0,0:0:0:0:
409,115,56116,2,0,P|437:79|485:67,1,80,8|0,0:0|0:0,0:0:0:0:
340,136,56545,6,0,P|296:140|248:124,1,80,4|0,0:0|0:0,0:0:0:0:
235,121,56866,1,0,0:0:0:0:
212,112,56973,1,2,0:0:0:0:
72,192,57188,1,0,0:0:0:0:
212,284,57402,1,4,0:3:0:0:
120,112,57616,1,8,0:0:0:0:
272,200,57830,1,8,0:0:0:0:
108,284,58045,1,0,0:0:0:0:
108,284,58152,1,0,0:0:0:0:
108,284,58259,6,0,L|8:296,1,80,4|0,0:0|0:0,0:0:0:0:
20,332,58580,1,0,0:0:0:0:
20,332,58688,2,0,L|100:340,1,80,2|0,0:0|0:0,0:0:0:0:
176,240,59116,1,2,0:0:0:0:
232,328,59330,1,0,0:0:0:0:
232,328,59438,1,0,0:0:0:0:
232,328,59545,2,0,B|276:328|276:328|328:348,1,80,8|0,0:0|0:0,0:0:0:0:
484,244,59973,6,0,P|432:248|352:188,1,120,4|8,0:0|0:0,0:0:0:0:
335,153,60402,1,8,0:0:0:0:
256,32,60616,1,0,0:0:0:0:
84,144,60830,6,0,P|136:140|192:168,1,80,4|8,0:0|0:0,0:0:0:0:
288,280,61259,1,8,0:0:0:0:
108,356,61473,2,0,L|120:220,1,120,4|0,0:0|0:0,0:0:0:0:
168,172,61902,5,8,0:3:0:0:
336,72,62116,1,8,0:3:0:0:
160,12,62330,1,8,0:3:0:0:
308,204,62545,5,0,0:0:0:0:
280,201,62652,1,0,0:0:0:0:
253,208,62759,1,0,0:0:0:0:
230,224,62866,1,0,0:0:0:0:
214,247,62973,1,0,0:0:0:0:
208,274,63080,1,0,0:0:0:0:
211,302,63188,1,8,0:0:0:0:
223,326,63295,1,8,0:0:0:0:
240,348,63402,6,0,P|284:352|320:352,1,80,4|0,0:0|0:0,0:0:0:0:
348,349,63723,1,0,0:0:0:0:
371,333,63830,1,8,0:0:0:0:
384,228,64045,1,0,0:0:0:0:
480,280,64259,2,0,L|498:372,1,80
472,168,64688,1,8,0:0:0:0:
320,320,64902,6,0,P|240:342|150:289,1,160,4|0,2:2|0:0,0:0:0:0:
172,313,65438,1,0,0:0:0:0:
172,313,65545,1,8,0:0:0:0:
251,227,65759,1,0,0:0:0:0:
419,271,65973,2,0,P|427:311|427:351,1,80
356,177,66402,2,0,P|364:137|380:93,1,80,8|0,0:0|0:0,0:0:0:0:
251,227,66830,5,4,0:0:0:0:
472,144,67045,1,0,0:0:0:0:
255,95,67259,1,8,0:0:0:0:
419,271,67473,1,0,0:0:0:0:
384,52,67688,1,0,0:0:0:0:
356,177,67902,1,0,0:0:0:0:
356,177,68009,1,0,0:0:0:0:
356,177,68116,1,8,0:0:0:0:
230,17,68330,6,0,P|178:73|196:148,1,160,4|0,0:0|0:0,0:0:0:0:
208,176,68866,1,0,0:0:0:0:
220,200,68973,2,0,P|166:211|112:212,1,80,8|0,0:0|0:0,0:0:0:0:
44,152,69402,1,0,0:0:0:0:
40,268,69616,1,8,0:0:0:0:
64,284,69723,1,8,0:0:0:0:
88,296,69830,1,8,0:0:0:0:
116,308,69938,1,0,0:0:0:0:
144,312,70045,2,0,L|208:300,1,40,8|8,0:0|0:0,0:0:0:0:
244,280,70259,6,0,L|240:368,1,80,2|0,0:0|0:0,0:0:0:0:
240,359,70580,1,0,0:0:0:0:
240,359,70688,1,8,0:0:0:0:
380,264,70902,1,0,0:0:0:0:
320,152,71116,2,0,L|316:64,1,80
204,40,71545,1,8,0:0:0:0:
72,212,71759,6,0,L|232:200,1,160,4|0,2:2|0:0,0:0:0:0:
231,200,72295,1,0,0:0:0:0:
231,200,72402,1,8,0:0:0:0:
128,120,72616,1,0,0:0:0:0:
104,304,72830,2,0,L|188:296,1,80
368,213,73259,2,0,L|284:221,1,80,8|0,0:0|0:0,0:0:0:0:
384,348,73688,37,12,0:0:0:0:
496,252,73902,1,8,0:0:0:0:
360,168,74116,6,0,L|276:176,1,80,8|0,0:0|0:0,0:0:0:0:
400,336,74545,37,6,0:0:0:0:
460,168,74759,1,8,0:0:0:0:
260,188,74973,1,8,0:0:0:0:
496,220,75188,38,0,B|492:180|492:180|444:132|444:132|436:68,1,160,4|0,0:0|0:0,0:0:0:0:
437,80,75723,1,0,0:0:0:0:
437,80,75830,1,8,0:0:0:0:
332,40,76045,1,0,0:0:0:0:
208,48,76259,1,2,0:0:0:0:
120,112,76473,1,8,0:0:0:0:
94,123,76580,1,8,0:0:0:0:
78,146,76688,1,8,0:0:0:0:
67,171,76795,1,0,0:0:0:0:
70,198,76902,1,0,0:0:0:0:
83,222,77009,1,0,0:0:0:0:
115,246,77116,6,0,L|135:330,1,80,4|0,0:0|0:0,0:0:0:0:
148,347,77438,1,0,0:0:0:0:
163,369,77545,1,8,0:0:0:0:
32,312,77759,1,0,0:0:0:0:
212,260,77973,2,0,L|296:248,1,80
388,196,78402,1,8,0:0:0:0:
480,356,78616,6,0,P|404:348|372:260,1,160,6|0,0:0|0:0,0:0:0:0:
369,279,79152,1,0,0:0:0:0:
369,279,79259,1,8,0:0:0:0:
492,236,79473,1,0,0:0:0:0:
380,112,79688,2,0,P|332:132|312:160,1,80
228,332,80116,2,0,P|276:312|296:284,1,80,8|0,0:0|0:0,0:0:0:0:
200,120,80545,5,4,0:0:0:0:
312,300,80759,1,0,0:0:0:0:
328,84,80973,1,8,0:0:0:0:
168,240,81188,1,0,0:0:0:0:
400,200,81402,1,0,0:0:0:0:
284,188,81616,1,0,0:0:0:0:
284,188,81723,1,0,0:0:0:0:
284,188,81830,1,8,0:0:0:0:
228,332,82045,6,0,P|156:352|76:304,1,160,4|0,0:0|0:0,0:0:0:0:
60,296,82580,1,0,0:0:0:0:
40,276,82688,2,0,P|24:232|32:180,1,80,8|0,0:0|0:0,0:0:0:0:
136,84,83116,1,0,0:0:0:0:
284,188,83330,1,0,0:0:0:0:
308,172,83438,1,0,0:0:0:0:
332,156,83545,1,8,0:0:0:0:
356,140,83652,1,0,0:0:0:0:
376,128,83759,2,0,L|428:148,1,40
488,184,83973,6,0,L|452:280,1,80,4|0,0:0|0:0,0:0:0:0:
459,258,84295,1,0,0:0:0:0:
459,258,84402,1,8,0:0:0:0:
324,308,84616,1,0,0:0:0:0:
259,186,84830,2,0,L|288:112,1,80
368,216,85259,1,8,0:0:0:0:
208,296,85473,6,0,P|152:256|160:144,1,160,6|0,0:0|0:0,0:0:0:0:
143,170,86009,1,0,0:0:0:0:
143,170,86116,1,8,0:0:0:0:
276,100,86330,1,0,0:0:0:0:
284,252,86545,2,0,P|292:308|288:336,1,80
100,376,86973,2,0,P|92:320|96:292,1,80,10|0,0:0|0:0,0:0:0:0:
192,176,87402,37,12,0:0:0:0:
272,356,87616,1,8,0:0:0:0:
64,352,87830,6,0,P|56:296|60:268,1,80,8|0,0:0|0:0,0:0:0:0:
300,240,88259,37,4,0:0:0:0:
172,364,88473,1,8,0:0:0:0:
100,208,88688,1,8,0:0:0:0:
276,328,88902,38,0,P|328:328|388:244,1,160,4|0,0:0|0:0,0:0:0:0:
387,247,89438,1,0,0:0:0:0:
387,247,89545,1,8,0:0:0:0:
420,132,89759,1,0,0:0:0:0:
356,48,89973,1,2,0:0:0:0:
228,40,90188,1,0,0:0:0:0:
208,60,90295,1,0,0:0:0:0:
180,76,90402,1,8,0:0:0:0:
152,84,90509,1,0,0:0:0:0:
124,80,90616,1,0,0:0:0:0:
96,73,90723,1,0,0:0:0:0:
75,54,90830,1,2,0:0:0:0:
204,272,104545,37,2,0:0:0:0:
108,160,104759,1,0,0:0:0:0:
272,140,104973,1,2,0:0:0:0:
116,248,105188,1,0,0:0:0:0:
280,228,105402,1,2,0:0:0:0:
184,112,105616,1,0,0:0:0:0:
184,112,105723,1,0,0:0:0:0:
184,112,105830,2,0,L|192:196,1,80,2|8,0:0|0:0,0:0:0:0:
380,144,106259,6,0,L|368:52,1,80,2|0,0:0|0:0,0:0:0:0:
272,140,106688,1,10,0:0:0:0:
460,220,106902,1,0,0:0:0:0:
348,340,107116,2,0,L|328:248,1,80,2|0,0:0|0:0,0:0:0:0:
331,261,107438,1,0,0:0:0:0:
331,261,107545,1,2,0:0:0:0:
456,108,107759,1,8,0:0:0:0:
304,124,107973,5,12,0:0:0:0:
376,184,108188,1,0,0:0:0:0:
308,40,108402,1,2,0:0:0:0:
224,176,108616,1,0,0:0:0:0:
392,76,108830,1,2,0:0:0:0:
220,72,109045,1,0,0:0:0:0:
220,72,109152,1,0,0:0:0:0:
220,72,109259,1,2,0:0:0:0:
300,216,109473,1,8,0:0:0:0:
144,200,109688,6,0,P|140:252|140:300,1,80,2|0,0:0|0:0,0:0:0:0:
303,119,110116,2,0,P|307:79|307:40,1,80,10|0,0:0|0:0,0:0:0:0:
224,176,110545,1,2,0:0:0:0:
300,216,110759,1,0,0:0:0:0:
300,216,110866,1,0,0:0:0:0:
300,216,110973,1,2,0:0:0:0:
303,119,111188,1,8,0:0:0:0:
303,119,111295,1,8,0:0:0:0:
303,119,111402,5,12,0:0:0:0:
220,268,111616,1,0,0:0:0:0:
380,168,111830,1,10,0:0:0:0:
208,80,112045,1,0,0:0:0:0:
300,216,112259,1,2,0:0:0:0:
388,84,112473,1,0,0:0:0:0:
388,84,112580,1,0,0:0:0:0:
388,84,112688,2,0,L|472:80,1,80,2|8,0:0|0:0,0:0:0:0:
500,236,113116,6,0,L|496:152,1,80,2|0,0:0|0:0,0:0:0:0:
376,312,113545,2,0,L|460:308,1,80,10|0,0:0|0:0,0:0:0:0:
336,156,113973,2,0,L|340:248,1,80,2|0,0:0|0:0,0:0:0:0:
339,235,114295,1,0,0:0:0:0:
339,235,114402,1,2,0:0:0:0:
256,368,114616,1,8,0:0:0:0:
173,235,114830,6,0,L|120:294,1,80,2|0,0:0|0:0,0:0:0:0:
256,152,115259,2,0,L|256:72,1,80,10|0,0:0|0:0,0:0:0:0:
339,235,115688,2,0,L|392:294,1,80,2|0,0:0|0:0,0:0:0:0:
392,294,116009,1,0,0:0:0:0:
392,294,116116,1,2,0:0:0:0:
256,368,116330,1,8,0:0:0:0:
100,276,116545,6,0,P|60:244|44:168,1,120,2|0,0:0|0:0,0:0:0:0:
42,179,116973,1,10,0:0:0:0:
52,68,117188,1,0,0:0:0:0:
160,36,117402,1,6,0:0:0:0:
256,93,117616,1,8,0:0:0:0:
256,93,117723,1,8,0:0:0:0:
256,93,117830,1,0,0:0:0:0:
239,203,118045,1,0,0:0:0:0:
143,267,118259,6,0,L|127:359,1,80,6|0,0:0|0:0,0:0:0:0:
63,303,118580,1,0,0:0:0:0:
63,303,118688,2,0,L|79:223,1,80,2|0,0:0|0:0,0:0:0:0:
7,351,119116,1,4,0:3:0:0:
219,279,119330,1,8,0:0:0:0:
35,163,119545,1,8,0:0:0:0:
167,219,119759,1,0,0:0:0:0:
356,76,119973,6,0,L|264:84,1,80,2|0,0:0|0:0,0:0:0:0:
256,156,120295,1,0,0:0:0:0:
256,156,120402,2,0,L|335:149,1,80,2|0,0:0|0:0,0:0:0:0:
208,96,120830,1,4,0:0:0:0:
408,128,121045,1,8,0:0:0:0:
156,152,121259,1,8,0:0:0:0:
356,76,121473,1,0,0:0:0:0:
288,220,121688,6,0,P|276:256|284:320,1,80,6|0,0:0|0:0,0:0:0:0:
294,319,122009,1,0,0:0:0:0:
307,343,122116,2,0,P|271:359|211:347,1,80,2|0,0:0|0:0,0:0:0:0:
24,212,122545,2,0,P|60:196|120:208,1,80,4|0,0:3|0:0,0:0:0:0:
228,268,122973,1,8,0:0:0:0:
100,364,123188,1,0,0:0:0:0:
100,364,123295,1,0,0:0:0:0:
100,364,123402,5,2,0:0:0:0:
136,192,123616,1,0,0:0:0:0:
131,219,123723,1,0,0:0:0:0:
124,246,123830,1,2,0:0:0:0:
220,352,124045,1,0,0:0:0:0:
388,284,124259,1,8,0:3:0:0:
228,268,124473,1,0,0:0:0:0:
256,272,124580,1,0,0:0:0:0:
284,276,124688,1,8,0:0:0:0:
392,176,124902,1,0,0:0:0:0:
472,364,125116,6,0,L|488:272,1,80,2|0,0:0|0:0,0:0:0:0:
504,252,125438,1,0,0:0:0:0:
504,252,125545,2,0,L|488:156,1,80,2|0,0:0|0:0,0:0:0:0:
320,44,125973,2,0,L|304:132,1,80,4|0,3:0|0:0,0:0:0:0:
392,176,126402,1,8,0:0:0:0:
324,260,126616,1,0,0:0:0:0:
324,260,126723,1,0,0:0:0:0:
324,260,126830,6,0,P|280:264|240:248,1,80,2|0,0:0|0:0,0:0:0:0:
224,228,127152,1,0,0:0:0:0:
192,212,127259,2,0,P|176:256|180:296,1,80,2|0,0:0|0:0,0:0:0:0:
392,176,127688,2,0,P|404:128|368:40,1,120,6|0,0:0|0:0,0:0:0:0:
320,36,128116,1,8,0:0:0:0:
200,112,128330,1,0,0:0:0:0:
324,260,128545,6,0,P|376:280|440:276,1,120,4|8,0:0|0:0,0:0:0:0:
476,208,128973,1,8,0:0:0:0:
400,80,129188,1,0,0:0:0:0:
252,188,129402,6,0,P|224:248|228:296,1,80,4|8,0:0|0:0,0:0:0:0:
392,176,129830,1,8,0:0:0:0:
240,40,130045,2,0,L|96:48,1,120,4|0,0:0|0:0,0:0:0:0:
48,64,130473,5,8,0:3:0:0:
252,188,130688,1,8,0:3:0:0:
28,248,130902,1,8,0:3:0:0:
176,304,131116,5,2,0:0:0:0:
182,331,131223,1,0,0:0:0:0:
199,352,131330,1,0,0:0:0:0:
225,362,131438,1,8,0:0:0:0:
252,367,131545,1,0,0:0:0:0:
281,362,131652,1,8,0:0:0:0:
307,352,131759,1,8,0:0:0:0:
324,331,131866,1,8,0:0:0:0:
333,304,131973,6,0,L|360:216,1,80,4|0,0:0|0:0,0:0:0:0:
356,227,132295,1,0,0:0:0:0:
356,227,132402,1,8,0:0:0:0:
480,224,132616,1,0,0:0:0:0:
420,124,132830,2,0,L|324:112,1,80
276,20,133259,1,8,0:0:0:0:
147,172,133473,6,0,P|206:219|279:195,1,160,6|0,0:0|0:0,0:0:0:0:
280,195,134009,1,0,0:0:0:0:
280,195,134116,1,8,0:0:0:0:
276,20,134330,1,0,0:0:0:0:
120,76,134545,2,0,P|80:100|56:148,1,80
128,348,134973,2,0,P|168:324|192:276,1,80,8|0,0:0|0:0,0:0:0:0:
280,196,135402,5,4,0:0:0:0:
120,76,135616,1,0,0:0:0:0:
276,20,135830,1,8,0:0:0:0:
184,160,136045,1,0,0:0:0:0:
308,100,136259,1,0,0:0:0:0:
216,80,136473,1,0,0:0:0:0:
216,80,136580,1,0,0:0:0:0:
216,80,136688,1,8,0:0:0:0:
360,244,136902,6,0,P|292:288|204:260,1,160,4|0,0:0|0:0,0:0:0:0:
196,256,137438,1,0,0:0:0:0:
168,264,137545,2,0,P|136:308|148:352,1,80,8|0,0:0|0:0,0:0:0:0:
280,196,137973,2,0,P|252:162|192:142,1,80,0|8,0:0|0:0,0:0:0:0:
192,160,138295,1,8,0:0:0:0:
172,180,138402,1,8,0:0:0:0:
144,188,138509,1,0,0:0:0:0:
116,192,138616,1,8,0:0:0:0:
87,188,138723,1,8,0:0:0:0:
56,178,138830,6,0,L|36:94,1,80,2|0,0:0|0:0,0:0:0:0:
37,100,139152,1,0,0:0:0:0:
37,100,139259,1,8,0:0:0:0:
140,266,139473,2,0,L|158:343,1,80,2|0,0:0|0:0,0:0:0:0:
192,160,139902,1,0,0:0:0:0:
192,160,140009,1,0,0:0:0:0:
192,160,140116,1,8,0:0:0:0:
408,212,140330,6,0,P|332:192|248:228,1,160,4|0,0:0|0:0,0:0:0:0:
257,219,140866,1,0,0:0:0:0:
257,219,140973,1,8,0:0:0:0:
412,312,141188,1,0,0:0:0:0:
336,152,141402,1,0,0:0:0:0:
500,220,141616,1,0,0:0:0:0:
336,296,141830,2,0,P|336:344|364:376,1,80,8|0,0:0|0:0,0:0:0:0:
428,172,142259,37,12,0:0:0:0:
267,221,142473,1,8,0:0:0:0:
412,312,142688,6,0,P|460:312|492:284,1,80,8|0,0:0|0:0,0:0:0:0:
256,146,143116,37,4,0:0:0:0:
260,312,143330,1,8,0:0:0:0:
400,240,143545,1,8,0:0:0:0:
216,80,143759,38,0,B|212:124|212:124|164:168|164:168|157:219,1,160,4|0,0:0|0:0,0:0:0:0:
157,218,144295,1,0,0:0:0:0:
157,218,144402,1,8,0:0:0:0:
184,328,144616,1,0,0:0:0:0:
292,364,144830,1,2,0:0:0:0:
408,352,145045,1,8,0:0:0:0:
422,327,145152,1,8,0:0:0:0:
438,304,145259,1,0,0:0:0:0:
452,280,145366,1,0,0:0:0:0:
464,260,145473,1,0,0:0:0:0:
476,236,145580,1,0,0:0:0:0:
488,208,145688,6,0,L|384:224,1,80,4|0,0:0|0:0,0:0:0:0:
384,228,146009,1,0,0:0:0:0:
364,232,146116,1,8,0:0:0:0:
264,200,146330,1,0,0:0:0:0:
220,348,146545,2,0,P|204:300|204:252,1,80
332,148,146973,1,8,0:0:0:0:
176,120,147188,6,0,P|116:148|36:148,1,120,6|0,0:0|0:0,0:0:0:0:
48,140,147616,2,0,L|32:72,2,40,0|0|8,0:0|0:0|0:0,0:0:0:0:
160,216,148045,1,0,0:0:0:0:
280,248,148259,2,0,L|268:336,1,80,8|0,0:0|0:0,0:0:0:0:
269,327,148580,1,0,0:0:0:0:
269,327,148688,1,8,0:0:0:0:
412,184,148902,1,0,0:0:0:0:
208,136,149116,5,4,0:0:0:0:
376,316,149330,1,0,0:0:0:0:
324,104,149545,1,8,0:0:0:0:
176,272,149759,1,0,0:0:0:0:
412,184,149973,1,0,0:0:0:0:
269,327,150188,1,0,0:0:0:0:
269,327,150295,1,0,0:0:0:0:
269,327,150402,1,8,0:0:0:0:
472,268,150616,6,0,P|508:228|500:128,1,160,4|0,0:0|0:0,0:0:0:0:
473,118,151152,1,0,0:0:0:0:
447,106,151259,2,0,P|439:54|463:6,1,80,8|0,0:0|0:0,0:0:0:0:
412,184,151688,1,2,0:0:0:0:
512,343,151902,1,8,0:0:0:0:
486,354,152009,1,8,0:0:0:0:
452,356,152116,1,0,0:0:0:0:
424,348,152223,1,0,0:0:0:0:
402,330,152330,2,0,P|378:290|378:262,1,40,8|8,0:0|0:0,0:0:0:0:
341,229,152545,6,0,P|317:253|305:301,1,80,4|0,0:0|0:0,0:0:0:0:
304,296,152866,1,0,0:0:0:0:
304,296,152973,1,8,0:0:0:0:
472,268,153188,1,0,0:0:0:0:
313,129,153402,2,0,P|265:153|229:197,1,80
481,165,153830,1,8,0:0:0:0:
408,16,154045,6,0,L|383:183,1,160,6|0,0:0|0:0,0:0:0:0:
384,174,154580,1,0,0:0:0:0:
384,174,154688,1,8,0:0:0:0:
320,48,154902,1,0,0:0:0:0:
481,165,155116,1,0,0:0:0:0:
512,40,155330,1,0,0:0:0:0:
512,40,155438,1,0,0:0:0:0:
512,40,155545,1,8,0:0:0:0:
289,165,155759,1,0,0:0:0:0:
404,284,155973,38,0,P|361:288|306:260,1,80,12|8,0:0|0:0,0:0:0:0:
192,196,156402,5,8,0:0:0:0:
388,128,156616,1,0,0:0:0:0:
408,296,156830,38,0,P|365:300|310:272,1,80,4|8,0:0|0:0,0:0:0:0:
388,128,157259,1,8,0:0:0:0:
492,228,157473,38,0,P|516:312|472:384,1,160,4|0,0:0|0:0,0:0:0:0:
484,373,158009,1,0,0:0:0:0:
484,373,158116,1,8,0:0:0:0:
344,344,158330,1,0,0:0:0:0:
264,252,158545,1,2,0:0:0:0:
271,136,158759,1,8,0:0:0:0:
289,114,158866,1,8,0:0:0:0:
312,99,158973,1,0,0:0:0:0:
339,92,159080,1,0,0:0:0:0:
367,93,159188,1,0,0:0:0:0:
393,103,159295,1,0,0:0:0:0:
417,117,159402,6,0,L|436:175,1,40,2|2,0:0|0:0,0:0:0:0:
489,202,159616,2,0,L|470:260,1,40,2|0,0:0|0:0,0:0:0:0:
421,293,159830,1,8,0:0:0:0:
259,350,160045,5,2,0:0:0:0:
235,334,160152,1,0,0:0:0:0:
208,325,160259,1,2,0:0:0:0:
180,328,160366,1,0,0:0:0:0:
155,341,160473,1,8,0:0:0:0:
132,357,160580,1,0,0:0:0:0:
105,367,160688,1,8,0:0:0:0:
77,367,160795,1,0,0:0:0:0:
49,362,160902,1,8,0:0:0:0:
29,342,161009,1,0,0:0:0:0:
20,315,161116,6,0,L|16:266,1,40,2|0,0:0|0:0,0:0:0:0:
96,282,161330,2,0,L|92:233,1,40,2|0,0:0|0:0,0:0:0:0:
173,252,161545,2,0,L|169:203,1,40,8|0,0:0|0:0,0:0:0:0:
184,129,161759,5,2,0:0:0:0:
210,137,161866,1,0,0:0:0:0:
232,153,161973,1,2,0:0:0:0:
247,177,162080,1,0,0:0:0:0:
252,204,162188,1,8,0:0:0:0:
250,233,162295,1,0,0:0:0:0:
255,260,162402,1,2,0:0:0:0:
272,281,162509,1,0,0:0:0:0:
297,293,162616,1,2,0:0:0:0:
324,300,162723,1,0,0:0:0:0:
352,296,162830,5,4,0:0:0:0:
236,344,163045,1,0,0:0:0:0:
324,224,163259,1,8,0:0:0:0:
160,308,163473,1,2,0:0:0:0:
247,177,163688,1,0,0:0:0:0:
312,376,163902,1,0,0:0:0:0:
312,376,164009,1,0,0:0:0:0:
312,376,164116,1,8,0:0:0:0:
162,229,164330,6,0,L|150:149,1,80,4|0,0:0|0:0,0:0:0:0:
156,122,164652,1,0,0:0:0:0:
165,95,164759,1,0,0:0:0:0:
174,68,164866,1,0,0:0:0:0:
183,41,164973,5,2,0:0:0:0:
209,30,165080,1,0,0:0:0:0:
237,30,165188,1,0,0:0:0:0:
264,33,165295,1,0,0:0:0:0:
287,47,165402,1,2,0:0:0:0:
312,59,165509,1,8,0:0:0:0:
338,66,165616,1,8,0:0:0:0:
365,63,165723,1,8,0:0:0:0:
391,55,165830,2,0,L|396:147,1,80,2|8,0:0|0:0,0:0:0:0:
485,268,166259,5,2,0:0:0:0:
400,176,166473,1,0,0:0:0:0:
364,295,166688,1,8,0:0:0:0:
344,314,166795,1,0,0:0:0:0:
317,324,166902,1,0,0:0:0:0:
289,323,167009,1,0,0:0:0:0:
261,318,167116,2,0,P|206:316|170:339,1,80,2|0,0:0|0:0,0:0:0:0:
20,347,167545,1,8,0:0:0:0:
35,323,167652,1,0,0:0:0:0:
51,300,167759,6,0,L|39:210,1,80,12|0,0:0|0:0,0:0:0:0:
138,103,168188,1,0,0:0:0:0:
153,127,168295,1,0,0:0:0:0:
169,150,168402,2,0,L|158:229,1,80,8|0,0:0|0:0,0:0:0:0:
231,308,168830,1,2,0:0:0:0:
330,346,169045,1,0,0:0:0:0:
330,346,169152,1,0,0:0:0:0:
330,346,169259,1,8,0:0:0:0:
430,341,169473,1,2,0:0:0:0:
502,270,169688,6,0,L|512:184,1,80,2|0,0:0|0:0,0:0:0:0:
481,178,170009,1,0,0:0:0:0:
458,161,170116,2,0,L|468:68,1,80,8|0,0:0|0:0,0:0:0:0:
392,16,170545,1,2,0:0:0:0:
344,104,170759,1,0,0:0:0:0:
344,104,170866,1,0,0:0:0:0:
344,104,170973,1,8,0:0:0:0:
205,67,171188,6,0,P|146:120|121:195,1,160,4|0,0:0|0:0,0:0:0:0:
121,195,171723,1,0,0:0:0:0:
121,195,171830,1,8,0:0:0:0:
168,304,172045,1,0,0:0:0:0:
275,351,172259,1,2,0:0:0:0:
301,343,172366,1,0,0:0:0:0:
328,335,172473,1,2,0:0:0:0:
355,329,172580,1,8,0:0:0:0:
382,321,172688,1,8,0:0:0:0:
382,321,173116,5,2,0:0:0:0:
332,184,173330,1,0,0:0:0:0:
332,184,173438,1,0,0:0:0:0:
332,184,173545,1,8,0:0:0:0:
484,224,173759,1,8,0:0:0:0:
300,264,173973,5,2,0:0:0:0:
416,168,174188,1,0,0:0:0:0:
416,168,174295,1,0,0:0:0:0:
416,168,174402,1,8,0:0:0:0:
480,312,174616,1,8,0:0:0:0:
280,348,174830,5,2,0:0:0:0:
404,252,175045,1,0,0:0:0:0:
404,252,175152,1,0,0:0:0:0:
404,252,175259,1,8,0:0:0:0:
256,196,175473,1,8,0:0:0:0:
376,348,175688,5,2,0:0:0:0:
332,184,175902,1,8,0:0:0:0:
376,348,176116,1,8,0:0:0:0:
376,348,176545,5,6,0:0:0:0:
492,232,176759,1,0,0:0:0:0:
492,232,176866,1,0,0:0:0:0:
492,232,176973,1,8,0:0:0:0:
332,184,177188,1,8,0:0:0:0:
480,324,177402,5,0,0:0:0:0:
424,172,177616,1,0,0:0:0:0:
424,172,177723,1,0,0:0:0:0:
424,172,177830,1,8,0:0:0:0:
300,276,178045,1,8,0:0:0:0:
492,232,178259,5,2,0:0:0:0:
376,348,178473,1,0,0:0:0:0:
376,348,178580,1,0,0:0:0:0:
376,348,178688,1,8,0:0:0:0:
332,184,178902,1,8,0:0:0:0:
480,324,179116,5,2,0:0:0:0:
300,276,179330,1,8,0:0:0:0:
480,324,179545,1,8,0:0:0:0:
480,324,179973,5,4,0:0:0:0:
480,204,180188,1,0,0:0:0:0:
428,96,180402,1,0,0:0:0:0:
320,44,180616,1,2,0:0:0:0:
200,32,180830,1,2,0:0:0:0:
88,72,181045,1,0,0:0:0:0:
88,72,181152,1,0,0:0:0:0:
88,72,181259,1,0,0:0:0:0:
88,72,181688,5,4,0:0:0:0:
84,192,181902,1,0,0:0:0:0:
148,292,182116,1,0,0:0:0:0:
260,324,182330,1,2,0:0:0:0:
380,312,182545,1,2,0:0:0:0:
468,232,182759,1,0,0:0:0:0:
468,232,182866,1,0,0:0:0:0:
468,232,182973,1,0,0:0:0:0:
468,232,183402,5,4,0:0:0:0:
280,176,183616,1,0,0:0:0:0:
452,144,183830,1,0,0:0:0:0:
296,256,184045,1,0,0:0:0:0:
480,324,184259,1,4,0:0:0:0:
316,348,184473,1,0,0:0:0:0:
380,200,184688,1,0,0:0:0:0:
232,320,184902,6,0,L|40:336,1,160,8|0,0:0|0:0,0:0:0:0:
72,333,185438,1,8,0:0:0:0:
72,333,185545,1,8,0:0:0:0:
276,220,185759,2,0,L|468:236,1,160,8|8,0:0|0:0,0:0:0:0:
435,233,186295,1,8,0:0:0:0:
435,233,186402,1,8,0:0:0:0:
216,140,186616,2,0,L|24:156,1,160,8|8,0:0|0:0,0:0:0:0:
57,153,187152,1,8,0:0:0:0:
57,153,187259,1,8,0:0:0:0:
272,56,187473,5,8,0:0:0:0:
300,64,187580,1,8,0:0:0:0:
328,72,187688,1,0,0:0:0:0:
356,80,187795,5,0,0:0:0:0:
384,88,187902,1,8,0:0:0:0:
402,108,188009,1,8,0:0:0:0:
410,134,188116,1,8,0:0:0:0:
414,161,188223,1,8,0:0:0:0:
412,186,188330,1,8,0:0:0:0:
404,213,188438,1,8,0:0:0:0:
388,236,188545,5,8,0:0:0:0:
308,256,189616,2,0,P|296:305|304:353,1,80,2|6,0:0|0:0,0:0:0:0:
322,167,190045,6,0,L|145:148,1,160,8|0,0:0|0:0,0:0:0:0:
162,149,190580,1,8,0:0:0:0:
162,149,190688,1,8,0:0:0:0:
260,60,190902,1,8,0:0:0:0:
128,240,191116,1,0,0:0:0:0:
308,256,191330,5,8,0:0:0:0:
335,259,191438,1,8,0:0:0:0:
362,254,191545,1,0,0:0:0:0:
386,240,191652,1,0,0:0:0:0:
404,218,191759,1,8,0:0:0:0:
414,192,191866,1,8,0:0:0:0:
412,164,191973,6,0,L|400:76,1,80,2|0,0:0|0:0,0:0:0:0:
352,68,192295,2,0,L|360:8,1,40,0|8,0:0|0:0,0:0:0:0:
504,128,192616,1,0,0:0:0:0:
322,167,192830,2,0,L|230:159,1,80
242,160,193152,1,0,0:0:0:0:
242,160,193259,1,8,0:0:0:0:
47,284,193473,6,0,L|207:268,1,160,4|0,0:0|0:0,0:0:0:0:
244,276,194009,1,0,0:0:0:0:
288,284,194116,2,0,P|292:324|272:372,1,80,8|0,0:0|0:0,0:0:0:0:
160,188,194545,2,0,P|156:148|175:100,1,80,0|8,0:0|0:0,0:0:0:0:
192,100,194866,1,8,0:0:0:0:
216,88,194973,1,0,0:0:0:0:
240,72,195080,1,0,0:0:0:0:
264,60,195188,1,8,0:0:0:0:
288,48,195295,1,8,0:0:0:0:
312,36,195402,6,0,L|396:40,1,80,2|0,0:0|0:0,0:0:0:0:
391,39,195723,1,0,0:0:0:0:
391,39,195830,1,8,0:0:0:0:
316,168,196045,2,0,L|232:172,1,80
440,144,196473,1,0,0:0:0:0:
440,144,196580,1,0,0:0:0:0:
440,144,196688,1,8,0:0:0:0:
376,352,196902,6,0,L|384:224,1,120,6|0,0:0|0:0,0:0:0:0:
380,192,197330,2,0,L|372:136,2,40,0|0|8,0:0|0:0|0:0,0:0:0:0:
484,336,197759,1,0,0:0:0:0:
296,260,197973,1,0,0:0:0:0:
484,232,198188,1,0,0:0:0:0:
280,348,198402,6,0,P|232:324|212:272,1,80,8|0,0:0|0:0,0:0:0:0:
336,116,198830,21,12,0:0:0:0:
484,232,199045,1,8,0:0:0:0:
218,302,199259,22,0,P|205:249|232:201,1,80,8|0,0:0|0:0,0:0:0:0:
504,144,199688,21,4,0:0:0:0:
392,272,199902,1,8,0:0:0:0:
336,116,200116,1,8,0:0:0:0:
484,232,200330,6,0,P|412:184|316:220,1,160,4|0,0:0|0:0,0:0:0:0:
343,196,200866,1,0,0:0:0:0:
343,196,200973,1,8,0:0:0:0:
276,264,201188,1,0,0:0:0:0:
193,314,201402,1,2,0:0:0:0:
171,330,201509,1,0,0:0:0:0:
145,340,201616,1,8,0:0:0:0:
115,342,201723,1,8,0:0:0:0:
87,337,201830,1,0,0:0:0:0:
63,321,201938,1,0,0:0:0:0:
46,298,202045,1,0,0:0:0:0:
39,270,202152,1,0,0:0:0:0:
43,241,202259,6,0,L|59:159,1,80,2|0,0:0|0:0,0:0:0:0:
58,162,202580,1,0,0:0:0:0:
58,162,202688,1,8,0:0:0:0:
145,78,202902,1,0,0:0:0:0:
123,259,203116,2,0,L|136:181,1,80
136,181,203438,1,0,0:0:0:0:
136,181,203545,1,8,0:0:0:0:
326,89,203759,6,0,P|271:102|233:165,1,120,6|0,0:0|0:0,0:0:0:0:
246,178,204188,2,0,L|287:183,2,40,0|0|8,0:0|0:0|0:0,0:0:0:0:
145,78,204616,1,0,0:0:0:0:
58,162,204830,2,0,L|53:245,1,80
53,241,205152,1,0,0:0:0:0:
53,241,205259,1,8,0:0:0:0:
177,294,205473,1,0,0:0:0:0:
246,178,205688,5,4,0:0:0:0:
83,326,205902,1,0,0:0:0:0:
315,353,206116,1,8,0:0:0:0:
146,205,206330,1,0,0:0:0:0:
205,375,206545,1,0,0:0:0:0:
278,264,206759,1,0,0:0:0:0:
278,264,206866,1,0,0:0:0:0:
278,264,206973,1,8,0:0:0:0:
58,215,207188,6,0,P|99:280|176:293,1,160,4|0,0:0|0:0,0:0:0:0:
200,284,207723,1,0,0:0:0:0:
212,256,207830,2,0,L|226:163,1,80,8|0,0:0|0:0,0:0:0:0:
110,93,208259,1,2,0:0:0:0:
236,127,208473,1,8,0:0:0:0:
261,139,208580,1,8,0:0:0:0:
289,139,208688,1,0,0:0:0:0:
316,137,208795,1,0,0:0:0:0:
341,121,208902,1,8,0:0:0:0:
360,100,209009,1,8,0:0:0:0:
384,78,209116,6,0,L|408:170,1,80,2|0,0:0|0:0,0:0:0:0:
404,155,209438,1,0,0:0:0:0:
404,155,209545,1,8,0:0:0:0:
512,292,209759,2,0,L|488:200,1,80
480,108,210188,1,0,0:0:0:0:
480,108,210295,1,0,0:0:0:0:
480,108,210402,1,8,0:0:0:0:
336,224,210616,6,0,L|164:264,1,160,6|0,0:0|0:0,0:0:0:0:
180,260,211152,1,0,0:0:0:0:
180,260,211259,1,0,0:0:0:0:
308,128,211473,1,0,0:0:0:0:
380,308,211688,1,0,0:0:0:0:
196,168,211902,1,0,0:0:0:0:
196,168,212009,1,0,0:0:0:0:
196,168,212116,1,8,0:0:0:0:
408,196,212330,1,0,0:0:0:0:
236,308,212545,6,0,L|160:344,1,80,12|8,0:0|0:0,0:0:0:0:
40,240,212973,5,8,0:0:0:0:
196,168,213188,1,0,0:0:0:0:
240,344,213402,38,0,L|164:380,1,80,4|8,0:0|0:0,0:0:0:0:
328,84,213830,1,8,0:0:0:0:
484,252,214045,6,0,P|491:170|432:104,1,160,4|0,0:0|0:0,0:0:0:0:
445,111,214580,1,0,0:0:0:0:
445,111,214688,1,8,0:0:0:0:
328,84,214902,1,0,0:0:0:0:
224,116,215116,1,2,0:0:0:0:
156,204,215330,1,8,0:0:0:0:
140,228,215438,1,8,0:0:0:0:
124,252,215545,1,0,0:0:0:0:
108,276,215652,1,0,0:0:0:0:
92,296,215759,1,0,0:0:0:0:
76,316,215866,1,0,0:0:0:0:
56,344,215973,6,0,L|212:336,1,150,6|0,0:0|0:0,0:0:0:0:
234,274,216402,2,0,L|334:282,1,100,8|0,0:0|0:0,0:0:0:0:
500,355,216830,2,0,P|456:315|444:203,1,150,2|0,0:0|0:0,0:0:0:0:
489,182,217259,2,0,L|501:74,1,100,8|2,0:0|0:0,0:0:0:0:
338,33,217688,6,0,L|354:193,1,150,2|0,0:0|0:0,0:0:0:0:
351,254,218116,2,0,P|287:226|223:238,1,100,8|0,0:0|0:0,0:0:0:0:
149,347,218545,1,2,0:0:0:0:
279,304,218759,1,0,0:0:0:0:
113,338,218973,1,8,0:0:0:0:
93,310,219080,1,0,0:0:0:0:
85,274,219188,1,0,0:0:0:0:
93,238,219295,1,0,0:0:0:0:
112,208,219402,6,0,P|124:148|92:64,1,150,4|0,0:0|0:0,0:0:0:0:
28,48,219830,2,0,L|144:28,1,100,8|0,0:0|0:0,0:0:0:0:
344,132,220259,2,0,P|280:108|184:120,1,150,2|0,0:0|0:0,0:0:0:0:
185,183,220688,2,0,P|185:231|193:291,1,100,8|0,0:0|0:0,0:0:0:0:
376,352,221116,6,0,P|376:300|348:184,1,150,2|0,0:0|0:0,0:0:0:0:
290,168,221545,2,0,P|290:116|302:56,1,100,8|0,0:0|0:0,0:0:0:0:
500,56,221973,1,2,0:0:0:0:
392,125,222188,1,0,0:0:0:0:
512,16,222402,1,8,0:0:0:0:
484,36,222509,1,0,0:0:0:0:
452,44,222616,1,0,0:0:0:0:
416,44,222723,1,0,0:0:0:0:
384,32,222830,6,0,P|320:20|216:64,1,150,6|0,0:0|0:0,0:0:0:0:
174,70,223259,2,0,P|122:94|58:82,1,100,8|0,0:0|0:0,0:0:0:0:
32,244,223688,2,0,P|100:216|184:224,1,150,2|0,0:0|0:0,0:0:0:0:
175,220,224116,1,8,0:0:0:0:
268,304,224330,1,0,0:0:0:0:
368,228,224545,6,0,L|392:68,1,150,2|0,0:0|0:0,0:0:0:0:
319,69,224973,2,0,L|303:189,1,100,8|0,0:0|0:0,0:0:0:0:
400,348,225402,1,2,0:0:0:0:
268,304,225616,1,0,0:0:0:0:
440,336,225830,1,0,0:0:0:0:
464,308,225938,1,0,0:0:0:0:
476,276,226045,1,0,0:0:0:0:
472,240,226152,1,0,0:0:0:0:
467,205,226259,6,0,L|275:181,1,150,6|0,0:0|0:0,0:0:0:0:
254,215,226688,2,0,L|146:239,1,100,8|0,0:0|0:0,0:0:0:0:
12,44,227116,1,2,0:0:0:0:
80,156,227330,1,8,0:0:0:0:
88,192,227438,1,8,0:0:0:0:
96,224,227545,1,8,0:0:0:0:
104,260,227652,1,0,0:0:0:0:
112,292,227759,1,0,0:0:0:0:
120,324,227866,1,0,0:0:0:0:
128,356,227973,5,4,0:0:0:0:
272,272,228295,1,0,0:0:0:0:
272,272,228402,2,0,L|380:256,1,100
465,223,228830,6,0,P|448:180|464:123,1,100,4|0,0:0|0:0,0:0:0:0:
