osu file format v14

[General]
AudioFilename: audio.mp3
AudioLeadIn: 0
PreviewTime: -1
Countdown: 0
SampleSet: Soft
StackLeniency: 0.7
Mode: 3
LetterboxInBreaks: 0
SpecialStyle: 0
WidescreenStoryboard: 0

[Editor]
DistanceSpacing: 1.5
BeatDivisor: 4
GridSize: 4
TimelineZoom: 2.7

[Metadata]
Title:steelfuck (dubstep vip)
TitleUnicode:steelfuck (dubstep vip)
Artist:camellia
ArtistUnicode:camellia
Creator:Alsty-
Version:Madness
Source:
Tags:
BeatmapID:1421290
BeatmapSetID:672344

[Difficulty]
HPDrainRate:8.5
CircleSize:4
OverallDifficulty:7.5
ApproachRate:5
SliderMultiplier:1.4
SliderTickRate:1

[Events]
//Background and Video events
0,0,"asd.jpg",0,0
//Break Periods
2,110610,115210
//Storyboard Layer 0 (Background)
//Storyboard Layer 1 (Fail)
//Storyboard Layer 2 (Pass)
//Storyboard Layer 3 (Foreground)
//Storyboard Sound Samples

[TimingPoints]
1610,400,4,2,0,15,1,0
14410,-62.5,4,2,0,15,0,0
14460,-125,4,2,0,15,0,0
14510,-100,4,2,0,15,0,0
15210,-62.5,4,2,0,15,0,0
15260,-125,4,2,0,15,0,0
15310,-100,4,2,0,15,0,0
16010,-125,4,2,0,15,0,0
16060,-62.5,4,2,0,15,0,0
16110,-100,4,2,0,15,0,0
16810,-62.5,4,2,0,15,0,0
16860,-125,4,2,0,15,0,0
16910,-100,4,2,0,15,0,0
17610,-125,4,2,0,15,0,0
17660,-62.5,4,2,0,15,0,0
17710,-100,4,2,0,15,0,0
18410,-62.5,4,2,0,15,0,0
18460,-125,4,2,0,15,0,0
18510,-100,4,2,0,15,0,0
19210,-125,4,2,0,15,0,0
19260,-62.5,4,2,0,15,0,0
19310,-100,4,2,0,15,0,0
20010,400,4,2,0,15,1,0
20013,400,4,2,0,15,1,0
20016,400,4,2,0,15,1,0
20019,400,4,2,0,15,1,0
20022,400,4,2,0,15,1,0
20025,400,4,2,0,15,1,0
20028,400,4,2,0,15,1,0
20031,400,4,2,0,15,1,0
20034,400,4,2,0,15,1,0
20037,400,4,2,0,15,1,0
20040,400,4,2,0,15,1,0
20043,400,4,2,0,15,1,0
20046,400,4,2,0,15,1,0
20049,400,4,2,0,15,1,0
20052,400,4,2,0,15,1,0
20055,400,4,2,0,15,1,0
20058,400,4,2,0,15,1,0
20061,400,4,2,0,15,1,0
20064,400,4,2,0,15,1,0
20067,400,4,2,0,15,1,0
20070,400,4,2,0,15,1,0
20073,400,4,2,0,15,1,0
20076,400,4,2,0,15,1,0
20079,400,4,2,0,15,1,0
20082,400,4,2,0,15,1,0
20085,400,4,2,0,15,1,0
20088,400,4,2,0,15,1,0
20091,400,4,2,0,15,1,0
20094,400,4,2,0,15,1,0
20097,400,4,2,0,15,1,0
20100,400,4,2,0,15,1,0
20103,400,4,2,0,15,1,0
20106,400,4,2,0,15,1,0
20109,400,4,2,0,15,1,0
20112,400,4,2,0,15,1,0
20115,400,4,2,0,15,1,0
20118,400,4,2,0,15,1,0
20121,400,4,2,0,15,1,0
20124,400,4,2,0,15,1,0
20127,400,4,2,0,15,1,0
20130,400,4,2,0,15,1,0
20133,400,4,2,0,15,1,0
20136,400,4,2,0,15,1,0
20139,400,4,2,0,15,1,0
20142,400,4,2,0,15,1,0
20145,400,4,2,0,15,1,0
20148,400,4,2,0,15,1,0
20151,400,4,2,0,15,1,0
20154,400,4,2,0,15,1,0
20157,400,4,2,0,15,1,0
20160,400,4,2,0,15,1,0
20163,400,4,2,0,15,1,0
20166,400,4,2,0,15,1,0
20169,400,4,2,0,15,1,0
20172,400,4,2,0,15,1,0
20175,400,4,2,0,15,1,0
20178,400,4,2,0,15,1,0
20181,400,4,2,0,15,1,0
20184,400,4,2,0,15,1,0
20187,400,4,2,0,15,1,0
20190,400,4,2,0,15,1,0
20193,400,4,2,0,15,1,0
20196,400,4,2,0,15,1,0
20199,400,4,2,0,15,1,0
20202,400,4,2,0,15,1,0
20205,400,4,2,0,15,1,0
20208,400,4,2,0,15,1,0
20211,400,4,2,0,15,1,0
20214,400,4,2,0,15,1,0
20217,400,4,2,0,15,1,0
20220,400,4,2,0,15,1,0
20223,400,4,2,0,15,1,0
20226,400,4,2,0,15,1,0
20229,400,4,2,0,15,1,0
20232,400,4,2,0,15,1,0
20235,400,4,2,0,15,1,0
20238,400,4,2,0,15,1,0
20241,400,4,2,0,15,1,0
20244,400,4,2,0,15,1,0
20247,400,4,2,0,15,1,0
20250,400,4,2,0,15,1,0
20253,400,4,2,0,15,1,0
20256,400,4,2,0,15,1,0
20259,400,4,2,0,15,1,0
20262,400,4,2,0,15,1,0
20265,400,4,2,0,15,1,0
20268,400,4,2,0,15,1,0
20271,400,4,2,0,15,1,0
20274,400,4,2,0,15,1,0
20277,400,4,2,0,15,1,0
20280,400,4,2,0,15,1,0
20283,400,4,2,0,15,1,0
20286,400,4,2,0,15,1,0
20289,400,4,2,0,15,1,0
20292,400,4,2,0,15,1,0
20295,400,4,2,0,15,1,0
20298,400,4,2,0,15,1,0
20301,400,4,2,0,15,1,0
20304,400,4,2,0,15,1,0
20307,400,4,2,0,15,1,0
20310,400,4,2,0,15,1,0
20313,400,4,2,0,15,1,0
20316,400,4,2,0,15,1,0
20319,400,4,2,0,15,1,0
20322,400,4,2,0,15,1,0
20325,400,4,2,0,15,1,0
20328,400,4,2,0,15,1,0
20331,400,4,2,0,15,1,0
20334,400,4,2,0,15,1,0
20337,400,4,2,0,15,1,0
20340,400,4,2,0,15,1,0
20343,400,4,2,0,15,1,0
20346,400,4,2,0,15,1,0
20349,400,4,2,0,15,1,0
20352,400,4,2,0,15,1,0
20355,400,4,2,0,15,1,0
20358,400,4,2,0,15,1,0
20361,400,4,2,0,15,1,0
20364,400,4,2,0,15,1,0
20367,400,4,2,0,15,1,0
20370,400,4,2,0,15,1,0
20373,400,4,2,0,15,1,0
20376,400,4,2,0,15,1,0
20379,400,4,2,0,15,1,0
20382,400,4,2,0,15,1,0
20385,400,4,2,0,15,1,0
20388,400,4,2,0,15,1,0
20391,400,4,2,0,15,1,0
20394,400,4,2,0,15,1,0
20397,400,4,2,0,15,1,0
20400,400,4,2,0,15,1,0
20403,400,4,2,0,15,1,0
20406,400,4,2,0,15,1,0
20409,400,4,2,0,15,1,0
20412,400,4,2,0,15,1,0
20415,400,4,2,0,15,1,0
20418,400,4,2,0,15,1,0
20421,400,4,2,0,15,1,0
20424,400,4,2,0,15,1,0
20427,400,4,2,0,15,1,0
20430,400,4,2,0,15,1,0
20433,400,4,2,0,15,1,0
20436,400,4,2,0,15,1,0
20439,400,4,2,0,15,1,0
20442,400,4,2,0,15,1,0
20445,400,4,2,0,15,1,0
20448,400,4,2,0,15,1,0
20451,400,4,2,0,15,1,0
20454,400,4,2,0,15,1,0
20457,400,4,2,0,15,1,0
20460,400,4,2,0,15,1,0
20463,400,4,2,0,15,1,0
20466,400,4,2,0,15,1,0
20469,400,4,2,0,15,1,0
20472,400,4,2,0,15,1,0
20475,400,4,2,0,15,1,0
20478,400,4,2,0,15,1,0
20481,400,4,2,0,15,1,0
20484,400,4,2,0,15,1,0
20487,400,4,2,0,15,1,0
20490,400,4,2,0,15,1,0
20493,400,4,2,0,15,1,0
20496,400,4,2,0,15,1,0
20499,400,4,2,0,15,1,0
20502,400,4,2,0,15,1,0
20505,400,4,2,0,15,1,0
20508,400,4,2,0,15,1,0
20511,400,4,2,0,15,1,0
20514,400,4,2,0,15,1,0
20517,400,4,2,0,15,1,0
20520,400,4,2,0,15,1,0
20523,400,4,2,0,15,1,0
20526,400,4,2,0,15,1,0
20529,400,4,2,0,15,1,0
20532,400,4,2,0,15,1,0
20535,400,4,2,0,15,1,0
20538,400,4,2,0,15,1,0
20541,400,4,2,0,15,1,0
20544,400,4,2,0,15,1,0
20547,400,4,2,0,15,1,0
20550,400,4,2,0,15,1,0
20553,400,4,2,0,15,1,0
20556,400,4,2,0,15,1,0
20559,400,4,2,0,15,1,0
20562,400,4,2,0,15,1,0
20565,400,4,2,0,15,1,0
20568,400,4,2,0,15,1,0
20571,400,4,2,0,15,1,0
20574,400,4,2,0,15,1,0
20577,400,4,2,0,15,1,0
20580,400,4,2,0,15,1,0
20583,400,4,2,0,15,1,0
20586,400,4,2,0,15,1,0
20589,400,4,2,0,15,1,0
20592,400,4,2,0,15,1,0
20595,400,4,2,0,15,1,0
20598,400,4,2,0,15,1,0
20601,400,4,2,0,15,1,0
20604,400,4,2,0,15,1,0
20607,400,4,2,0,15,1,0
20610,400,4,2,0,15,1,0
20613,400,4,2,0,15,1,0
20616,400,4,2,0,15,1,0
20619,400,4,2,0,15,1,0
20622,400,4,2,0,15,1,0
20625,400,4,2,0,15,1,0
20628,400,4,2,0,15,1,0
20631,400,4,2,0,15,1,0
20634,400,4,2,0,15,1,0
20637,400,4,2,0,15,1,0
20640,400,4,2,0,15,1,0
20643,400,4,2,0,15,1,0
20646,400,4,2,0,15,1,0
20649,400,4,2,0,15,1,0
20652,400,4,2,0,15,1,0
20655,400,4,2,0,15,1,0
20658,400,4,2,0,15,1,0
20661,400,4,2,0,15,1,0
20664,400,4,2,0,15,1,0
20667,400,4,2,0,15,1,0
20670,400,4,2,0,15,1,0
20673,400,4,2,0,15,1,0
20676,400,4,2,0,15,1,0
20679,400,4,2,0,15,1,0
20682,400,4,2,0,15,1,0
20685,400,4,2,0,15,1,0
20688,400,4,2,0,15,1,0
20691,400,4,2,0,15,1,0
20694,400,4,2,0,15,1,0
20697,400,4,2,0,15,1,0
20700,400,4,2,0,15,1,0
20703,400,4,2,0,15,1,0
20706,400,4,2,0,15,1,0
20709,400,4,2,0,15,1,0
20710,400,4,2,0,15,1,0
20713,400,4,2,0,15,1,0
20716,400,4,2,0,15,1,0
20719,400,4,2,0,15,1,0
20722,400,4,2,0,15,1,0
20725,400,4,2,0,15,1,0
20728,400,4,2,0,15,1,0
20731,400,4,2,0,15,1,0
20734,400,4,2,0,15,1,0
20735,400,4,2,0,15,1,0
20810,400,4,2,0,15,1,0
20810,-62.5,4,2,0,15,0,0
20860,-125,4,2,0,15,0,0
20910,-100,4,2,0,15,0,0
21610,-62.5,4,2,0,15,0,0
21660,-125,4,2,0,15,0,0
21710,-100,4,2,0,15,0,0
22410,-125,4,2,0,15,0,0
22460,-62.5,4,2,0,15,0,0
22510,-100,4,2,0,15,0,0
23210,-62.5,4,2,0,15,0,0
23260,-125,4,2,0,15,0,0
23310,-100,4,2,0,15,0,0
24010,-125,4,2,0,15,0,0
24060,-62.5,4,2,0,15,0,0
24110,-100,4,2,0,15,0,0
24810,-62.5,4,2,0,15,0,0
24860,-125,4,2,0,15,0,0
24910,-100,4,2,0,15,0,0
25610,-142.857142857143,4,2,0,15,0,0
25635,-71.4285714285714,4,2,0,15,0,0
25660,-142.857142857143,4,2,0,15,0,0
25685,-71.4285714285714,4,2,0,15,0,0
25710,-142.857142857143,4,2,0,15,0,0
25735,-71.4285714285714,4,2,0,15,0,0
25760,-142.857142857143,4,2,0,15,0,0
25785,-71.4285714285714,4,2,0,15,0,0
25810,-142.857142857143,4,2,0,15,0,0
25843,-71.4285714285714,4,2,0,15,0,0
25876,-142.857142857143,4,2,0,15,0,0
25910,-71.4285714285714,4,2,0,15,0,0
25943,-142.857142857143,4,2,0,15,0,0
25976,-71.4285714285714,4,2,0,15,0,0
26010,-142.857142857143,4,2,0,15,0,0
26043,-71.4285714285714,4,2,0,15,0,0
26076,-100,4,2,0,15,0,0
26210,-100,4,2,0,15,0,0
26810,-62.5,4,2,0,15,0,0
26960,-125,4,2,0,15,0,0
27110,-100,4,2,0,15,0,0
27210,-62.5,4,2,0,15,0,0
27260,-125,4,2,0,15,0,0
27310,-100,4,2,0,15,0,0
28010,-62.5,4,2,0,15,0,0
28060,-125,4,2,0,15,0,0
28110,-100,4,2,0,15,0,0
28810,-125,4,2,0,15,0,0
28860,-62.5,4,2,0,15,0,0
28910,-100,4,2,0,15,0,0
29610,-62.5,4,2,0,15,0,0
29660,-125,4,2,0,15,0,0
29710,-100,4,2,0,15,0,0
30410,-125,4,2,0,15,0,0
30460,-62.5,4,2,0,15,0,0
30510,-100,4,2,0,15,0,0
31210,-62.5,4,2,0,15,0,0
31260,-125,4,2,0,15,0,0
31310,-100,4,2,0,15,0,0
32010,-125,4,2,0,15,0,0
32060,-62.5,4,2,0,15,0,0
32110,-100,4,2,0,15,0,0
32810,400,4,2,0,15,1,0
32813,400,4,2,0,15,1,0
32816,400,4,2,0,15,1,0
32819,400,4,2,0,15,1,0
32822,400,4,2,0,15,1,0
32825,400,4,2,0,15,1,0
32828,400,4,2,0,15,1,0
32831,400,4,2,0,15,1,0
32834,400,4,2,0,15,1,0
32837,400,4,2,0,15,1,0
32840,400,4,2,0,15,1,0
32843,400,4,2,0,15,1,0
32846,400,4,2,0,15,1,0
32849,400,4,2,0,15,1,0
32852,400,4,2,0,15,1,0
32855,400,4,2,0,15,1,0
32858,400,4,2,0,15,1,0
32861,400,4,2,0,15,1,0
32864,400,4,2,0,15,1,0
32867,400,4,2,0,15,1,0
32870,400,4,2,0,15,1,0
32873,400,4,2,0,15,1,0
32876,400,4,2,0,15,1,0
32879,400,4,2,0,15,1,0
32882,400,4,2,0,15,1,0
32885,400,4,2,0,15,1,0
32888,400,4,2,0,15,1,0
32891,400,4,2,0,15,1,0
32894,400,4,2,0,15,1,0
32897,400,4,2,0,15,1,0
32900,400,4,2,0,15,1,0
32903,400,4,2,0,15,1,0
32906,400,4,2,0,15,1,0
32909,400,4,2,0,15,1,0
32912,400,4,2,0,15,1,0
32915,400,4,2,0,15,1,0
32918,400,4,2,0,15,1,0
32921,400,4,2,0,15,1,0
32924,400,4,2,0,15,1,0
32927,400,4,2,0,15,1,0
32930,400,4,2,0,15,1,0
32933,400,4,2,0,15,1,0
32936,400,4,2,0,15,1,0
32939,400,4,2,0,15,1,0
32942,400,4,2,0,15,1,0
32945,400,4,2,0,15,1,0
32948,400,4,2,0,15,1,0
32951,400,4,2,0,15,1,0
32954,400,4,2,0,15,1,0
32957,400,4,2,0,15,1,0
32960,400,4,2,0,15,1,0
32963,400,4,2,0,15,1,0
32966,400,4,2,0,15,1,0
32969,400,4,2,0,15,1,0
32972,400,4,2,0,15,1,0
32975,400,4,2,0,15,1,0
32978,400,4,2,0,15,1,0
32981,400,4,2,0,15,1,0
32984,400,4,2,0,15,1,0
32987,400,4,2,0,15,1,0
32990,400,4,2,0,15,1,0
32993,400,4,2,0,15,1,0
32996,400,4,2,0,15,1,0
32999,400,4,2,0,15,1,0
33002,400,4,2,0,15,1,0
33005,400,4,2,0,15,1,0
33008,400,4,2,0,15,1,0
33011,400,4,2,0,15,1,0
33014,400,4,2,0,15,1,0
33017,400,4,2,0,15,1,0
33020,400,4,2,0,15,1,0
33023,400,4,2,0,15,1,0
33026,400,4,2,0,15,1,0
33029,400,4,2,0,15,1,0
33032,400,4,2,0,15,1,0
33035,400,4,2,0,15,1,0
33038,400,4,2,0,15,1,0
33041,400,4,2,0,15,1,0
33044,400,4,2,0,15,1,0
33047,400,4,2,0,15,1,0
33050,400,4,2,0,15,1,0
33053,400,4,2,0,15,1,0
33056,400,4,2,0,15,1,0
33059,400,4,2,0,15,1,0
33062,400,4,2,0,15,1,0
33065,400,4,2,0,15,1,0
33068,400,4,2,0,15,1,0
33071,400,4,2,0,15,1,0
33074,400,4,2,0,15,1,0
33077,400,4,2,0,15,1,0
33080,400,4,2,0,15,1,0
33083,400,4,2,0,15,1,0
33086,400,4,2,0,15,1,0
33089,400,4,2,0,15,1,0
33092,400,4,2,0,15,1,0
33095,400,4,2,0,15,1,0
33098,400,4,2,0,15,1,0
33101,400,4,2,0,15,1,0
33104,400,4,2,0,15,1,0
33107,400,4,2,0,15,1,0
33110,400,4,2,0,15,1,0
33113,400,4,2,0,15,1,0
33116,400,4,2,0,15,1,0
33119,400,4,2,0,15,1,0
33122,400,4,2,0,15,1,0
33125,400,4,2,0,15,1,0
33128,400,4,2,0,15,1,0
33131,400,4,2,0,15,1,0
33134,400,4,2,0,15,1,0
33137,400,4,2,0,15,1,0
33140,400,4,2,0,15,1,0
33143,400,4,2,0,15,1,0
33146,400,4,2,0,15,1,0
33149,400,4,2,0,15,1,0
33152,400,4,2,0,15,1,0
33155,400,4,2,0,15,1,0
33158,400,4,2,0,15,1,0
33161,400,4,2,0,15,1,0
33164,400,4,2,0,15,1,0
33167,400,4,2,0,15,1,0
33170,400,4,2,0,15,1,0
33173,400,4,2,0,15,1,0
33176,400,4,2,0,15,1,0
33179,400,4,2,0,15,1,0
33182,400,4,2,0,15,1,0
33185,400,4,2,0,15,1,0
33188,400,4,2,0,15,1,0
33191,400,4,2,0,15,1,0
33194,400,4,2,0,15,1,0
33197,400,4,2,0,15,1,0
33200,400,4,2,0,15,1,0
33203,400,4,2,0,15,1,0
33206,400,4,2,0,15,1,0
33209,400,4,2,0,15,1,0
33212,400,4,2,0,15,1,0
33215,400,4,2,0,15,1,0
33218,400,4,2,0,15,1,0
33221,400,4,2,0,15,1,0
33224,400,4,2,0,15,1,0
33227,400,4,2,0,15,1,0
33230,400,4,2,0,15,1,0
33233,400,4,2,0,15,1,0
33236,400,4,2,0,15,1,0
33239,400,4,2,0,15,1,0
33242,400,4,2,0,15,1,0
33245,400,4,2,0,15,1,0
33248,400,4,2,0,15,1,0
33251,400,4,2,0,15,1,0
33254,400,4,2,0,15,1,0
33257,400,4,2,0,15,1,0
33260,400,4,2,0,15,1,0
33263,400,4,2,0,15,1,0
33266,400,4,2,0,15,1,0
33269,400,4,2,0,15,1,0
33272,400,4,2,0,15,1,0
33275,400,4,2,0,15,1,0
33278,400,4,2,0,15,1,0
33281,400,4,2,0,15,1,0
33284,400,4,2,0,15,1,0
33287,400,4,2,0,15,1,0
33290,400,4,2,0,15,1,0
33293,400,4,2,0,15,1,0
33296,400,4,2,0,15,1,0
33299,400,4,2,0,15,1,0
33302,400,4,2,0,15,1,0
33305,400,4,2,0,15,1,0
33308,400,4,2,0,15,1,0
33311,400,4,2,0,15,1,0
33314,400,4,2,0,15,1,0
33317,400,4,2,0,15,1,0
33320,400,4,2,0,15,1,0
33323,400,4,2,0,15,1,0
33326,400,4,2,0,15,1,0
33329,400,4,2,0,15,1,0
33332,400,4,2,0,15,1,0
33335,400,4,2,0,15,1,0
33338,400,4,2,0,15,1,0
33341,400,4,2,0,15,1,0
33344,400,4,2,0,15,1,0
33347,400,4,2,0,15,1,0
33350,400,4,2,0,15,1,0
33353,400,4,2,0,15,1,0
33356,400,4,2,0,15,1,0
33359,400,4,2,0,15,1,0
33362,400,4,2,0,15,1,0
33365,400,4,2,0,15,1,0
33368,400,4,2,0,15,1,0
33371,400,4,2,0,15,1,0
33374,400,4,2,0,15,1,0
33377,400,4,2,0,15,1,0
33380,400,4,2,0,15,1,0
33383,400,4,2,0,15,1,0
33386,400,4,2,0,15,1,0
33389,400,4,2,0,15,1,0
33392,400,4,2,0,15,1,0
33395,400,4,2,0,15,1,0
33398,400,4,2,0,15,1,0
33401,400,4,2,0,15,1,0
33404,400,4,2,0,15,1,0
33407,400,4,2,0,15,1,0
33410,400,4,2,0,15,1,0
33413,400,4,2,0,15,1,0
33416,400,4,2,0,15,1,0
33419,400,4,2,0,15,1,0
33422,400,4,2,0,15,1,0
33425,400,4,2,0,15,1,0
33428,400,4,2,0,15,1,0
33431,400,4,2,0,15,1,0
33434,400,4,2,0,15,1,0
33437,400,4,2,0,15,1,0
33440,400,4,2,0,15,1,0
33443,400,4,2,0,15,1,0
33446,400,4,2,0,15,1,0
33449,400,4,2,0,15,1,0
33452,400,4,2,0,15,1,0
33455,400,4,2,0,15,1,0
33458,400,4,2,0,15,1,0
33461,400,4,2,0,15,1,0
33464,400,4,2,0,15,1,0
33467,400,4,2,0,15,1,0
33470,400,4,2,0,15,1,0
33473,400,4,2,0,15,1,0
33476,400,4,2,0,15,1,0
33479,400,4,2,0,15,1,0
33482,400,4,2,0,15,1,0
33485,400,4,2,0,15,1,0
33488,400,4,2,0,15,1,0
33491,400,4,2,0,15,1,0
33494,400,4,2,0,15,1,0
33497,400,4,2,0,15,1,0
33500,400,4,2,0,15,1,0
33503,400,4,2,0,15,1,0
33506,400,4,2,0,15,1,0
33509,400,4,2,0,15,1,0
33512,400,4,2,0,15,1,0
33515,400,4,2,0,15,1,0
33518,400,4,2,0,15,1,0
33521,400,4,2,0,15,1,0
33524,400,4,2,0,15,1,0
33527,400,4,2,0,15,1,0
33530,400,4,2,0,15,1,0
33533,400,4,2,0,15,1,0
33536,400,4,2,0,15,1,0
33539,400,4,2,0,15,1,0
33542,400,4,2,0,15,1,0
33545,400,4,2,0,15,1,0
33548,400,4,2,0,15,1,0
33551,400,4,2,0,15,1,0
33554,400,4,2,0,15,1,0
33557,400,4,2,0,15,1,0
33560,400,4,2,0,15,1,0
33610,400,4,2,0,15,1,0
33610,-62.5,4,2,0,15,0,0
33660,-125,4,2,0,15,0,0
33710,-100,4,2,0,15,0,0
34410,-62.5,4,2,0,15,0,0
34460,-125,4,2,0,15,0,0
34510,-100,4,2,0,15,0,0
35210,-125,4,2,0,15,0,0
35260,-62.5,4,2,0,15,0,0
35310,-100,4,2,0,15,0,0
36010,-62.5,4,2,0,15,0,0
36060,-125,4,2,0,15,0,0
36110,-100,4,2,0,15,0,0
36810,-125,4,2,0,15,0,0
36860,-62.5,4,2,0,15,0,0
36910,-100,4,2,0,15,0,0
37210,-62.5,4,2,0,15,0,0
37260,-125,4,2,0,15,0,0
37310,-100,4,2,0,15,0,0
37510,-125,4,2,0,15,0,0
37560,-62.5,4,2,0,15,0,0
37610,-100,4,2,0,15,0,0
37810,-125,4,2,0,15,0,0
37860,-62.5,4,2,0,15,0,0
37910,-100,4,2,0,15,0,0
38010,-125,4,2,0,15,0,0
38110,-100,4,2,0,15,0,0
38410,-125,4,2,0,15,0,0
38460,-62.5,4,2,0,15,0,0
38510,-100,4,2,0,15,0,0
38810,-62.5,4,2,0,15,0,0
38860,-125,4,2,0,15,0,0
38910,-100,4,2,0,15,0,0
39110,-125,4,2,0,15,0,0
39160,-62.5,4,2,0,15,0,0
39210,-100,4,2,0,15,0,0
39410,-125,4,2,0,15,0,0
39460,-62.5,4,2,0,15,0,0
39510,-100,4,2,0,15,0,0
39610,-55.5555555555556,4,2,0,15,0,0
39760,-111.111111111111,4,2,0,15,0,0
39910,-100,4,2,0,15,0,0

[HitObjects]
64,192,1610,128,0,1710:0:0:0:0:
192,192,1610,128,0,1810:0:0:0:0:
320,192,1610,128,0,1910:0:0:0:0:
448,192,1610,128,0,2010:0:0:0:0:
64,192,1910,1,0,0:0:0:0:
192,192,2010,1,0,0:0:0:0:
192,192,2110,1,0,0:0:0:0:
448,192,2310,1,0,0:0:0:0:
448,192,2410,1,0,0:0:0:0:
320,192,2610,1,0,0:0:0:0:
320,192,2710,128,0,2910:0:0:0:0:
192,192,2810,128,0,3010:0:0:0:0:
64,192,2910,128,0,3110:0:0:0:0:
320,192,3010,128,0,3210:0:0:0:0:
448,192,3110,128,0,3210:0:0:0:0:
192,192,3210,1,0,0:0:0:0:
64,192,3210,1,0,0:0:0:0:
320,192,3310,1,0,0:0:0:0:
448,192,3410,1,0,0:0:0:0:
448,192,3510,1,0,0:0:0:0:
64,192,3610,1,0,0:0:0:0:
64,192,3710,1,0,0:0:0:0:
192,192,3910,1,0,0:0:0:0:
320,192,4010,1,0,0:0:0:0:
448,192,4210,1,0,0:0:0:0:
64,192,4310,128,0,4510:0:0:0:0:
192,192,4410,128,0,4610:0:0:0:0:
448,192,4510,128,0,4710:0:0:0:0:
64,192,4610,128,0,4810:0:0:0:0:
320,192,4610,128,0,4710:0:0:0:0:
192,192,4710,128,0,4810:0:0:0:0:
320,192,4810,128,0,4910:0:0:0:0:
448,192,4810,128,0,4910:0:0:0:0:
320,192,5010,1,0,0:0:0:0:
448,192,5010,1,0,0:0:0:0:
192,192,5110,1,0,0:0:0:0:
64,192,5210,1,0,0:0:0:0:
64,192,5310,1,0,0:0:0:0:
448,192,5510,1,0,0:0:0:0:
320,192,5610,1,0,0:0:0:0:
64,192,5810,1,0,0:0:0:0:
192,192,5910,128,0,6110:0:0:0:0:
64,192,6010,128,0,6210:0:0:0:0:
320,192,6110,128,0,6310:0:0:0:0:
448,192,6210,128,0,6410:0:0:0:0:
192,192,6310,128,0,6410:0:0:0:0:
320,192,6410,1,0,0:0:0:0:
64,192,6410,1,0,0:0:0:0:
192,192,6510,1,0,0:0:0:0:
448,192,6610,1,0,0:0:0:0:
448,192,6710,1,0,0:0:0:0:
64,192,6810,1,0,0:0:0:0:
64,192,6910,1,0,0:0:0:0:
448,192,7110,1,0,0:0:0:0:
64,192,7210,1,0,0:0:0:0:
320,192,7410,1,0,0:0:0:0:
192,192,7510,128,0,7710:0:0:0:0:
448,192,7610,128,0,7810:0:0:0:0:
64,192,7710,128,0,7910:0:0:0:0:
320,192,7810,128,0,7910:0:0:0:0:
192,192,7910,1,0,0:0:0:0:
64,192,8010,128,0,8410:0:0:0:0:
192,192,8010,128,0,8310:0:0:0:0:
320,192,8010,128,0,8210:0:0:0:0:
448,192,8010,128,0,8110:0:0:0:0:
448,192,8310,1,0,0:0:0:0:
320,192,8410,1,0,0:0:0:0:
320,192,8510,1,0,0:0:0:0:
64,192,8710,1,0,0:0:0:0:
64,192,8810,1,0,0:0:0:0:
192,192,9010,1,0,0:0:0:0:
192,192,9110,128,0,9310:0:0:0:0:
448,192,9210,128,0,9410:0:0:0:0:
320,192,9310,128,0,9510:0:0:0:0:
64,192,9410,128,0,9610:0:0:0:0:
192,192,9510,128,0,9610:0:0:0:0:
320,192,9610,1,0,0:0:0:0:
448,192,9610,1,0,0:0:0:0:
192,192,9710,1,0,0:0:0:0:
64,192,9810,1,0,0:0:0:0:
64,192,9910,1,0,0:0:0:0:
320,192,10010,1,0,0:0:0:0:
320,192,10110,1,0,0:0:0:0:
192,192,10310,1,0,0:0:0:0:
448,192,10410,1,0,0:0:0:0:
64,192,10610,1,0,0:0:0:0:
320,192,10710,128,0,10910:0:0:0:0:
192,192,10810,128,0,11010:0:0:0:0:
64,192,10910,128,0,11110:0:0:0:0:
320,192,11010,128,0,11110:0:0:0:0:
448,192,11010,128,0,11210:0:0:0:0:
192,192,11110,128,0,11210:0:0:0:0:
320,192,11210,128,0,11310:0:0:0:0:
64,192,11210,128,0,11310:0:0:0:0:
320,192,11410,1,0,0:0:0:0:
64,192,11410,1,0,0:0:0:0:
192,192,11510,1,0,0:0:0:0:
448,192,11610,128,0,11810:0:0:0:0:
64,192,11610,1,0,0:0:0:0:
64,192,11710,1,0,0:0:0:0:
320,192,11810,1,0,0:0:0:0:
192,192,11910,128,0,12010:0:0:0:0:
64,192,11910,1,0,0:0:0:0:
448,192,12010,1,0,0:0:0:0:
320,192,12110,128,0,12210:0:0:0:0:
64,192,12110,1,0,0:0:0:0:
448,192,12210,1,0,0:0:0:0:
64,192,12310,128,0,12410:0:0:0:0:
192,192,12310,1,0,0:0:0:0:
448,192,12510,1,0,0:0:0:0:
320,192,12610,1,0,0:0:0:0:
64,192,12810,128,0,13010:0:0:0:0:
448,192,13010,1,0,0:0:0:0:
448,192,13110,1,0,0:0:0:0:
192,192,13210,1,0,0:0:0:0:
192,192,13310,128,0,13510:0:0:0:0:
64,192,13510,1,0,0:0:0:0:
320,192,13610,128,0,13810:0:0:0:0:
192,192,13710,128,0,13810:0:0:0:0:
64,192,13810,1,0,0:0:0:0:
448,192,13910,1,0,0:0:0:0:
64,192,14010,128,0,14310:0:0:0:0:
192,192,14010,1,0,0:0:0:0:
320,192,14010,128,0,14310:0:0:0:0:
320,192,14410,1,0,0:0:0:0:
192,192,14410,1,0,0:0:0:0:
64,192,14410,1,0,0:0:0:0:
448,192,14410,1,0,0:0:0:0:
192,192,14610,1,0,0:0:0:0:
448,192,14610,1,0,0:0:0:0:
64,192,14710,1,0,0:0:0:0:
320,192,14810,1,0,0:0:0:0:
320,192,14910,1,0,0:0:0:0:
192,192,15010,1,0,0:0:0:0:
448,192,15010,1,0,0:0:0:0:
64,192,15110,1,0,0:0:0:0:
192,192,15210,1,0,0:0:0:0:
320,192,15210,1,0,0:0:0:0:
448,192,15210,1,0,0:0:0:0:
64,192,15310,1,0,0:0:0:0:
320,192,15410,1,0,0:0:0:0:
448,192,15410,1,0,0:0:0:0:
192,192,15510,1,0,0:0:0:0:
64,192,15610,1,0,0:0:0:0:
64,192,15710,1,0,0:0:0:0:
320,192,15810,1,0,0:0:0:0:
448,192,15810,1,0,0:0:0:0:
192,192,15910,1,0,0:0:0:0:
64,192,16010,1,0,0:0:0:0:
320,192,16010,1,0,0:0:0:0:
448,192,16010,1,0,0:0:0:0:
192,192,16110,1,0,0:0:0:0:
64,192,16210,1,0,0:0:0:0:
448,192,16210,1,0,0:0:0:0:
320,192,16310,1,0,0:0:0:0:
192,192,16410,1,0,0:0:0:0:
192,192,16510,1,0,0:0:0:0:
64,192,16610,1,0,0:0:0:0:
448,192,16610,1,0,0:0:0:0:
320,192,16710,1,0,0:0:0:0:
192,192,16810,1,0,0:0:0:0:
64,192,16810,1,0,0:0:0:0:
448,192,16810,1,0,0:0:0:0:
320,192,16910,1,0,0:0:0:0:
192,192,17010,1,0,0:0:0:0:
64,192,17010,1,0,0:0:0:0:
320,192,17110,1,0,0:0:0:0:
448,192,17210,1,0,0:0:0:0:
448,192,17310,1,0,0:0:0:0:
192,192,17410,1,0,0:0:0:0:
64,192,17410,1,0,0:0:0:0:
320,192,17510,1,0,0:0:0:0:
192,192,17610,1,0,0:0:0:0:
64,192,17610,128,0,17710:0:0:0:0:
448,192,17610,128,0,17710:0:0:0:0:
320,192,17710,1,0,0:0:0:0:
64,192,17810,1,0,0:0:0:0:
448,192,17810,1,0,0:0:0:0:
192,192,17910,1,0,0:0:0:0:
320,192,18010,1,0,0:0:0:0:
320,192,18110,1,0,0:0:0:0:
64,192,18210,1,0,0:0:0:0:
448,192,18210,1,0,0:0:0:0:
192,192,18310,1,0,0:0:0:0:
320,192,18410,1,0,0:0:0:0:
448,192,18410,1,0,0:0:0:0:
64,192,18410,1,0,0:0:0:0:
192,192,18510,1,0,0:0:0:0:
64,192,18610,1,0,0:0:0:0:
448,192,18610,1,0,0:0:0:0:
320,192,18710,1,0,0:0:0:0:
192,192,18810,1,0,0:0:0:0:
192,192,18910,1,0,0:0:0:0:
64,192,19010,1,0,0:0:0:0:
448,192,19010,1,0,0:0:0:0:
320,192,19110,1,0,0:0:0:0:
192,192,19210,1,0,0:0:0:0:
64,192,19210,1,0,0:0:0:0:
448,192,19210,1,0,0:0:0:0:
320,192,19310,1,0,0:0:0:0:
192,192,19410,1,0,0:0:0:0:
448,192,19410,1,0,0:0:0:0:
320,192,19510,1,0,0:0:0:0:
64,192,19610,1,0,0:0:0:0:
64,192,19710,1,0,0:0:0:0:
192,192,19810,1,0,0:0:0:0:
448,192,19810,1,0,0:0:0:0:
320,192,19910,1,0,0:0:0:0:
192,192,20010,128,0,20110:0:0:0:0:
64,192,20010,128,0,20210:0:0:0:0:
448,192,20010,128,0,20310:0:0:0:0:
320,192,20110,128,0,20410:0:0:0:0:
192,192,20210,128,0,20510:0:0:0:0:
64,192,20310,128,0,20610:0:0:0:0:
448,192,20410,128,0,20710:0:0:0:0:
320,192,20510,128,0,20710:0:0:0:0:
192,192,20610,128,0,20710:0:0:0:0:
64,192,20710,1,0,0:0:0:0:
192,192,20810,1,0,0:0:0:0:
320,192,20810,1,0,0:0:0:0:
448,192,20810,1,0,0:0:0:0:
64,192,20810,1,0,0:0:0:0:
320,192,21010,1,0,0:0:0:0:
448,192,21010,1,0,0:0:0:0:
192,192,21110,1,0,0:0:0:0:
64,192,21210,1,0,0:0:0:0:
64,192,21310,1,0,0:0:0:0:
320,192,21410,1,0,0:0:0:0:
448,192,21410,1,0,0:0:0:0:
192,192,21510,1,0,0:0:0:0:
64,192,21610,1,0,0:0:0:0:
320,192,21610,1,0,0:0:0:0:
448,192,21610,1,0,0:0:0:0:
192,192,21710,1,0,0:0:0:0:
64,192,21810,1,0,0:0:0:0:
448,192,21810,1,0,0:0:0:0:
320,192,21910,1,0,0:0:0:0:
192,192,22010,1,0,0:0:0:0:
192,192,22110,1,0,0:0:0:0:
64,192,22210,1,0,0:0:0:0:
448,192,22210,1,0,0:0:0:0:
320,192,22310,1,0,0:0:0:0:
64,192,22410,1,0,0:0:0:0:
192,192,22410,1,0,0:0:0:0:
448,192,22410,1,0,0:0:0:0:
320,192,22510,1,0,0:0:0:0:
64,192,22610,1,0,0:0:0:0:
448,192,22610,1,0,0:0:0:0:
192,192,22710,1,0,0:0:0:0:
320,192,22810,1,0,0:0:0:0:
320,192,22910,1,0,0:0:0:0:
64,192,23010,1,0,0:0:0:0:
448,192,23010,1,0,0:0:0:0:
192,192,23110,1,0,0:0:0:0:
64,192,23210,1,0,0:0:0:0:
320,192,23210,1,0,0:0:0:0:
448,192,23210,1,0,0:0:0:0:
192,192,23310,1,0,0:0:0:0:
64,192,23410,1,0,0:0:0:0:
320,192,23410,1,0,0:0:0:0:
192,192,23510,1,0,0:0:0:0:
448,192,23610,1,0,0:0:0:0:
448,192,23710,1,0,0:0:0:0:
64,192,23810,1,0,0:0:0:0:
192,192,23810,1,0,0:0:0:0:
320,192,23910,1,0,0:0:0:0:
192,192,24010,1,0,0:0:0:0:
448,192,24010,128,0,24110:0:0:0:0:
64,192,24010,128,0,24110:0:0:0:0:
320,192,24110,1,0,0:0:0:0:
64,192,24210,1,0,0:0:0:0:
448,192,24210,1,0,0:0:0:0:
192,192,24310,1,0,0:0:0:0:
320,192,24410,1,0,0:0:0:0:
448,192,24410,128,0,24510:0:0:0:0:
64,192,24510,1,0,0:0:0:0:
192,192,24610,1,0,0:0:0:0:
320,192,24610,1,0,0:0:0:0:
448,192,24710,1,0,0:0:0:0:
64,192,24810,1,0,0:0:0:0:
192,192,24810,1,0,0:0:0:0:
320,192,24810,1,0,0:0:0:0:
448,192,24910,1,0,0:0:0:0:
64,192,25010,1,0,0:0:0:0:
192,192,25010,1,0,0:0:0:0:
320,192,25110,1,0,0:0:0:0:
448,192,25210,1,0,0:0:0:0:
448,192,25310,1,0,0:0:0:0:
64,192,25410,1,0,0:0:0:0:
192,192,25410,1,0,0:0:0:0:
448,192,25510,1,0,0:0:0:0:
320,192,25610,1,0,0:0:0:0:
64,192,25610,1,0,0:0:0:0:
192,192,25610,1,0,0:0:0:0:
448,192,25660,1,0,0:0:0:0:
320,192,25710,1,0,0:0:0:0:
192,192,25760,1,0,0:0:0:0:
64,192,25810,1,0,0:0:0:0:
448,192,25876,1,0,0:0:0:0:
320,192,25943,1,0,0:0:0:0:
192,192,26010,1,0,0:0:0:0:
64,192,26076,1,0,0:0:0:0:
320,192,26210,1,0,0:0:0:0:
448,192,26210,1,0,0:0:0:0:
192,192,26310,1,0,0:0:0:0:
64,192,26410,1,0,0:0:0:0:
320,192,26410,1,0,0:0:0:0:
448,192,26410,1,0,0:0:0:0:
192,192,26510,1,0,0:0:0:0:
320,192,26610,1,0,0:0:0:0:
64,192,26710,128,0,27110:0:0:0:0:
192,192,26810,128,0,27110:0:0:0:0:
448,192,26810,128,0,27110:0:0:0:0:
64,192,27210,1,0,0:0:0:0:
192,192,27210,1,0,0:0:0:0:
448,192,27210,1,0,0:0:0:0:
320,192,27210,1,0,0:0:0:0:
320,192,27410,1,0,0:0:0:0:
64,192,27410,1,0,0:0:0:0:
192,192,27510,1,0,0:0:0:0:
448,192,27610,1,0,0:0:0:0:
448,192,27710,1,0,0:0:0:0:
64,192,27810,1,0,0:0:0:0:
192,192,27810,1,0,0:0:0:0:
320,192,27910,1,0,0:0:0:0:
64,192,28010,1,0,0:0:0:0:
192,192,28010,1,0,0:0:0:0:
448,192,28010,1,0,0:0:0:0:
320,192,28110,1,0,0:0:0:0:
64,192,28210,1,0,0:0:0:0:
448,192,28210,1,0,0:0:0:0:
192,192,28310,1,0,0:0:0:0:
320,192,28410,1,0,0:0:0:0:
320,192,28510,1,0,0:0:0:0:
448,192,28610,1,0,0:0:0:0:
192,192,28610,1,0,0:0:0:0:
64,192,28710,1,0,0:0:0:0:
192,192,28810,1,0,0:0:0:0:
320,192,28810,1,0,0:0:0:0:
448,192,28810,1,0,0:0:0:0:
64,192,28910,1,0,0:0:0:0:
320,192,29010,1,0,0:0:0:0:
448,192,29010,1,0,0:0:0:0:
64,192,29110,1,0,0:0:0:0:
192,192,29210,1,0,0:0:0:0:
192,192,29310,1,0,0:0:0:0:
320,192,29410,1,0,0:0:0:0:
448,192,29410,1,0,0:0:0:0:
64,192,29510,1,0,0:0:0:0:
320,192,29610,1,0,0:0:0:0:
448,192,29610,1,0,0:0:0:0:
192,192,29610,1,0,0:0:0:0:
64,192,29710,1,0,0:0:0:0:
448,192,29810,1,0,0:0:0:0:
320,192,29810,1,0,0:0:0:0:
192,192,29910,1,0,0:0:0:0:
64,192,30010,1,0,0:0:0:0:
64,192,30110,1,0,0:0:0:0:
192,192,30210,1,0,0:0:0:0:
320,192,30210,1,0,0:0:0:0:
448,192,30310,1,0,0:0:0:0:
320,192,30410,1,0,0:0:0:0:
64,192,30410,128,0,30510:0:0:0:0:
192,192,30410,128,0,30510:0:0:0:0:
448,192,30510,1,0,0:0:0:0:
64,192,30610,1,0,0:0:0:0:
192,192,30610,1,0,0:0:0:0:
320,192,30710,1,0,0:0:0:0:
448,192,30810,1,0,0:0:0:0:
448,192,30910,1,0,0:0:0:0:
64,192,31010,1,0,0:0:0:0:
192,192,31010,1,0,0:0:0:0:
320,192,31110,1,0,0:0:0:0:
64,192,31210,1,0,0:0:0:0:
448,192,31210,1,0,0:0:0:0:
192,192,31210,1,0,0:0:0:0:
320,192,31310,1,0,0:0:0:0:
192,192,31410,1,0,0:0:0:0:
64,192,31410,1,0,0:0:0:0:
448,192,31510,1,0,0:0:0:0:
320,192,31610,1,0,0:0:0:0:
320,192,31710,1,0,0:0:0:0:
64,192,31810,1,0,0:0:0:0:
448,192,31810,1,0,0:0:0:0:
192,192,31910,1,0,0:0:0:0:
320,192,32010,1,0,0:0:0:0:
448,192,32010,1,0,0:0:0:0:
64,192,32010,1,0,0:0:0:0:
192,192,32110,1,0,0:0:0:0:
320,192,32210,1,0,0:0:0:0:
448,192,32210,1,0,0:0:0:0:
64,192,32310,1,0,0:0:0:0:
192,192,32410,1,0,0:0:0:0:
192,192,32510,1,0,0:0:0:0:
64,192,32610,1,0,0:0:0:0:
448,192,32610,1,0,0:0:0:0:
320,192,32710,1,0,0:0:0:0:
64,192,32810,128,0,32910:0:0:0:0:
192,192,32810,128,0,33010:0:0:0:0:
448,192,32810,128,0,33110:0:0:0:0:
320,192,32910,128,0,33210:0:0:0:0:
64,192,33010,128,0,33310:0:0:0:0:
192,192,33110,128,0,33410:0:0:0:0:
448,192,33210,128,0,33510:0:0:0:0:
320,192,33310,128,0,33510:0:0:0:0:
64,192,33410,128,0,33510:0:0:0:0:
192,192,33510,1,0,0:0:0:0:
192,192,33610,1,0,0:0:0:0:
320,192,33610,1,0,0:0:0:0:
448,192,33610,1,0,0:0:0:0:
64,192,33610,1,0,0:0:0:0:
448,192,33810,1,0,0:0:0:0:
64,192,33810,1,0,0:0:0:0:
320,192,33910,1,0,0:0:0:0:
192,192,34010,1,0,0:0:0:0:
192,192,34110,1,0,0:0:0:0:
448,192,34210,1,0,0:0:0:0:
64,192,34210,1,0,0:0:0:0:
320,192,34310,1,0,0:0:0:0:
192,192,34410,1,0,0:0:0:0:
64,192,34410,1,0,0:0:0:0:
448,192,34410,1,0,0:0:0:0:
320,192,34510,1,0,0:0:0:0:
64,192,34610,1,0,0:0:0:0:
448,192,34610,1,0,0:0:0:0:
192,192,34710,1,0,0:0:0:0:
320,192,34810,1,0,0:0:0:0:
320,192,34910,1,0,0:0:0:0:
64,192,35010,1,0,0:0:0:0:
448,192,35010,1,0,0:0:0:0:
192,192,35110,1,0,0:0:0:0:
64,192,35210,1,0,0:0:0:0:
320,192,35210,1,0,0:0:0:0:
448,192,35210,1,0,0:0:0:0:
192,192,35310,1,0,0:0:0:0:
320,192,35410,1,0,0:0:0:0:
448,192,35410,1,0,0:0:0:0:
192,192,35510,1,0,0:0:0:0:
64,192,35610,1,0,0:0:0:0:
64,192,35710,1,0,0:0:0:0:
448,192,35810,1,0,0:0:0:0:
192,192,35810,1,0,0:0:0:0:
320,192,35910,1,0,0:0:0:0:
64,192,36010,1,0,0:0:0:0:
448,192,36010,1,0,0:0:0:0:
192,192,36010,1,0,0:0:0:0:
320,192,36110,1,0,0:0:0:0:
192,192,36210,1,0,0:0:0:0:
64,192,36210,1,0,0:0:0:0:
320,192,36310,1,0,0:0:0:0:
448,192,36410,1,0,0:0:0:0:
448,192,36510,1,0,0:0:0:0:
64,192,36610,1,0,0:0:0:0:
192,192,36610,1,0,0:0:0:0:
320,192,36710,1,0,0:0:0:0:
64,192,36810,1,0,0:0:0:0:
192,192,36810,1,0,0:0:0:0:
448,192,36810,1,0,0:0:0:0:
320,192,36910,1,0,0:0:0:0:
192,192,37010,1,0,0:0:0:0:
64,192,37010,1,0,0:0:0:0:
448,192,37110,1,0,0:0:0:0:
320,192,37210,1,0,0:0:0:0:
192,192,37210,1,0,0:0:0:0:
64,192,37210,1,0,0:0:0:0:
448,192,37310,1,0,0:0:0:0:
64,192,37410,1,0,0:0:0:0:
192,192,37410,1,0,0:0:0:0:
192,192,37510,1,0,0:0:0:0:
448,192,37510,1,0,0:0:0:0:
320,192,37510,1,0,0:0:0:0:
64,192,37610,1,0,0:0:0:0:
192,192,37710,1,0,0:0:0:0:
320,192,37810,1,0,0:0:0:0:
448,192,37810,1,0,0:0:0:0:
64,192,37810,1,0,0:0:0:0:
192,192,37910,1,0,0:0:0:0:
64,192,38010,1,0,0:0:0:0:
320,192,38010,1,0,0:0:0:0:
448,192,38010,1,0,0:0:0:0:
192,192,38110,1,0,0:0:0:0:
448,192,38210,1,0,0:0:0:0:
320,192,38210,1,0,0:0:0:0:
64,192,38310,1,0,0:0:0:0:
192,192,38410,1,0,0:0:0:0:
320,192,38410,1,0,0:0:0:0:
448,192,38410,1,0,0:0:0:0:
64,192,38510,1,0,0:0:0:0:
320,192,38610,1,0,0:0:0:0:
192,192,38610,1,0,0:0:0:0:
448,192,38710,1,0,0:0:0:0:
64,192,38810,1,0,0:0:0:0:
192,192,38810,1,0,0:0:0:0:
320,192,38810,1,0,0:0:0:0:
448,192,38910,1,0,0:0:0:0:
64,192,39010,1,0,0:0:0:0:
320,192,39010,1,0,0:0:0:0:
192,192,39110,1,0,0:0:0:0:
320,192,39110,1,0,0:0:0:0:
448,192,39110,1,0,0:0:0:0:
64,192,39210,1,0,0:0:0:0:
448,192,39310,1,0,0:0:0:0:
64,192,39410,1,0,0:0:0:0:
192,192,39410,1,0,0:0:0:0:
320,192,39410,1,0,0:0:0:0:
448,192,39510,1,0,0:0:0:0:
320,192,39610,128,0,39910:0:0:0:0:
64,192,39610,128,0,39910:0:0:0:0:
192,192,39610,1,0,0:0:0:0:
320,192,40010,1,0,0:0:0:0:
64,192,40010,1,0,0:0:0:0:
192,192,40010,128,0,40210:0:0:0:0:
448,192,40010,128,0,40410:0:0:0:0:
64,192,40210,1,0,0:0:0:0:
192,192,40310,1,0,0:0:0:0:
320,192,40410,1,0,0:0:0:0:
64,192,40610,1,0,0:0:0:0:
448,192,40610,1,0,0:0:0:0:
192,192,40810,1,0,0:0:0:0:
320,192,40810,1,0,0:0:0:0:
64,192,41010,1,0,0:0:0:0:
320,192,41010,1,0,0:0:0:0:
192,192,41210,1,0,0:0:0:0:
448,192,41210,1,0,0:0:0:0:
320,192,41410,1,0,0:0:0:0:
448,192,41410,1,0,0:0:0:0:
64,192,41610,1,0,0:0:0:0:
192,192,41610,128,0,41810:0:0:0:0:
320,192,41610,1,0,0:0:0:0:
64,192,41810,1,0,0:0:0:0:
448,192,41810,1,0,0:0:0:0:
192,192,41910,1,0,0:0:0:0:
320,192,42010,1,0,0:0:0:0:
448,192,42010,1,0,0:0:0:0:
192,192,42210,1,0,0:0:0:0:
64,192,42210,1,0,0:0:0:0:
320,192,42310,1,0,0:0:0:0:
192,192,42410,1,0,0:0:0:0:
64,192,42410,1,0,0:0:0:0:
448,192,42510,1,0,0:0:0:0:
320,192,42610,1,0,0:0:0:0:
192,192,42610,1,0,0:0:0:0:
64,192,42710,1,0,0:0:0:0:
320,192,42810,1,0,0:0:0:0:
448,192,42810,128,0,43010:0:0:0:0:
192,192,43010,1,0,0:0:0:0:
64,192,43010,1,0,0:0:0:0:
320,192,43110,1,0,0:0:0:0:
64,192,43210,1,0,0:0:0:0:
448,192,43210,1,0,0:0:0:0:
192,192,43310,1,0,0:0:0:0:
320,192,43410,1,0,0:0:0:0:
448,192,43410,1,0,0:0:0:0:
192,192,43510,1,0,0:0:0:0:
320,192,43610,1,0,0:0:0:0:
448,192,43610,1,0,0:0:0:0:
64,192,43710,1,0,0:0:0:0:
192,192,43810,1,0,0:0:0:0:
320,192,43810,1,0,0:0:0:0:
448,192,43910,1,0,0:0:0:0:
64,192,44010,1,0,0:0:0:0:
192,192,44010,1,0,0:0:0:0:
320,192,44110,1,0,0:0:0:0:
64,192,44210,1,0,0:0:0:0:
448,192,44210,1,0,0:0:0:0:
192,192,44310,1,0,0:0:0:0:
320,192,44410,1,0,0:0:0:0:
448,192,44410,1,0,0:0:0:0:
64,192,44510,1,0,0:0:0:0:
192,192,44610,1,0,0:0:0:0:
320,192,44610,1,0,0:0:0:0:
448,192,44710,1,0,0:0:0:0:
64,192,44810,1,0,0:0:0:0:
320,192,44810,1,0,0:0:0:0:
192,192,45010,1,0,0:0:0:0:
448,192,45010,1,0,0:0:0:0:
320,192,45210,1,0,0:0:0:0:
64,192,45210,1,0,0:0:0:0:
192,192,45310,1,0,0:0:0:0:
320,192,45410,1,0,0:0:0:0:
448,192,45410,1,0,0:0:0:0:
192,192,45510,1,0,0:0:0:0:
320,192,45610,1,0,0:0:0:0:
448,192,45610,1,0,0:0:0:0:
64,192,45710,1,0,0:0:0:0:
320,192,45810,1,0,0:0:0:0:
192,192,45810,1,0,0:0:0:0:
448,192,45910,1,0,0:0:0:0:
64,192,46010,1,0,0:0:0:0:
192,192,46010,1,0,0:0:0:0:
320,192,46060,1,0,0:0:0:0:
448,192,46110,1,0,0:0:0:0:
192,192,46160,1,0,0:0:0:0:
64,192,46210,1,0,0:0:0:0:
448,192,46260,1,0,0:0:0:0:
320,192,46310,1,0,0:0:0:0:
192,192,46360,1,0,0:0:0:0:
64,192,46410,1,0,0:0:0:0:
448,192,46410,1,0,0:0:0:0:
192,192,46510,1,0,0:0:0:0:
320,192,46510,1,0,0:0:0:0:
448,192,46610,1,0,0:0:0:0:
64,192,46610,1,0,0:0:0:0:
192,192,46710,1,0,0:0:0:0:
320,192,46710,1,0,0:0:0:0:
448,192,46810,1,0,0:0:0:0:
64,192,46810,1,0,0:0:0:0:
192,192,46910,1,0,0:0:0:0:
320,192,46910,1,0,0:0:0:0:
64,192,47010,1,0,0:0:0:0:
448,192,47010,1,0,0:0:0:0:
192,192,47110,1,0,0:0:0:0:
320,192,47110,1,0,0:0:0:0:
64,192,47210,1,0,0:0:0:0:
448,192,47210,1,0,0:0:0:0:
192,192,47310,1,0,0:0:0:0:
320,192,47310,1,0,0:0:0:0:
64,192,47410,1,0,0:0:0:0:
448,192,47410,1,0,0:0:0:0:
192,192,47510,1,0,0:0:0:0:
320,192,47510,1,0,0:0:0:0:
64,192,47610,1,0,0:0:0:0:
448,192,47610,1,0,0:0:0:0:
192,192,47710,1,0,0:0:0:0:
320,192,47710,1,0,0:0:0:0:
64,192,47810,1,0,0:0:0:0:
448,192,47810,1,0,0:0:0:0:
192,192,47910,1,0,0:0:0:0:
320,192,48010,1,0,0:0:0:0:
448,192,48010,1,0,0:0:0:0:
192,192,48110,1,0,0:0:0:0:
64,192,48110,1,0,0:0:0:0:
320,192,48210,1,0,0:0:0:0:
448,192,48210,1,0,0:0:0:0:
192,192,48310,1,0,0:0:0:0:
64,192,48310,1,0,0:0:0:0:
320,192,48410,1,0,0:0:0:0:
448,192,48410,1,0,0:0:0:0:
192,192,48510,1,0,0:0:0:0:
64,192,48510,1,0,0:0:0:0:
320,192,48610,1,0,0:0:0:0:
448,192,48610,1,0,0:0:0:0:
192,192,48710,1,0,0:0:0:0:
64,192,48710,1,0,0:0:0:0:
320,192,48810,1,0,0:0:0:0:
448,192,48810,1,0,0:0:0:0:
192,192,48910,1,0,0:0:0:0:
64,192,48910,1,0,0:0:0:0:
320,192,49010,1,0,0:0:0:0:
448,192,49010,1,0,0:0:0:0:
192,192,49110,1,0,0:0:0:0:
64,192,49110,1,0,0:0:0:0:
320,192,49210,1,0,0:0:0:0:
448,192,49210,1,0,0:0:0:0:
192,192,49310,1,0,0:0:0:0:
64,192,49310,1,0,0:0:0:0:
320,192,49410,1,0,0:0:0:0:
448,192,49410,1,0,0:0:0:0:
192,192,49510,1,0,0:0:0:0:
64,192,49510,1,0,0:0:0:0:
320,192,49610,1,0,0:0:0:0:
448,192,49610,1,0,0:0:0:0:
192,192,49660,1,0,0:0:0:0:
64,192,49710,1,0,0:0:0:0:
320,192,49760,1,0,0:0:0:0:
448,192,49810,1,0,0:0:0:0:
192,192,49860,1,0,0:0:0:0:
320,192,49910,1,0,0:0:0:0:
64,192,49960,1,0,0:0:0:0:
192,192,50010,1,0,0:0:0:0:
448,192,50060,1,0,0:0:0:0:
320,192,50110,1,0,0:0:0:0:
192,192,50160,1,0,0:0:0:0:
64,192,50210,1,0,0:0:0:0:
320,192,50260,1,0,0:0:0:0:
192,192,50310,1,0,0:0:0:0:
448,192,50360,1,0,0:0:0:0:
320,192,50410,1,0,0:0:0:0:
64,192,50460,1,0,0:0:0:0:
192,192,50510,1,0,0:0:0:0:
448,192,50560,1,0,0:0:0:0:
320,192,50610,1,0,0:0:0:0:
64,192,50660,1,0,0:0:0:0:
192,192,50710,1,0,0:0:0:0:
320,192,50760,1,0,0:0:0:0:
64,192,50810,1,0,0:0:0:0:
448,192,50810,1,0,0:0:0:0:
320,192,50860,1,0,0:0:0:0:
192,192,50910,1,0,0:0:0:0:
64,192,50960,1,0,0:0:0:0:
448,192,51010,1,0,0:0:0:0:
320,192,51060,1,0,0:0:0:0:
192,192,51110,1,0,0:0:0:0:
64,192,51160,1,0,0:0:0:0:
320,192,51210,128,0,51510:0:0:0:0:
448,192,51210,128,0,51510:0:0:0:0:
64,192,51410,128,0,51910:0:0:0:0:
192,192,51410,128,0,51810:0:0:0:0:
320,192,51610,128,0,52210:0:0:0:0:
448,192,51610,128,0,52210:0:0:0:0:
192,192,51910,1,0,0:0:0:0:
192,192,52010,128,0,52210:0:0:0:0:
64,192,52010,128,0,52410:0:0:0:0:
448,192,52310,1,0,0:0:0:0:
320,192,52410,1,0,0:0:0:0:
192,192,52410,1,0,0:0:0:0:
64,192,52510,1,0,0:0:0:0:
448,192,52510,1,0,0:0:0:0:
320,192,52610,1,0,0:0:0:0:
448,192,52610,1,0,0:0:0:0:
64,192,52710,1,0,0:0:0:0:
192,192,52710,1,0,0:0:0:0:
64,192,52810,1,0,0:0:0:0:
320,192,52810,1,0,0:0:0:0:
448,192,52810,1,0,0:0:0:0:
192,192,52910,1,0,0:0:0:0:
320,192,53010,1,0,0:0:0:0:
448,192,53010,1,0,0:0:0:0:
64,192,53110,128,0,53310:0:0:0:0:
192,192,53210,128,0,53410:0:0:0:0:
448,192,53210,128,0,53410:0:0:0:0:
320,192,53410,1,0,0:0:0:0:
64,192,53410,1,0,0:0:0:0:
192,192,53510,1,0,0:0:0:0:
320,192,53610,1,0,0:0:0:0:
448,192,53610,1,0,0:0:0:0:
64,192,53610,1,0,0:0:0:0:
192,192,53710,1,0,0:0:0:0:
448,192,53810,128,0,54010:0:0:0:0:
320,192,53910,1,0,0:0:0:0:
64,192,54010,128,0,54310:0:0:0:0:
192,192,54010,1,0,0:0:0:0:
192,192,54210,128,0,54310:0:0:0:0:
320,192,54210,128,0,54410:0:0:0:0:
192,192,54410,1,0,0:0:0:0:
64,192,54410,1,0,0:0:0:0:
448,192,54410,128,0,54610:0:0:0:0:
192,192,54610,128,0,54810:0:0:0:0:
320,192,54710,128,0,54910:0:0:0:0:
448,192,54810,128,0,55010:0:0:0:0:
64,192,54810,128,0,55010:0:0:0:0:
192,192,55010,1,0,0:0:0:0:
320,192,55010,1,0,0:0:0:0:
448,192,55110,1,0,0:0:0:0:
64,192,55210,1,0,0:0:0:0:
192,192,55210,1,0,0:0:0:0:
320,192,55210,1,0,0:0:0:0:
448,192,55310,1,0,0:0:0:0:
64,192,55410,128,0,55610:0:0:0:0:
192,192,55410,1,0,0:0:0:0:
448,192,55510,1,0,0:0:0:0:
192,192,55610,128,0,55710:0:0:0:0:
320,192,55610,128,0,55710:0:0:0:0:
64,192,55810,128,0,55910:0:0:0:0:
320,192,55810,128,0,55910:0:0:0:0:
448,192,55810,128,0,55910:0:0:0:0:
64,192,56010,1,0,0:0:0:0:
320,192,56010,1,0,0:0:0:0:
448,192,56010,1,0,0:0:0:0:
192,192,56010,128,0,56210:0:0:0:0:
448,192,56210,128,0,56410:0:0:0:0:
320,192,56310,128,0,56510:0:0:0:0:
192,192,56410,128,0,56610:0:0:0:0:
64,192,56410,128,0,56610:0:0:0:0:
320,192,56610,1,0,0:0:0:0:
448,192,56610,1,0,0:0:0:0:
64,192,56710,1,0,0:0:0:0:
192,192,56810,1,0,0:0:0:0:
320,192,56810,1,0,0:0:0:0:
448,192,56810,1,0,0:0:0:0:
64,192,56910,1,0,0:0:0:0:
448,192,57010,128,0,57210:0:0:0:0:
192,192,57010,1,0,0:0:0:0:
64,192,57210,1,0,0:0:0:0:
192,192,57210,128,0,57510:0:0:0:0:
320,192,57310,128,0,57510:0:0:0:0:
448,192,57410,128,0,57610:0:0:0:0:
192,192,57610,1,0,0:0:0:0:
64,192,57610,1,0,0:0:0:0:
320,192,57610,1,0,0:0:0:0:
448,192,57660,1,0,0:0:0:0:
320,192,57710,1,0,0:0:0:0:
192,192,57760,1,0,0:0:0:0:
64,192,57810,1,0,0:0:0:0:
448,192,57876,1,0,0:0:0:0:
320,192,57943,1,0,0:0:0:0:
64,192,58010,1,0,0:0:0:0:
192,192,58010,1,0,0:0:0:0:
448,192,58143,128,0,58410:0:0:0:0:
320,192,58143,1,0,0:0:0:0:
64,192,58410,1,0,0:0:0:0:
192,192,58410,128,0,58610:0:0:0:0:
320,192,58410,128,0,58610:0:0:0:0:
448,192,58610,1,0,0:0:0:0:
192,192,58710,128,0,58910:0:0:0:0:
320,192,58710,128,0,58910:0:0:0:0:
64,192,58910,1,0,0:0:0:0:
192,192,59010,128,0,59110:0:0:0:0:
320,192,59010,128,0,59110:0:0:0:0:
448,192,59010,128,0,59110:0:0:0:0:
320,192,59210,1,0,0:0:0:0:
192,192,59210,1,0,0:0:0:0:
448,192,59210,128,0,59610:0:0:0:0:
64,192,59210,128,0,59410:0:0:0:0:
320,192,59610,128,0,59810:0:0:0:0:
64,192,59610,128,0,59810:0:0:0:0:
192,192,59810,1,0,0:0:0:0:
448,192,59910,1,0,0:0:0:0:
192,192,60010,1,0,0:0:0:0:
64,192,60010,1,0,0:0:0:0:
320,192,60010,1,0,0:0:0:0:
448,192,60110,1,0,0:0:0:0:
64,192,60210,1,0,0:0:0:0:
320,192,60210,128,0,60410:0:0:0:0:
192,192,60310,128,0,60710:0:0:0:0:
448,192,60410,128,0,60710:0:0:0:0:
64,192,60610,128,0,60810:0:0:0:0:
192,192,60810,1,0,0:0:0:0:
320,192,60810,128,0,61210:0:0:0:0:
448,192,60810,128,0,61010:0:0:0:0:
192,192,61210,128,0,61410:0:0:0:0:
448,192,61310,128,0,61510:0:0:0:0:
320,192,61310,128,0,61510:0:0:0:0:
64,192,61410,1,0,0:0:0:0:
192,192,61510,1,0,0:0:0:0:
64,192,61610,1,0,0:0:0:0:
320,192,61610,1,0,0:0:0:0:
448,192,61610,1,0,0:0:0:0:
192,192,61710,1,0,0:0:0:0:
448,192,61810,128,0,62010:0:0:0:0:
320,192,61810,128,0,62010:0:0:0:0:
64,192,62010,1,0,0:0:0:0:
192,192,62060,1,0,0:0:0:0:
448,192,62110,1,0,0:0:0:0:
320,192,62160,1,0,0:0:0:0:
192,192,62210,1,0,0:0:0:0:
64,192,62260,1,0,0:0:0:0:
448,192,62310,1,0,0:0:0:0:
320,192,62360,1,0,0:0:0:0:
192,192,62410,1,0,0:0:0:0:
448,192,62410,1,0,0:0:0:0:
64,192,62410,128,0,62610:0:0:0:0:
320,192,62610,128,0,62810:0:0:0:0:
448,192,62610,1,0,0:0:0:0:
192,192,62810,128,0,63010:0:0:0:0:
64,192,62810,128,0,63010:0:0:0:0:
448,192,62810,128,0,63010:0:0:0:0:
320,192,63010,128,0,63110:0:0:0:0:
192,192,63110,1,0,0:0:0:0:
448,192,63210,1,0,0:0:0:0:
64,192,63210,128,0,63410:0:0:0:0:
320,192,63210,128,0,63310:0:0:0:0:
448,192,63410,128,0,63610:0:0:0:0:
192,192,63410,1,0,0:0:0:0:
320,192,63610,128,0,63810:0:0:0:0:
192,192,63610,128,0,63810:0:0:0:0:
64,192,63610,128,0,63810:0:0:0:0:
448,192,63810,128,0,63910:0:0:0:0:
64,192,63910,1,0,0:0:0:0:
448,192,64010,128,0,64110:0:0:0:0:
192,192,64010,1,0,0:0:0:0:
320,192,64010,128,0,64210:0:0:0:0:
192,192,64210,128,0,64410:0:0:0:0:
64,192,64410,128,0,64610:0:0:0:0:
320,192,64410,128,0,64610:0:0:0:0:
448,192,64410,128,0,64610:0:0:0:0:
192,192,64610,128,0,64710:0:0:0:0:
320,192,64710,1,0,0:0:0:0:
64,192,64810,1,0,0:0:0:0:
448,192,64810,1,0,0:0:0:0:
192,192,64810,1,0,0:0:0:0:
320,192,64860,1,0,0:0:0:0:
192,192,64910,1,0,0:0:0:0:
64,192,64960,1,0,0:0:0:0:
320,192,65010,1,0,0:0:0:0:
448,192,65010,1,0,0:0:0:0:
64,192,65110,1,0,0:0:0:0:
448,192,65210,1,0,0:0:0:0:
192,192,65210,1,0,0:0:0:0:
64,192,65310,1,0,0:0:0:0:
320,192,65410,1,0,0:0:0:0:
192,192,65510,1,0,0:0:0:0:
64,192,65610,1,0,0:0:0:0:
320,192,65610,128,0,65810:0:0:0:0:
448,192,65610,128,0,66010:0:0:0:0:
192,192,65810,1,0,0:0:0:0:
64,192,65910,1,0,0:0:0:0:
320,192,66010,128,0,66210:0:0:0:0:
192,192,66010,128,0,66110:0:0:0:0:
64,192,66110,1,0,0:0:0:0:
448,192,66210,1,0,0:0:0:0:
64,192,66310,1,0,0:0:0:0:
192,192,66410,1,0,0:0:0:0:
320,192,66410,1,0,0:0:0:0:
448,192,66410,1,0,0:0:0:0:
64,192,66510,1,0,0:0:0:0:
448,192,66610,128,0,66810:0:0:0:0:
320,192,66610,128,0,67010:0:0:0:0:
192,192,66810,128,0,67010:0:0:0:0:
64,192,66910,128,0,67110:0:0:0:0:
448,192,67010,128,0,67210:0:0:0:0:
64,192,67210,1,0,0:0:0:0:
320,192,67210,128,0,67610:0:0:0:0:
192,192,67210,128,0,67410:0:0:0:0:
448,192,67410,1,0,0:0:0:0:
64,192,67510,1,0,0:0:0:0:
448,192,67610,128,0,67810:0:0:0:0:
192,192,67610,128,0,67710:0:0:0:0:
64,192,67710,1,0,0:0:0:0:
320,192,67810,1,0,0:0:0:0:
192,192,67910,1,0,0:0:0:0:
64,192,68010,1,0,0:0:0:0:
320,192,68010,1,0,0:0:0:0:
448,192,68010,1,0,0:0:0:0:
192,192,68110,1,0,0:0:0:0:
320,192,68210,128,0,68410:0:0:0:0:
448,192,68210,128,0,68410:0:0:0:0:
64,192,68410,128,0,68510:0:0:0:0:
192,192,68410,128,0,68510:0:0:0:0:
64,192,68610,128,0,68710:0:0:0:0:
320,192,68610,128,0,68710:0:0:0:0:
448,192,68610,128,0,68710:0:0:0:0:
64,192,68810,1,0,0:0:0:0:
192,192,68810,128,0,69210:0:0:0:0:
448,192,68810,128,0,69010:0:0:0:0:
320,192,69010,1,0,0:0:0:0:
64,192,69110,1,0,0:0:0:0:
448,192,69210,128,0,69410:0:0:0:0:
320,192,69210,128,0,69310:0:0:0:0:
64,192,69310,1,0,0:0:0:0:
192,192,69410,1,0,0:0:0:0:
320,192,69510,1,0,0:0:0:0:
64,192,69610,1,0,0:0:0:0:
192,192,69610,1,0,0:0:0:0:
448,192,69610,1,0,0:0:0:0:
320,192,69710,1,0,0:0:0:0:
64,192,69810,128,0,70010:0:0:0:0:
192,192,69810,128,0,70210:0:0:0:0:
320,192,70010,128,0,70210:0:0:0:0:
448,192,70110,128,0,70310:0:0:0:0:
64,192,70210,128,0,70310:0:0:0:0:
192,192,70410,1,0,0:0:0:0:
448,192,70410,1,0,0:0:0:0:
320,192,70410,1,0,0:0:0:0:
64,192,70460,1,0,0:0:0:0:
448,192,70510,1,0,0:0:0:0:
320,192,70560,1,0,0:0:0:0:
192,192,70610,1,0,0:0:0:0:
64,192,70660,1,0,0:0:0:0:
448,192,70660,1,0,0:0:0:0:
320,192,70743,1,0,0:0:0:0:
192,192,70810,1,0,0:0:0:0:
448,192,70943,128,0,71210:0:0:0:0:
64,192,70943,1,0,0:0:0:0:
192,192,71210,1,0,0:0:0:0:
320,192,71210,128,0,71410:0:0:0:0:
64,192,71210,128,0,71410:0:0:0:0:
448,192,71410,1,0,0:0:0:0:
320,192,71510,128,0,71710:0:0:0:0:
64,192,71510,128,0,71710:0:0:0:0:
448,192,71710,1,0,0:0:0:0:
64,192,71810,128,0,71910:0:0:0:0:
192,192,71810,128,0,71910:0:0:0:0:
320,192,71810,128,0,71910:0:0:0:0:
64,192,72010,1,0,0:0:0:0:
192,192,72010,1,0,0:0:0:0:
448,192,72010,128,0,72210:0:0:0:0:
320,192,72210,1,0,0:0:0:0:
192,192,72310,1,0,0:0:0:0:
64,192,72410,1,0,0:0:0:0:
320,192,72410,1,0,0:0:0:0:
448,192,72410,1,0,0:0:0:0:
192,192,72510,1,0,0:0:0:0:
320,192,72610,1,0,0:0:0:0:
448,192,72610,1,0,0:0:0:0:
192,192,72710,1,0,0:0:0:0:
64,192,72710,1,0,0:0:0:0:
320,192,72710,1,0,0:0:0:0:
448,192,72810,1,0,0:0:0:0:
64,192,72910,1,0,0:0:0:0:
192,192,72910,1,0,0:0:0:0:
448,192,73010,1,0,0:0:0:0:
64,192,73010,1,0,0:0:0:0:
320,192,73010,128,0,73110:0:0:0:0:
192,192,73110,1,0,0:0:0:0:
64,192,73210,1,0,0:0:0:0:
320,192,73210,1,0,0:0:0:0:
448,192,73210,128,0,73510:0:0:0:0:
192,192,73410,128,0,73510:0:0:0:0:
64,192,73410,128,0,73510:0:0:0:0:
64,192,73610,128,0,73910:0:0:0:0:
192,192,73610,128,0,73810:0:0:0:0:
448,192,73610,128,0,73710:0:0:0:0:
320,192,73810,1,0,0:0:0:0:
64,192,74010,1,0,0:0:0:0:
320,192,74010,1,0,0:0:0:0:
448,192,74010,1,0,0:0:0:0:
192,192,74110,1,0,0:0:0:0:
64,192,74210,1,0,0:0:0:0:
320,192,74210,1,0,0:0:0:0:
192,192,74310,1,0,0:0:0:0:
320,192,74310,1,0,0:0:0:0:
448,192,74310,1,0,0:0:0:0:
64,192,74410,1,0,0:0:0:0:
448,192,74510,1,0,0:0:0:0:
192,192,74510,1,0,0:0:0:0:
64,192,74610,1,0,0:0:0:0:
320,192,74610,1,0,0:0:0:0:
448,192,74610,1,0,0:0:0:0:
192,192,74710,1,0,0:0:0:0:
64,192,74810,1,0,0:0:0:0:
320,192,74810,1,0,0:0:0:0:
448,192,74810,1,0,0:0:0:0:
192,192,74860,1,0,0:0:0:0:
448,192,74910,1,0,0:0:0:0:
320,192,74960,1,0,0:0:0:0:
192,192,75010,1,0,0:0:0:0:
64,192,75060,1,0,0:0:0:0:
448,192,75110,1,0,0:0:0:0:
320,192,75160,1,0,0:0:0:0:
192,192,75210,128,0,75410:0:0:0:0:
64,192,75210,128,0,75410:0:0:0:0:
64,192,75510,128,0,75710:0:0:0:0:
64,192,75810,128,0,76010:0:0:0:0:
192,192,75810,128,0,76010:0:0:0:0:
320,192,76210,128,0,76410:0:0:0:0:
448,192,76210,128,0,76410:0:0:0:0:
448,192,76510,128,0,76710:0:0:0:0:
320,192,76810,128,0,77010:0:0:0:0:
192,192,76810,128,0,77010:0:0:0:0:
192,192,77110,128,0,77310:0:0:0:0:
192,192,77410,128,0,77610:0:0:0:0:
320,192,77410,128,0,77610:0:0:0:0:
64,192,77810,128,0,78010:0:0:0:0:
448,192,77810,128,0,78010:0:0:0:0:
64,192,78110,128,0,78310:0:0:0:0:
448,192,78410,128,0,78810:0:0:0:0:
320,192,78410,128,0,78710:0:0:0:0:
192,192,78410,128,0,78610:0:0:0:0:
64,192,78410,128,0,78510:0:0:0:0:
64,192,78810,1,0,0:0:0:0:
192,192,78810,1,0,0:0:0:0:
192,192,78910,1,0,0:0:0:0:
320,192,78910,1,0,0:0:0:0:
320,192,79010,1,0,0:0:0:0:
448,192,79010,1,0,0:0:0:0:
192,192,79210,1,0,0:0:0:0:
320,192,79210,1,0,0:0:0:0:
448,192,79210,128,0,79510:0:0:0:0:
64,192,79510,128,0,79610:0:0:0:0:
192,192,79560,128,0,79660:0:0:0:0:
320,192,79610,128,0,79710:0:0:0:0:
64,192,79810,1,0,0:0:0:0:
192,192,79860,1,0,0:0:0:0:
320,192,79910,1,0,0:0:0:0:
64,192,80010,1,0,0:0:0:0:
192,192,80010,1,0,0:0:0:0:
448,192,80010,128,0,80310:0:0:0:0:
320,192,80310,128,0,80410:0:0:0:0:
192,192,80360,128,0,80460:0:0:0:0:
64,192,80410,128,0,80510:0:0:0:0:
320,192,80610,1,0,0:0:0:0:
192,192,80660,1,0,0:0:0:0:
64,192,80710,1,0,0:0:0:0:
192,192,80810,1,0,0:0:0:0:
320,192,80810,1,0,0:0:0:0:
448,192,80810,128,0,81110:0:0:0:0:
64,192,81110,128,0,81210:0:0:0:0:
192,192,81160,128,0,81260:0:0:0:0:
320,192,81210,128,0,81310:0:0:0:0:
448,192,81410,1,0,0:0:0:0:
320,192,81460,1,0,0:0:0:0:
192,192,81510,1,0,0:0:0:0:
64,192,81610,128,0,81910:0:0:0:0:
320,192,81610,128,0,81910:0:0:0:0:
448,192,81610,128,0,81910:0:0:0:0:
192,192,81910,1,0,0:0:0:0:
448,192,82010,128,0,82110:0:0:0:0:
320,192,82060,128,0,82160:0:0:0:0:
192,192,82110,128,0,82210:0:0:0:0:
64,192,82160,128,0,82260:0:0:0:0:
448,192,82210,1,0,0:0:0:0:
320,192,82260,1,0,0:0:0:0:
192,192,82310,1,0,0:0:0:0:
64,192,82360,1,0,0:0:0:0:
320,192,82410,1,0,0:0:0:0:
448,192,82410,1,0,0:0:0:0:
192,192,82410,1,0,0:0:0:0:
448,192,82510,128,0,82710:0:0:0:0:
320,192,82610,128,0,82810:0:0:0:0:
192,192,82710,128,0,82910:0:0:0:0:
64,192,82810,128,0,83010:0:0:0:0:
448,192,82810,128,0,83010:0:0:0:0:
320,192,83010,128,0,83110:0:0:0:0:
192,192,83010,128,0,83110:0:0:0:0:
64,192,83210,1,0,0:0:0:0:
320,192,83210,1,0,0:0:0:0:
448,192,83210,1,0,0:0:0:0:
192,192,83310,128,0,83510:0:0:0:0:
448,192,83410,128,0,83610:0:0:0:0:
320,192,83510,128,0,83710:0:0:0:0:
192,192,83610,128,0,83910:0:0:0:0:
64,192,83610,128,0,83910:0:0:0:0:
448,192,83810,128,0,83910:0:0:0:0:
320,192,83810,128,0,83910:0:0:0:0:
64,192,84010,128,0,84110:0:0:0:0:
320,192,84010,128,0,84110:0:0:0:0:
448,192,84010,128,0,84110:0:0:0:0:
64,192,84210,128,0,84310:0:0:0:0:
448,192,84210,128,0,84310:0:0:0:0:
192,192,84310,1,0,0:0:0:0:
320,192,84360,1,0,0:0:0:0:
448,192,84410,1,0,0:0:0:0:
64,192,84460,1,0,0:0:0:0:
320,192,84510,1,0,0:0:0:0:
192,192,84560,1,0,0:0:0:0:
64,192,84610,1,0,0:0:0:0:
448,192,84660,1,0,0:0:0:0:
320,192,84710,1,0,0:0:0:0:
192,192,84760,1,0,0:0:0:0:
320,192,84810,1,0,0:0:0:0:
448,192,84810,128,0,85010:0:0:0:0:
64,192,84810,128,0,85110:0:0:0:0:
448,192,85210,1,0,0:0:0:0:
320,192,85210,1,0,0:0:0:0:
320,192,85310,1,0,0:0:0:0:
192,192,85310,1,0,0:0:0:0:
192,192,85410,1,0,0:0:0:0:
64,192,85410,1,0,0:0:0:0:
320,192,85610,1,0,0:0:0:0:
192,192,85610,1,0,0:0:0:0:
64,192,85610,128,0,85910:0:0:0:0:
448,192,85910,128,0,86010:0:0:0:0:
320,192,85960,128,0,86060:0:0:0:0:
192,192,86010,128,0,86110:0:0:0:0:
448,192,86210,1,0,0:0:0:0:
320,192,86260,1,0,0:0:0:0:
192,192,86310,1,0,0:0:0:0:
448,192,86410,1,0,0:0:0:0:
320,192,86410,1,0,0:0:0:0:
64,192,86410,128,0,86710:0:0:0:0:
192,192,86710,128,0,86810:0:0:0:0:
320,192,86760,128,0,86860:0:0:0:0:
448,192,86810,128,0,86910:0:0:0:0:
192,192,87010,1,0,0:0:0:0:
320,192,87060,1,0,0:0:0:0:
448,192,87110,1,0,0:0:0:0:
320,192,87210,1,0,0:0:0:0:
192,192,87210,1,0,0:0:0:0:
64,192,87210,128,0,87510:0:0:0:0:
448,192,87510,128,0,87610:0:0:0:0:
320,192,87560,128,0,87660:0:0:0:0:
192,192,87610,128,0,87710:0:0:0:0:
64,192,87810,1,0,0:0:0:0:
192,192,87860,1,0,0:0:0:0:
320,192,87910,1,0,0:0:0:0:
448,192,88010,128,0,88310:0:0:0:0:
64,192,88010,128,0,88310:0:0:0:0:
192,192,88010,128,0,88210:0:0:0:0:
320,192,88310,1,0,0:0:0:0:
64,192,88410,128,0,88510:0:0:0:0:
192,192,88460,128,0,88560:0:0:0:0:
320,192,88510,128,0,88610:0:0:0:0:
448,192,88560,128,0,88660:0:0:0:0:
64,192,88610,1,0,0:0:0:0:
192,192,88660,1,0,0:0:0:0:
320,192,88710,1,0,0:0:0:0:
448,192,88760,1,0,0:0:0:0:
192,192,88810,1,0,0:0:0:0:
64,192,88810,1,0,0:0:0:0:
320,192,88810,1,0,0:0:0:0:
448,192,88860,1,0,0:0:0:0:
64,192,88910,1,0,0:0:0:0:
192,192,88960,1,0,0:0:0:0:
320,192,89010,1,0,0:0:0:0:
448,192,89060,1,0,0:0:0:0:
64,192,89110,1,0,0:0:0:0:
192,192,89160,1,0,0:0:0:0:
448,192,89210,128,0,89310:0:0:0:0:
320,192,89260,128,0,89360:0:0:0:0:
192,192,89310,128,0,89410:0:0:0:0:
64,192,89360,128,0,89460:0:0:0:0:
448,192,89410,1,0,0:0:0:0:
320,192,89460,1,0,0:0:0:0:
192,192,89510,1,0,0:0:0:0:
64,192,89560,1,0,0:0:0:0:
192,192,89610,1,0,0:0:0:0:
448,192,89610,1,0,0:0:0:0:
320,192,89610,1,0,0:0:0:0:
64,192,89660,1,0,0:0:0:0:
320,192,89710,1,0,0:0:0:0:
448,192,89760,1,0,0:0:0:0:
192,192,89810,1,0,0:0:0:0:
64,192,89860,1,0,0:0:0:0:
448,192,89910,1,0,0:0:0:0:
320,192,89960,1,0,0:0:0:0:
64,192,90010,128,0,90110:0:0:0:0:
192,192,90060,128,0,90160:0:0:0:0:
320,192,90110,128,0,90210:0:0:0:0:
448,192,90160,128,0,90260:0:0:0:0:
64,192,90210,1,0,0:0:0:0:
192,192,90260,1,0,0:0:0:0:
320,192,90310,1,0,0:0:0:0:
448,192,90360,1,0,0:0:0:0:
192,192,90410,1,0,0:0:0:0:
64,192,90410,1,0,0:0:0:0:
320,192,90410,1,0,0:0:0:0:
448,192,90510,1,0,0:0:0:0:
192,192,90610,1,0,0:0:0:0:
64,192,90610,1,0,0:0:0:0:
320,192,90710,1,0,0:0:0:0:
448,192,90710,1,0,0:0:0:0:
64,192,90810,1,0,0:0:0:0:
448,192,90810,1,0,0:0:0:0:
192,192,90910,1,0,0:0:0:0:
64,192,90910,1,0,0:0:0:0:
320,192,91010,1,0,0:0:0:0:
448,192,91010,1,0,0:0:0:0:
192,192,91110,1,0,0:0:0:0:
64,192,91110,1,0,0:0:0:0:
64,192,91210,1,0,0:0:0:0:
320,192,91210,1,0,0:0:0:0:
448,192,91210,1,0,0:0:0:0:
192,192,91610,1,0,0:0:0:0:
64,192,91610,1,0,0:0:0:0:
448,192,91610,1,0,0:0:0:0:
320,192,91660,1,0,0:0:0:0:
192,192,91710,1,0,0:0:0:0:
320,192,91760,1,0,0:0:0:0:
192,192,91810,1,0,0:0:0:0:
320,192,91860,1,0,0:0:0:0:
192,192,91910,1,0,0:0:0:0:
320,192,91960,1,0,0:0:0:0:
192,192,92010,1,0,0:0:0:0:
64,192,92010,128,0,92210:0:0:0:0:
448,192,92010,128,0,92310:0:0:0:0:
320,192,92310,128,0,92410:0:0:0:0:
64,192,92360,128,0,92460:0:0:0:0:
192,192,92410,128,0,92510:0:0:0:0:
320,192,92610,1,0,0:0:0:0:
64,192,92660,1,0,0:0:0:0:
192,192,92710,1,0,0:0:0:0:
320,192,92810,1,0,0:0:0:0:
64,192,92810,128,0,93110:0:0:0:0:
448,192,92810,128,0,93010:0:0:0:0:
192,192,93110,128,0,93210:0:0:0:0:
448,192,93160,128,0,93260:0:0:0:0:
320,192,93210,128,0,93310:0:0:0:0:
192,192,93410,1,0,0:0:0:0:
448,192,93460,1,0,0:0:0:0:
320,192,93510,1,0,0:0:0:0:
64,192,93610,1,0,0:0:0:0:
448,192,93610,1,0,0:0:0:0:
192,192,93610,128,0,93910:0:0:0:0:
448,192,93910,128,0,94010:0:0:0:0:
320,192,93960,128,0,94060:0:0:0:0:
64,192,94060,128,0,94160:0:0:0:0:
64,192,94210,1,0,0:0:0:0:
320,192,94260,1,0,0:0:0:0:
448,192,94310,1,0,0:0:0:0:
64,192,94410,128,0,94710:0:0:0:0:
192,192,94410,128,0,94610:0:0:0:0:
320,192,94410,128,0,94510:0:0:0:0:
448,192,94810,128,0,94910:0:0:0:0:
320,192,94860,128,0,94960:0:0:0:0:
64,192,94910,128,0,95010:0:0:0:0:
192,192,94960,128,0,95060:0:0:0:0:
448,192,95010,1,0,0:0:0:0:
320,192,95060,1,0,0:0:0:0:
64,192,95110,1,0,0:0:0:0:
192,192,95160,1,0,0:0:0:0:
320,192,95210,1,0,0:0:0:0:
448,192,95210,1,0,0:0:0:0:
64,192,95210,1,0,0:0:0:0:
192,192,95310,128,0,95510:0:0:0:0:
448,192,95410,128,0,95610:0:0:0:0:
320,192,95510,128,0,95710:0:0:0:0:
64,192,95610,128,0,95810:0:0:0:0:
192,192,95610,128,0,95810:0:0:0:0:
320,192,95810,128,0,95910:0:0:0:0:
448,192,95810,128,0,95910:0:0:0:0:
64,192,96010,1,0,0:0:0:0:
192,192,96010,1,0,0:0:0:0:
448,192,96010,1,0,0:0:0:0:
320,192,96110,128,0,96310:0:0:0:0:
64,192,96210,128,0,96410:0:0:0:0:
192,192,96310,128,0,96510:0:0:0:0:
448,192,96410,128,0,96610:0:0:0:0:
320,192,96410,128,0,96610:0:0:0:0:
192,192,96610,128,0,96710:0:0:0:0:
64,192,96610,128,0,96710:0:0:0:0:
64,192,96810,1,0,0:0:0:0:
448,192,96810,128,0,96910:0:0:0:0:
320,192,96810,128,0,96910:0:0:0:0:
192,192,97010,128,0,97110:0:0:0:0:
64,192,97010,128,0,97110:0:0:0:0:
448,192,97210,1,0,0:0:0:0:
320,192,97260,1,0,0:0:0:0:
192,192,97310,1,0,0:0:0:0:
64,192,97360,1,0,0:0:0:0:
448,192,97410,1,0,0:0:0:0:
320,192,97476,1,0,0:0:0:0:
192,192,97543,1,0,0:0:0:0:
64,192,97610,1,0,0:0:0:0:
448,192,97610,128,0,97910:0:0:0:0:
320,192,97610,128,0,97910:0:0:0:0:
192,192,98010,128,0,98110:0:0:0:0:
64,192,98060,128,0,98160:0:0:0:0:
320,192,98110,128,0,98210:0:0:0:0:
448,192,98160,128,0,98260:0:0:0:0:
192,192,98210,1,0,0:0:0:0:
64,192,98260,1,0,0:0:0:0:
320,192,98310,1,0,0:0:0:0:
448,192,98360,1,0,0:0:0:0:
320,192,98410,1,0,0:0:0:0:
192,192,98410,128,0,99110:0:0:0:0:
64,192,98410,128,0,99110:0:0:0:0:
320,192,98610,128,0,98910:0:0:0:0:
448,192,98610,128,0,98910:0:0:0:0:
448,192,99010,128,0,99210:0:0:0:0:
320,192,99010,1,0,0:0:0:0:
192,192,99210,1,0,0:0:0:0:
320,192,99210,128,0,99910:0:0:0:0:
64,192,99210,128,0,99910:0:0:0:0:
448,192,99410,128,0,99710:0:0:0:0:
192,192,99410,128,0,99710:0:0:0:0:
192,192,99810,128,0,100010:0:0:0:0:
448,192,99810,1,0,0:0:0:0:
64,192,100010,1,0,0:0:0:0:
320,192,100010,128,0,100710:0:0:0:0:
448,192,100010,128,0,100710:0:0:0:0:
192,192,100210,128,0,100510:0:0:0:0:
64,192,100210,128,0,100510:0:0:0:0:
64,192,100610,128,0,100710:0:0:0:0:
192,192,100610,128,0,100710:0:0:0:0:
64,192,100810,1,0,0:0:0:0:
320,192,100810,1,0,0:0:0:0:
448,192,100810,1,0,0:0:0:0:
320,192,101010,1,0,0:0:0:0:
192,192,101010,1,0,0:0:0:0:
64,192,101010,1,0,0:0:0:0:
448,192,101110,1,0,0:0:0:0:
64,192,101210,1,0,0:0:0:0:
320,192,101210,1,0,0:0:0:0:
192,192,101210,1,0,0:0:0:0:
192,192,101410,1,0,0:0:0:0:
320,192,101410,1,0,0:0:0:0:
448,192,101410,1,0,0:0:0:0:
64,192,101510,1,0,0:0:0:0:
192,192,101610,1,0,0:0:0:0:
320,192,101610,1,0,0:0:0:0:
448,192,101610,1,0,0:0:0:0:
64,192,101810,1,0,0:0:0:0:
320,192,101810,1,0,0:0:0:0:
448,192,101810,1,0,0:0:0:0:
192,192,101910,1,0,0:0:0:0:
64,192,102010,1,0,0:0:0:0:
320,192,102010,1,0,0:0:0:0:
448,192,102010,1,0,0:0:0:0:
448,192,102210,1,0,0:0:0:0:
192,192,102210,1,0,0:0:0:0:
64,192,102210,1,0,0:0:0:0:
320,192,102310,1,0,0:0:0:0:
192,192,102410,1,0,0:0:0:0:
64,192,102410,1,0,0:0:0:0:
320,192,102460,1,0,0:0:0:0:
448,192,102510,1,0,0:0:0:0:
192,192,102560,1,0,0:0:0:0:
64,192,102610,1,0,0:0:0:0:
320,192,102660,1,0,0:0:0:0:
448,192,102710,1,0,0:0:0:0:
192,192,102760,1,0,0:0:0:0:
64,192,102810,1,0,0:0:0:0:
320,192,102860,1,0,0:0:0:0:
448,192,102910,1,0,0:0:0:0:
64,192,102960,1,0,0:0:0:0:
192,192,103010,1,0,0:0:0:0:
320,192,103060,1,0,0:0:0:0:
448,192,103110,1,0,0:0:0:0:
192,192,103160,1,0,0:0:0:0:
64,192,103210,1,0,0:0:0:0:
448,192,103260,1,0,0:0:0:0:
320,192,103310,1,0,0:0:0:0:
192,192,103360,1,0,0:0:0:0:
64,192,103410,1,0,0:0:0:0:
448,192,103460,1,0,0:0:0:0:
320,192,103510,1,0,0:0:0:0:
192,192,103560,1,0,0:0:0:0:
64,192,103610,1,0,0:0:0:0:
448,192,103610,1,0,0:0:0:0:
320,192,103660,1,0,0:0:0:0:
192,192,103710,1,0,0:0:0:0:
64,192,103760,1,0,0:0:0:0:
448,192,103810,1,0,0:0:0:0:
320,192,103860,1,0,0:0:0:0:
192,192,103910,1,0,0:0:0:0:
64,192,103960,1,0,0:0:0:0:
320,192,104010,1,0,0:0:0:0:
448,192,104010,1,0,0:0:0:0:
192,192,104010,1,0,0:0:0:0:
320,192,107010,1,0,0:0:0:0:
448,192,107010,1,0,0:0:0:0:
192,192,107210,1,0,0:0:0:0:
64,192,107210,1,0,0:0:0:0:
64,192,107410,1,0,0:0:0:0:
192,192,107410,1,0,0:0:0:0:
64,192,110410,1,0,0:0:0:0:
192,192,110410,1,0,0:0:0:0:
320,192,110410,1,0,0:0:0:0:
448,192,110410,1,0,0:0:0:0:
448,192,116410,5,0,0:0:0:0:
64,192,116810,1,0,0:0:0:0:
192,192,116810,1,0,0:0:0:0:
320,192,116810,1,0,0:0:0:0:
448,192,116810,1,0,0:0:0:0:
448,192,117010,1,0,0:0:0:0:
64,192,117110,1,0,0:0:0:0:
320,192,117210,1,0,0:0:0:0:
192,192,117310,1,0,0:0:0:0:
448,192,117410,1,0,0:0:0:0:
64,192,117510,1,0,0:0:0:0:
320,192,117610,1,0,0:0:0:0:
192,192,117710,1,0,0:0:0:0:
448,192,117810,1,0,0:0:0:0:
64,192,117910,1,0,0:0:0:0:
320,192,118010,1,0,0:0:0:0:
192,192,118110,1,0,0:0:0:0:
448,192,118210,1,0,0:0:0:0:
320,192,118310,1,0,0:0:0:0:
192,192,118410,1,0,0:0:0:0:
448,192,118510,1,0,0:0:0:0:
64,192,118610,1,0,0:0:0:0:
192,192,118710,1,0,0:0:0:0:
320,192,118810,1,0,0:0:0:0:
64,192,118910,1,0,0:0:0:0:
448,192,119010,1,0,0:0:0:0:
192,192,119110,1,0,0:0:0:0:
320,192,119210,1,0,0:0:0:0:
64,192,119310,1,0,0:0:0:0:
448,192,119410,1,0,0:0:0:0:
320,192,119510,1,0,0:0:0:0:
64,192,119610,1,0,0:0:0:0:
448,192,119710,1,0,0:0:0:0:
64,192,119810,1,0,0:0:0:0:
192,192,119810,1,0,0:0:0:0:
320,192,120010,1,0,0:0:0:0:
448,192,120010,1,0,0:0:0:0:
192,192,120110,1,0,0:0:0:0:
320,192,120210,1,0,0:0:0:0:
448,192,120210,1,0,0:0:0:0:
64,192,120310,1,0,0:0:0:0:
448,192,120410,1,0,0:0:0:0:
192,192,120510,1,0,0:0:0:0:
320,192,120610,1,0,0:0:0:0:
192,192,120710,1,0,0:0:0:0:
320,192,120810,1,0,0:0:0:0:
64,192,120910,1,0,0:0:0:0:
448,192,121010,1,0,0:0:0:0:
192,192,121110,1,0,0:0:0:0:
320,192,121210,1,0,0:0:0:0:
64,192,121310,1,0,0:0:0:0:
448,192,121410,1,0,0:0:0:0:
192,192,121510,1,0,0:0:0:0:
320,192,121610,1,0,0:0:0:0:
448,192,121710,1,0,0:0:0:0:
64,192,121810,1,0,0:0:0:0:
192,192,121910,1,0,0:0:0:0:
448,192,122010,1,0,0:0:0:0:
64,192,122110,1,0,0:0:0:0:
320,192,122210,1,0,0:0:0:0:
192,192,122310,1,0,0:0:0:0:
448,192,122410,1,0,0:0:0:0:
64,192,122510,1,0,0:0:0:0:
320,192,122610,1,0,0:0:0:0:
192,192,122710,1,0,0:0:0:0:
448,192,122810,1,0,0:0:0:0:
64,192,122910,1,0,0:0:0:0:
192,192,123010,1,0,0:0:0:0:
320,192,123110,1,0,0:0:0:0:
64,192,123210,1,0,0:0:0:0:
192,192,123210,1,0,0:0:0:0:
320,192,123210,1,0,0:0:0:0:
448,192,123210,1,0,0:0:0:0:
64,192,123310,1,0,0:0:0:0:
448,192,123410,1,0,0:0:0:0:
192,192,123510,1,0,0:0:0:0:
320,192,123610,1,0,0:0:0:0:
64,192,123710,1,0,0:0:0:0:
448,192,123810,1,0,0:0:0:0:
192,192,123910,1,0,0:0:0:0:
320,192,124010,1,0,0:0:0:0:
448,192,124110,1,0,0:0:0:0:
192,192,124310,1,0,0:0:0:0:
64,192,124410,1,0,0:0:0:0:
320,192,124510,1,0,0:0:0:0:
192,192,124610,1,0,0:0:0:0:
64,192,124710,1,0,0:0:0:0:
448,192,124810,1,0,0:0:0:0:
192,192,124910,1,0,0:0:0:0:
320,192,125010,1,0,0:0:0:0:
64,192,125110,1,0,0:0:0:0:
448,192,125210,1,0,0:0:0:0:
192,192,125310,1,0,0:0:0:0:
320,192,125410,1,0,0:0:0:0:
64,192,125510,1,0,0:0:0:0:
448,192,125610,1,0,0:0:0:0:
192,192,125710,1,0,0:0:0:0:
320,192,125810,1,0,0:0:0:0:
64,192,125910,1,0,0:0:0:0:
448,192,126010,1,0,0:0:0:0:
192,192,126110,1,0,0:0:0:0:
320,192,126210,1,0,0:0:0:0:
64,192,126310,1,0,0:0:0:0:
448,192,126410,1,0,0:0:0:0:
192,192,126510,1,0,0:0:0:0:
320,192,126610,1,0,0:0:0:0:
64,192,126710,1,0,0:0:0:0:
448,192,126810,1,0,0:0:0:0:
192,192,126910,1,0,0:0:0:0:
320,192,127010,1,0,0:0:0:0:
448,192,127110,1,0,0:0:0:0:
64,192,127210,1,0,0:0:0:0:
320,192,127310,1,0,0:0:0:0:
192,192,127410,1,0,0:0:0:0:
64,192,127510,1,0,0:0:0:0:
448,192,127610,1,0,0:0:0:0:
192,192,127710,1,0,0:0:0:0:
64,192,127810,1,0,0:0:0:0:
320,192,127910,1,0,0:0:0:0:
448,192,128010,1,0,0:0:0:0:
192,192,128110,5,0,0:0:0:0:
64,192,128210,1,0,0:0:0:0:
320,192,128310,1,0,0:0:0:0:
448,192,128410,1,0,0:0:0:0:
64,192,128510,1,0,0:0:0:0:
192,192,128610,1,0,0:0:0:0:
448,192,128710,1,0,0:0:0:0:
320,192,128810,1,0,0:0:0:0:
192,192,128910,1,0,0:0:0:0:
320,192,129010,1,0,0:0:0:0:
192,192,129110,1,0,0:0:0:0:
64,192,129210,5,0,0:0:0:0:
448,192,129210,1,0,0:0:0:0:
64,192,129610,1,0,0:0:0:0:
192,192,129610,1,0,0:0:0:0:
320,192,129610,1,0,0:0:0:0:
448,192,129610,1,0,0:0:0:0:
192,192,129810,1,0,0:0:0:0:
320,192,129810,1,0,0:0:0:0:
192,192,130010,1,0,0:0:0:0:
64,192,130010,1,0,0:0:0:0:
320,192,130010,1,0,0:0:0:0:
448,192,130010,1,0,0:0:0:0:
192,192,130210,1,0,0:0:0:0:
448,192,130210,1,0,0:0:0:0:
64,192,130410,1,0,0:0:0:0:
192,192,130410,1,0,0:0:0:0:
448,192,130410,1,0,0:0:0:0:
320,192,130410,1,0,0:0:0:0:
320,192,130610,1,0,0:0:0:0:
64,192,130610,1,0,0:0:0:0:
64,192,130810,1,0,0:0:0:0:
192,192,130810,1,0,0:0:0:0:
320,192,130810,1,0,0:0:0:0:
448,192,130810,1,0,0:0:0:0:
192,192,131010,1,0,0:0:0:0:
320,192,131010,1,0,0:0:0:0:
64,192,131210,1,0,0:0:0:0:
192,192,131210,1,0,0:0:0:0:
320,192,131210,1,0,0:0:0:0:
448,192,131210,1,0,0:0:0:0:
64,192,131410,1,0,0:0:0:0:
448,192,131410,1,0,0:0:0:0:
64,192,131610,1,0,0:0:0:0:
192,192,131610,1,0,0:0:0:0:
320,192,131610,1,0,0:0:0:0:
448,192,131610,1,0,0:0:0:0:
192,192,131810,1,0,0:0:0:0:
320,192,131810,1,0,0:0:0:0:
64,192,132010,1,0,0:0:0:0:
192,192,132010,1,0,0:0:0:0:
320,192,132010,1,0,0:0:0:0:
448,192,132010,1,0,0:0:0:0:
192,192,132210,1,0,0:0:0:0:
448,192,132210,1,0,0:0:0:0:
64,192,132410,1,0,0:0:0:0:
320,192,132410,1,0,0:0:0:0:
192,192,132410,1,0,0:0:0:0:
448,192,132410,1,0,0:0:0:0:
320,192,132610,1,0,0:0:0:0:
64,192,132610,1,0,0:0:0:0:
64,192,132810,1,0,0:0:0:0:
192,192,132810,1,0,0:0:0:0:
320,192,132810,1,0,0:0:0:0:
448,192,132810,1,0,0:0:0:0:
192,192,133010,1,0,0:0:0:0:
320,192,133010,1,0,0:0:0:0:
64,192,133210,1,0,0:0:0:0:
192,192,133210,1,0,0:0:0:0:
320,192,133210,1,0,0:0:0:0:
448,192,133210,1,0,0:0:0:0:
320,192,133410,1,0,0:0:0:0:
448,192,133410,1,0,0:0:0:0:
64,192,133610,1,0,0:0:0:0:
320,192,133610,1,0,0:0:0:0:
448,192,133610,1,0,0:0:0:0:
192,192,133610,1,0,0:0:0:0:
64,192,133810,1,0,0:0:0:0:
192,192,133810,1,0,0:0:0:0:
64,192,134010,1,0,0:0:0:0:
192,192,134010,1,0,0:0:0:0:
320,192,134010,1,0,0:0:0:0:
448,192,134010,1,0,0:0:0:0:
320,192,134210,1,0,0:0:0:0:
448,192,134210,1,0,0:0:0:0:
64,192,134410,1,0,0:0:0:0:
192,192,134410,1,0,0:0:0:0:
320,192,134410,1,0,0:0:0:0:
448,192,134410,1,0,0:0:0:0:
192,192,134610,1,0,0:0:0:0:
320,192,134610,1,0,0:0:0:0:
192,192,134810,1,0,0:0:0:0:
64,192,134810,1,0,0:0:0:0:
320,192,134810,1,0,0:0:0:0:
448,192,134810,1,0,0:0:0:0:
192,192,135010,1,0,0:0:0:0:
448,192,135010,1,0,0:0:0:0:
64,192,135210,1,0,0:0:0:0:
192,192,135210,1,0,0:0:0:0:
448,192,135210,1,0,0:0:0:0:
320,192,135210,1,0,0:0:0:0:
320,192,135410,1,0,0:0:0:0:
64,192,135410,1,0,0:0:0:0:
64,192,135610,1,0,0:0:0:0:
192,192,135610,1,0,0:0:0:0:
320,192,135610,1,0,0:0:0:0:
448,192,135610,1,0,0:0:0:0:
192,192,135810,1,0,0:0:0:0:
320,192,135810,1,0,0:0:0:0:
64,192,136010,1,0,0:0:0:0:
192,192,136010,1,0,0:0:0:0:
320,192,136010,1,0,0:0:0:0:
448,192,136010,1,0,0:0:0:0:
64,192,136210,1,0,0:0:0:0:
448,192,136210,1,0,0:0:0:0:
64,192,136410,1,0,0:0:0:0:
192,192,136410,1,0,0:0:0:0:
320,192,136410,1,0,0:0:0:0:
448,192,136410,1,0,0:0:0:0:
192,192,136610,1,0,0:0:0:0:
320,192,136610,1,0,0:0:0:0:
64,192,136810,1,0,0:0:0:0:
192,192,136810,1,0,0:0:0:0:
320,192,136810,1,0,0:0:0:0:
448,192,136810,1,0,0:0:0:0:
192,192,137010,1,0,0:0:0:0:
448,192,137010,1,0,0:0:0:0:
64,192,137210,1,0,0:0:0:0:
320,192,137210,1,0,0:0:0:0:
192,192,137210,1,0,0:0:0:0:
448,192,137210,1,0,0:0:0:0:
320,192,137410,1,0,0:0:0:0:
64,192,137410,1,0,0:0:0:0:
64,192,137610,1,0,0:0:0:0:
192,192,137610,1,0,0:0:0:0:
320,192,137610,1,0,0:0:0:0:
448,192,137610,1,0,0:0:0:0:
192,192,137810,1,0,0:0:0:0:
320,192,137810,1,0,0:0:0:0:
64,192,138010,1,0,0:0:0:0:
192,192,138010,1,0,0:0:0:0:
320,192,138010,1,0,0:0:0:0:
448,192,138010,1,0,0:0:0:0:
320,192,138210,1,0,0:0:0:0:
448,192,138210,1,0,0:0:0:0:
64,192,138410,1,0,0:0:0:0:
320,192,138410,1,0,0:0:0:0:
448,192,138410,1,0,0:0:0:0:
192,192,138410,1,0,0:0:0:0:
64,192,138610,1,0,0:0:0:0:
192,192,138610,1,0,0:0:0:0:
64,192,138810,1,0,0:0:0:0:
192,192,138810,1,0,0:0:0:0:
320,192,138810,1,0,0:0:0:0:
448,192,138810,1,0,0:0:0:0:
320,192,139010,1,0,0:0:0:0:
448,192,139010,1,0,0:0:0:0:
320,192,139210,1,0,0:0:0:0:
448,192,139210,1,0,0:0:0:0:
64,192,139210,1,0,0:0:0:0:
192,192,139210,1,0,0:0:0:0:
320,192,139410,1,0,0:0:0:0:
192,192,139410,1,0,0:0:0:0:
320,192,139610,1,0,0:0:0:0:
448,192,139610,1,0,0:0:0:0:
192,192,139610,1,0,0:0:0:0:
64,192,139610,1,0,0:0:0:0:
448,192,139810,1,0,0:0:0:0:
192,192,139810,1,0,0:0:0:0:
448,192,140010,1,0,0:0:0:0:
320,192,140010,1,0,0:0:0:0:
64,192,140010,1,0,0:0:0:0:
192,192,140010,1,0,0:0:0:0:
64,192,140210,1,0,0:0:0:0:
320,192,140210,1,0,0:0:0:0:
320,192,140410,1,0,0:0:0:0:
448,192,140410,1,0,0:0:0:0:
64,192,140410,1,0,0:0:0:0:
192,192,140410,1,0,0:0:0:0:
320,192,140610,1,0,0:0:0:0:
192,192,140610,1,0,0:0:0:0:
320,192,140810,1,0,0:0:0:0:
448,192,140810,1,0,0:0:0:0:
64,192,140810,1,0,0:0:0:0:
192,192,140810,1,0,0:0:0:0:
448,192,141010,1,0,0:0:0:0:
64,192,141010,1,0,0:0:0:0:
320,192,141210,1,0,0:0:0:0:
448,192,141210,1,0,0:0:0:0:
64,192,141210,1,0,0:0:0:0:
192,192,141210,1,0,0:0:0:0:
320,192,141410,1,0,0:0:0:0:
192,192,141410,1,0,0:0:0:0:
320,192,141610,1,0,0:0:0:0:
448,192,141610,1,0,0:0:0:0:
64,192,141610,1,0,0:0:0:0:
192,192,141610,1,0,0:0:0:0:
448,192,141810,1,0,0:0:0:0:
192,192,141810,1,0,0:0:0:0:
192,192,142010,1,0,0:0:0:0:
448,192,142010,1,0,0:0:0:0:
64,192,142010,1,0,0:0:0:0:
320,192,142010,1,0,0:0:0:0:
64,192,142210,1,0,0:0:0:0:
320,192,142210,1,0,0:0:0:0:
64,192,142410,1,0,0:0:0:0:
320,192,142410,1,0,0:0:0:0:
448,192,142410,1,0,0:0:0:0:
192,192,142510,1,0,0:0:0:0:
320,192,142610,1,0,0:0:0:0:
448,192,142610,1,0,0:0:0:0:
192,192,142710,1,0,0:0:0:0:
64,192,142710,1,0,0:0:0:0:
320,192,142810,1,0,0:0:0:0:
448,192,142810,1,0,0:0:0:0:
192,192,142910,1,0,0:0:0:0:
64,192,142910,1,0,0:0:0:0:
320,192,143010,1,0,0:0:0:0:
448,192,143010,1,0,0:0:0:0:
192,192,143110,1,0,0:0:0:0:
64,192,143110,1,0,0:0:0:0:
320,192,143210,1,0,0:0:0:0:
448,192,143210,1,0,0:0:0:0:
192,192,143310,1,0,0:0:0:0:
64,192,143310,1,0,0:0:0:0:
320,192,143410,1,0,0:0:0:0:
448,192,143410,1,0,0:0:0:0:
192,192,143510,1,0,0:0:0:0:
64,192,143510,1,0,0:0:0:0:
320,192,143610,1,0,0:0:0:0:
448,192,143610,1,0,0:0:0:0:
192,192,143710,1,0,0:0:0:0:
64,192,143710,1,0,0:0:0:0:
320,192,143810,1,0,0:0:0:0:
448,192,143810,1,0,0:0:0:0:
192,192,143910,1,0,0:0:0:0:
64,192,143910,1,0,0:0:0:0:
320,192,144010,1,0,0:0:0:0:
448,192,144010,1,0,0:0:0:0:
64,192,144010,1,0,0:0:0:0:
192,192,144110,1,0,0:0:0:0:
320,192,144110,1,0,0:0:0:0:
64,192,144210,1,0,0:0:0:0:
448,192,144210,1,0,0:0:0:0:
192,192,144310,1,0,0:0:0:0:
320,192,144310,1,0,0:0:0:0:
64,192,144410,1,0,0:0:0:0:
448,192,144410,1,0,0:0:0:0:
192,192,144510,1,0,0:0:0:0:
320,192,144510,1,0,0:0:0:0:
64,192,144610,1,0,0:0:0:0:
448,192,144610,1,0,0:0:0:0:
192,192,144710,1,0,0:0:0:0:
320,192,144710,1,0,0:0:0:0:
64,192,144810,1,0,0:0:0:0:
448,192,144810,1,0,0:0:0:0:
192,192,144910,1,0,0:0:0:0:
320,192,144910,1,0,0:0:0:0:
64,192,145010,1,0,0:0:0:0:
448,192,145010,1,0,0:0:0:0:
192,192,145110,1,0,0:0:0:0:
320,192,145110,1,0,0:0:0:0:
64,192,145210,1,0,0:0:0:0:
448,192,145210,1,0,0:0:0:0:
192,192,145310,1,0,0:0:0:0:
320,192,145310,1,0,0:0:0:0:
64,192,145410,1,0,0:0:0:0:
448,192,145410,1,0,0:0:0:0:
192,192,145510,1,0,0:0:0:0:
320,192,145510,1,0,0:0:0:0:
64,192,145610,1,0,0:0:0:0:
192,192,145610,1,0,0:0:0:0:
448,192,145610,1,0,0:0:0:0:
320,192,145710,1,0,0:0:0:0:
448,192,145710,1,0,0:0:0:0:
192,192,145810,1,0,0:0:0:0:
64,192,145810,1,0,0:0:0:0:
320,192,145910,1,0,0:0:0:0:
448,192,145910,1,0,0:0:0:0:
192,192,146010,1,0,0:0:0:0:
64,192,146010,1,0,0:0:0:0:
320,192,146110,1,0,0:0:0:0:
448,192,146110,1,0,0:0:0:0:
192,192,146210,1,0,0:0:0:0:
64,192,146210,1,0,0:0:0:0:
320,192,146310,1,0,0:0:0:0:
448,192,146310,1,0,0:0:0:0:
192,192,146410,1,0,0:0:0:0:
64,192,146410,1,0,0:0:0:0:
320,192,146510,1,0,0:0:0:0:
448,192,146510,1,0,0:0:0:0:
192,192,146610,1,0,0:0:0:0:
64,192,146610,1,0,0:0:0:0:
320,192,146710,1,0,0:0:0:0:
448,192,146710,1,0,0:0:0:0:
192,192,146810,1,0,0:0:0:0:
64,192,146810,1,0,0:0:0:0:
448,192,146910,1,0,0:0:0:0:
320,192,146910,1,0,0:0:0:0:
192,192,147010,1,0,0:0:0:0:
64,192,147010,1,0,0:0:0:0:
320,192,147110,1,0,0:0:0:0:
448,192,147110,1,0,0:0:0:0:
192,192,147210,1,0,0:0:0:0:
64,192,147210,1,0,0:0:0:0:
320,192,147310,1,0,0:0:0:0:
448,192,147310,1,0,0:0:0:0:
192,192,147410,1,0,0:0:0:0:
64,192,147410,1,0,0:0:0:0:
320,192,147510,1,0,0:0:0:0:
448,192,147510,1,0,0:0:0:0:
192,192,147610,1,0,0:0:0:0:
64,192,147610,1,0,0:0:0:0:
320,192,147710,1,0,0:0:0:0:
448,192,147710,1,0,0:0:0:0:
192,192,147810,1,0,0:0:0:0:
64,192,147810,1,0,0:0:0:0:
320,192,147910,1,0,0:0:0:0:
448,192,147910,1,0,0:0:0:0:
192,192,148010,1,0,0:0:0:0:
64,192,148010,1,0,0:0:0:0:
320,192,148110,1,0,0:0:0:0:
448,192,148110,1,0,0:0:0:0:
192,192,148210,1,0,0:0:0:0:
64,192,148210,1,0,0:0:0:0:
320,192,148310,1,0,0:0:0:0:
448,192,148310,1,0,0:0:0:0:
192,192,148410,1,0,0:0:0:0:
64,192,148410,1,0,0:0:0:0:
320,192,148510,1,0,0:0:0:0:
448,192,148510,1,0,0:0:0:0:
192,192,148610,1,0,0:0:0:0:
64,192,148610,1,0,0:0:0:0:
320,192,148710,1,0,0:0:0:0:
448,192,148710,1,0,0:0:0:0:
192,192,148810,1,0,0:0:0:0:
64,192,148810,1,0,0:0:0:0:
448,192,148860,1,0,0:0:0:0:
320,192,148910,1,0,0:0:0:0:
64,192,148960,1,0,0:0:0:0:
192,192,149010,1,0,0:0:0:0:
448,192,149060,1,0,0:0:0:0:
320,192,149110,1,0,0:0:0:0:
64,192,149160,1,0,0:0:0:0:
192,192,149210,1,0,0:0:0:0:
448,192,149260,1,0,0:0:0:0:
320,192,149310,1,0,0:0:0:0:
64,192,149360,1,0,0:0:0:0:
192,192,149410,1,0,0:0:0:0:
448,192,149460,1,0,0:0:0:0:
320,192,149510,1,0,0:0:0:0:
64,192,149560,1,0,0:0:0:0:
192,192,149610,1,0,0:0:0:0:
448,192,149660,1,0,0:0:0:0:
320,192,149710,1,0,0:0:0:0:
64,192,149760,1,0,0:0:0:0:
192,192,149810,1,0,0:0:0:0:
448,192,149860,1,0,0:0:0:0:
320,192,149910,1,0,0:0:0:0:
64,192,149960,1,0,0:0:0:0:
192,192,150010,1,0,0:0:0:0:
448,192,150060,1,0,0:0:0:0:
320,192,150110,1,0,0:0:0:0:
64,192,150160,1,0,0:0:0:0:
192,192,150210,1,0,0:0:0:0:
448,192,150260,1,0,0:0:0:0:
320,192,150310,1,0,0:0:0:0:
64,192,150360,1,0,0:0:0:0:
192,192,150410,1,0,0:0:0:0:
320,192,150460,1,0,0:0:0:0:
448,192,150510,1,0,0:0:0:0:
192,192,150560,1,0,0:0:0:0:
64,192,150610,1,0,0:0:0:0:
320,192,150660,1,0,0:0:0:0:
448,192,150710,1,0,0:0:0:0:
192,192,150760,1,0,0:0:0:0:
64,192,150810,1,0,0:0:0:0:
320,192,150860,1,0,0:0:0:0:
448,192,150910,1,0,0:0:0:0:
192,192,150960,1,0,0:0:0:0:
64,192,151010,1,0,0:0:0:0:
320,192,151060,1,0,0:0:0:0:
448,192,151110,1,0,0:0:0:0:
192,192,151160,1,0,0:0:0:0:
64,192,151210,1,0,0:0:0:0:
320,192,151260,1,0,0:0:0:0:
448,192,151310,1,0,0:0:0:0:
192,192,151360,1,0,0:0:0:0:
64,192,151410,1,0,0:0:0:0:
320,192,151460,1,0,0:0:0:0:
448,192,151510,1,0,0:0:0:0:
192,192,151560,1,0,0:0:0:0:
64,192,151610,1,0,0:0:0:0:
448,192,151643,1,0,0:0:0:0:
320,192,151676,1,0,0:0:0:0:
192,192,151710,1,0,0:0:0:0:
64,192,151743,1,0,0:0:0:0:
448,192,151776,1,0,0:0:0:0:
320,192,151810,1,0,0:0:0:0:
192,192,151843,1,0,0:0:0:0:
64,192,151876,1,0,0:0:0:0:
448,192,151910,1,0,0:0:0:0:
320,192,151943,1,0,0:0:0:0:
192,192,151976,1,0,0:0:0:0:
64,192,152010,1,0,0:0:0:0:
448,192,152010,1,0,0:0:0:0:
64,192,154010,1,0,0:0:0:0:
448,192,154010,1,0,0:0:0:0:
192,192,154110,1,0,0:0:0:0:
320,192,154210,1,0,0:0:0:0:
448,192,154210,1,0,0:0:0:0:
192,192,154310,1,0,0:0:0:0:
64,192,154310,1,0,0:0:0:0:
320,192,154410,1,0,0:0:0:0:
448,192,154410,1,0,0:0:0:0:
192,192,154510,1,0,0:0:0:0:
64,192,154610,1,0,0:0:0:0:
320,192,154610,1,0,0:0:0:0:
192,192,154710,1,0,0:0:0:0:
320,192,154710,1,0,0:0:0:0:
448,192,154710,1,0,0:0:0:0:
64,192,154810,1,0,0:0:0:0:
192,192,154810,1,0,0:0:0:0:
320,192,154910,1,0,0:0:0:0:
448,192,154910,1,0,0:0:0:0:
320,192,155010,1,0,0:0:0:0:
448,192,155010,1,0,0:0:0:0:
64,192,155010,1,0,0:0:0:0:
192,192,155110,1,0,0:0:0:0:
64,192,155110,1,0,0:0:0:0:
192,192,155210,1,0,0:0:0:0:
320,192,155210,1,0,0:0:0:0:
448,192,155210,1,0,0:0:0:0:
64,192,155310,1,0,0:0:0:0:
448,192,155410,1,0,0:0:0:0:
64,192,155510,1,0,0:0:0:0:
192,192,155610,128,0,155810:0:0:0:0:
320,192,155610,128,0,155710:0:0:0:0:
448,192,155710,1,0,0:0:0:0:
64,192,155810,1,0,0:0:0:0:
448,192,155910,1,0,0:0:0:0:
320,192,155910,1,0,0:0:0:0:
448,192,156010,1,0,0:0:0:0:
64,192,156010,1,0,0:0:0:0:
192,192,156010,1,0,0:0:0:0:
320,192,156060,1,0,0:0:0:0:
192,192,156110,1,0,0:0:0:0:
64,192,156160,1,0,0:0:0:0:
448,192,156210,1,0,0:0:0:0:
320,192,156260,1,0,0:0:0:0:
192,192,156310,1,0,0:0:0:0:
64,192,156360,1,0,0:0:0:0:
448,192,156410,1,0,0:0:0:0:
320,192,156460,1,0,0:0:0:0:
192,192,156510,1,0,0:0:0:0:
64,192,156560,1,0,0:0:0:0:
448,192,156610,1,0,0:0:0:0:
320,192,156660,1,0,0:0:0:0:
192,192,156710,1,0,0:0:0:0:
64,192,156760,1,0,0:0:0:0:
448,192,156810,1,0,0:0:0:0:
320,192,156876,1,0,0:0:0:0:
192,192,156943,1,0,0:0:0:0:
64,192,157010,1,0,0:0:0:0:
448,192,157076,1,0,0:0:0:0:
320,192,157143,1,0,0:0:0:0:
192,192,157210,1,0,0:0:0:0:
64,192,157276,1,0,0:0:0:0:
448,192,157343,1,0,0:0:0:0:
320,192,157410,1,0,0:0:0:0:
192,192,157510,1,0,0:0:0:0:
64,192,157610,1,0,0:0:0:0:
320,192,157610,1,0,0:0:0:0:
448,192,157610,1,0,0:0:0:0:
192,192,157710,1,0,0:0:0:0:
320,192,157810,1,0,0:0:0:0:
192,192,157910,1,0,0:0:0:0:
64,192,158010,1,0,0:0:0:0:
448,192,158010,1,0,0:0:0:0:
448,192,158110,1,0,0:0:0:0:
320,192,158110,1,0,0:0:0:0:
192,192,158210,1,0,0:0:0:0:
64,192,158210,1,0,0:0:0:0:
192,192,158310,1,0,0:0:0:0:
320,192,158310,1,0,0:0:0:0:
64,192,158410,1,0,0:0:0:0:
448,192,158410,1,0,0:0:0:0:
320,192,158410,128,0,158610:0:0:0:0:
192,192,158610,1,0,0:0:0:0:
448,192,158710,1,0,0:0:0:0:
320,192,158810,128,0,158910:0:0:0:0:
192,192,158860,128,0,158960:0:0:0:0:
64,192,158910,128,0,159010:0:0:0:0:
448,192,159010,5,0,0:0:0:0:
320,192,159060,1,0,0:0:0:0:
192,192,159110,1,0,0:0:0:0:
64,192,159210,1,0,0:0:0:0:
448,192,159210,1,0,0:0:0:0:
320,192,159210,1,0,0:0:0:0:
192,192,159310,1,0,0:0:0:0:
448,192,159410,1,0,0:0:0:0:
320,192,159460,1,0,0:0:0:0:
192,192,159510,1,0,0:0:0:0:
448,192,159610,128,0,159710:0:0:0:0:
320,192,159660,128,0,159760:0:0:0:0:
192,192,159710,128,0,159810:0:0:0:0:
64,192,159810,1,0,0:0:0:0:
192,192,159860,1,0,0:0:0:0:
320,192,159910,1,0,0:0:0:0:
64,192,160010,1,0,0:0:0:0:
192,192,160010,1,0,0:0:0:0:
448,192,160010,1,0,0:0:0:0:
320,192,160060,1,0,0:0:0:0:
64,192,160110,1,0,0:0:0:0:
320,192,160160,1,0,0:0:0:0:
64,192,160210,1,0,0:0:0:0:
320,192,160260,1,0,0:0:0:0:
64,192,160310,1,0,0:0:0:0:
320,192,160360,1,0,0:0:0:0:
192,192,160410,1,0,0:0:0:0:
448,192,160510,128,0,160710:0:0:0:0:
320,192,160610,1,0,0:0:0:0:
192,192,160710,1,0,0:0:0:0:
64,192,160710,1,0,0:0:0:0:
192,192,160810,1,0,0:0:0:0:
320,192,160810,1,0,0:0:0:0:
448,192,160810,128,0,161010:0:0:0:0:
64,192,161010,128,0,161110:0:0:0:0:
192,192,161110,128,0,161210:0:0:0:0:
448,192,161110,128,0,161310:0:0:0:0:
64,192,161310,128,0,161410:0:0:0:0:
192,192,161410,128,0,161610:0:0:0:0:
448,192,161410,128,0,161510:0:0:0:0:
320,192,161610,128,0,161810:0:0:0:0:
448,192,161610,128,0,161810:0:0:0:0:
64,192,161610,128,0,161810:0:0:0:0:
192,192,161810,1,0,0:0:0:0:
64,192,162010,128,0,162110:0:0:0:0:
192,192,162060,128,0,162160:0:0:0:0:
320,192,162110,128,0,162210:0:0:0:0:
64,192,162210,1,0,0:0:0:0:
192,192,162260,1,0,0:0:0:0:
320,192,162310,1,0,0:0:0:0:
64,192,162410,1,0,0:0:0:0:
192,192,162410,1,0,0:0:0:0:
448,192,162410,1,0,0:0:0:0:
320,192,162510,1,0,0:0:0:0:
64,192,162610,1,0,0:0:0:0:
192,192,162660,1,0,0:0:0:0:
320,192,162710,1,0,0:0:0:0:
448,192,162810,128,0,162910:0:0:0:0:
320,192,162860,128,0,162960:0:0:0:0:
192,192,162910,128,0,163010:0:0:0:0:
448,192,163010,1,0,0:0:0:0:
320,192,163060,1,0,0:0:0:0:
192,192,163110,1,0,0:0:0:0:
64,192,163210,1,0,0:0:0:0:
320,192,163210,1,0,0:0:0:0:
192,192,163310,1,0,0:0:0:0:
448,192,163310,1,0,0:0:0:0:
320,192,163410,1,0,0:0:0:0:
192,192,163460,1,0,0:0:0:0:
64,192,163510,1,0,0:0:0:0:
448,192,163610,128,0,163710:0:0:0:0:
320,192,163660,128,0,163760:0:0:0:0:
192,192,163710,128,0,163810:0:0:0:0:
448,192,163810,1,0,0:0:0:0:
320,192,163860,1,0,0:0:0:0:
192,192,163910,1,0,0:0:0:0:
64,192,164010,1,0,0:0:0:0:
320,192,164010,1,0,0:0:0:0:
448,192,164010,1,0,0:0:0:0:
192,192,164110,1,0,0:0:0:0:
320,192,164210,1,0,0:0:0:0:
64,192,164310,1,0,0:0:0:0:
320,192,164410,1,0,0:0:0:0:
448,192,164460,1,0,0:0:0:0:
192,192,164510,1,0,0:0:0:0:
64,192,164560,1,0,0:0:0:0:
320,192,164610,1,0,0:0:0:0:
192,192,164660,1,0,0:0:0:0:
448,192,164710,1,0,0:0:0:0:
320,192,164760,1,0,0:0:0:0:
64,192,164810,128,0,165110:0:0:0:0:
192,192,164810,128,0,165010:0:0:0:0:
448,192,165010,1,0,0:0:0:0:
320,192,165110,1,0,0:0:0:0:
192,192,165210,128,0,165410:0:0:0:0:
320,192,165410,128,0,165510:0:0:0:0:
64,192,165460,128,0,165610:0:0:0:0:
192,192,165610,128,0,165710:0:0:0:0:
320,192,165610,128,0,165710:0:0:0:0:
448,192,165610,128,0,165810:0:0:0:0:
64,192,165810,128,0,165910:0:0:0:0:
192,192,165810,128,0,165910:0:0:0:0:
320,192,165810,128,0,165910:0:0:0:0:
448,192,166010,128,0,166310:0:0:0:0:
320,192,166060,128,0,166310:0:0:0:0:
192,192,166110,128,0,166310:0:0:0:0:
64,192,166160,128,0,166310:0:0:0:0:
64,192,166410,128,0,166510:0:0:0:0:
192,192,166410,128,0,166610:0:0:0:0:
320,192,166410,128,0,166710:0:0:0:0:
448,192,166410,128,0,166810:0:0:0:0:
64,192,166610,128,0,166910:0:0:0:0:
192,192,166710,128,0,166910:0:0:0:0:
320,192,166810,128,0,167010:0:0:0:0:
64,192,167010,128,0,167110:0:0:0:0:
192,192,167010,128,0,167110:0:0:0:0:
448,192,167010,128,0,167110:0:0:0:0:
192,192,167210,1,0,0:0:0:0:
448,192,167210,1,0,0:0:0:0:
64,192,167210,128,0,167410:0:0:0:0:
320,192,167310,128,0,167410:0:0:0:0:
192,192,167410,128,0,167610:0:0:0:0:
448,192,167410,128,0,167610:0:0:0:0:
320,192,167510,128,0,167610:0:0:0:0:
64,192,167610,128,0,167810:0:0:0:0:
448,192,167710,128,0,167910:0:0:0:0:
320,192,167810,128,0,168010:0:0:0:0:
448,192,168010,1,0,0:0:0:0:
64,192,168010,128,0,168210:0:0:0:0:
192,192,168010,128,0,168410:0:0:0:0:
320,192,168210,1,0,0:0:0:0:
448,192,168310,1,0,0:0:0:0:
320,192,168410,1,0,0:0:0:0:
64,192,168410,1,0,0:0:0:0:
192,192,168510,1,0,0:0:0:0:
64,192,168610,1,0,0:0:0:0:
448,192,168710,1,0,0:0:0:0:
320,192,168760,1,0,0:0:0:0:
192,192,168810,1,0,0:0:0:0:
64,192,168810,1,0,0:0:0:0:
320,192,168910,1,0,0:0:0:0:
192,192,168960,1,0,0:0:0:0:
64,192,169010,1,0,0:0:0:0:
448,192,169060,1,0,0:0:0:0:
320,192,169110,1,0,0:0:0:0:
192,192,169160,1,0,0:0:0:0:
64,192,169260,1,0,0:0:0:0:
192,192,169410,1,0,0:0:0:0:
320,192,169510,1,0,0:0:0:0:
192,192,169610,1,0,0:0:0:0:
64,192,169610,128,0,169910:0:0:0:0:
448,192,169610,128,0,169910:0:0:0:0:
320,192,169910,128,0,170010:0:0:0:0:
192,192,170010,128,0,170110:0:0:0:0:
64,192,170060,128,0,170160:0:0:0:0:
448,192,170110,128,0,170210:0:0:0:0:
192,192,170160,1,0,0:0:0:0:
64,192,170210,1,0,0:0:0:0:
448,192,170260,1,0,0:0:0:0:
192,192,170410,1,0,0:0:0:0:
320,192,170410,1,0,0:0:0:0:
64,192,170410,1,0,0:0:0:0:
448,192,170510,1,0,0:0:0:0:
192,192,170610,1,0,0:0:0:0:
64,192,170660,1,0,0:0:0:0:
448,192,170710,1,0,0:0:0:0:
192,192,170810,128,0,170910:0:0:0:0:
320,192,170810,128,0,170910:0:0:0:0:
64,192,171010,128,0,171110:0:0:0:0:
192,192,171010,128,0,171110:0:0:0:0:
320,192,171010,128,0,171110:0:0:0:0:
448,192,171010,128,0,171110:0:0:0:0:
192,192,171210,1,0,0:0:0:0:
320,192,171210,1,0,0:0:0:0:
448,192,171210,128,0,171410:0:0:0:0:
64,192,171210,128,0,171410:0:0:0:0:
320,192,171410,1,0,0:0:0:0:
192,192,171410,128,0,171610:0:0:0:0:
320,192,171610,128,0,171710:0:0:0:0:
448,192,171660,128,0,171760:0:0:0:0:
64,192,171710,128,0,171810:0:0:0:0:
320,192,171760,1,0,0:0:0:0:
448,192,171810,1,0,0:0:0:0:
64,192,171860,1,0,0:0:0:0:
192,192,172010,1,0,0:0:0:0:
320,192,172010,1,0,0:0:0:0:
448,192,172010,1,0,0:0:0:0:
64,192,172110,1,0,0:0:0:0:
320,192,172210,1,0,0:0:0:0:
448,192,172260,1,0,0:0:0:0:
64,192,172310,1,0,0:0:0:0:
320,192,172410,128,0,172510:0:0:0:0:
192,192,172460,128,0,172560:0:0:0:0:
448,192,172510,128,0,172610:0:0:0:0:
320,192,172560,1,0,0:0:0:0:
192,192,172610,1,0,0:0:0:0:
448,192,172660,1,0,0:0:0:0:
64,192,172810,1,0,0:0:0:0:
320,192,172810,1,0,0:0:0:0:
192,192,172810,1,0,0:0:0:0:
448,192,172860,1,0,0:0:0:0:
192,192,172910,1,0,0:0:0:0:
448,192,172960,1,0,0:0:0:0:
192,192,173010,1,0,0:0:0:0:
448,192,173060,1,0,0:0:0:0:
192,192,173110,1,0,0:0:0:0:
448,192,173160,1,0,0:0:0:0:
192,192,173210,1,0,0:0:0:0:
64,192,173310,128,0,173510:0:0:0:0:
192,192,173410,1,0,0:0:0:0:
448,192,173510,1,0,0:0:0:0:
320,192,173510,1,0,0:0:0:0:
320,192,173610,1,0,0:0:0:0:
192,192,173610,1,0,0:0:0:0:
64,192,173610,128,0,173810:0:0:0:0:
448,192,173810,128,0,173910:0:0:0:0:
320,192,173910,128,0,174010:0:0:0:0:
64,192,173910,128,0,174110:0:0:0:0:
448,192,174110,128,0,174210:0:0:0:0:
320,192,174210,128,0,174410:0:0:0:0:
64,192,174210,128,0,174310:0:0:0:0:
192,192,174410,128,0,174610:0:0:0:0:
64,192,174410,128,0,174610:0:0:0:0:
448,192,174410,128,0,174610:0:0:0:0:
320,192,174610,1,0,0:0:0:0:
64,192,174810,1,0,0:0:0:0:
320,192,174810,1,0,0:0:0:0:
448,192,174810,1,0,0:0:0:0:
192,192,174910,1,0,0:0:0:0:
320,192,175010,1,0,0:0:0:0:
192,192,175110,1,0,0:0:0:0:
64,192,175110,1,0,0:0:0:0:
320,192,175210,1,0,0:0:0:0:
192,192,175310,1,0,0:0:0:0:
320,192,175410,1,0,0:0:0:0:
448,192,175410,1,0,0:0:0:0:
192,192,175510,1,0,0:0:0:0:
64,192,175610,1,0,0:0:0:0:
448,192,175610,128,0,175910:0:0:0:0:
320,192,175610,128,0,175910:0:0:0:0:
64,192,175810,128,0,176010:0:0:0:0:
320,192,176010,1,0,0:0:0:0:
192,192,176010,1,0,0:0:0:0:
448,192,176010,128,0,176410:0:0:0:0:
192,192,176210,1,0,0:0:0:0:
64,192,176410,1,0,0:0:0:0:
192,192,176410,1,0,0:0:0:0:
320,192,176410,1,0,0:0:0:0:
448,192,176510,1,0,0:0:0:0:
64,192,176610,1,0,0:0:0:0:
448,192,176710,1,0,0:0:0:0:
320,192,176710,1,0,0:0:0:0:
64,192,176810,1,0,0:0:0:0:
448,192,176910,1,0,0:0:0:0:
192,192,177010,1,0,0:0:0:0:
64,192,177010,1,0,0:0:0:0:
448,192,177110,1,0,0:0:0:0:
64,192,177210,128,0,177510:0:0:0:0:
192,192,177210,128,0,177510:0:0:0:0:
320,192,177210,128,0,177510:0:0:0:0:
64,192,177610,128,0,177810:0:0:0:0:
192,192,177610,128,0,177810:0:0:0:0:
64,192,177910,128,0,178110:0:0:0:0:
64,192,178210,128,0,178410:0:0:0:0:
192,192,178210,128,0,178410:0:0:0:0:
320,192,178610,128,0,178810:0:0:0:0:
448,192,178610,128,0,178810:0:0:0:0:
448,192,178910,128,0,179110:0:0:0:0:
320,192,179210,128,0,179410:0:0:0:0:
192,192,179210,128,0,179410:0:0:0:0:
64,192,179210,128,0,179410:0:0:0:0:
192,192,179510,128,0,179710:0:0:0:0:
192,192,179810,128,0,180010:0:0:0:0:
320,192,179810,128,0,180010:0:0:0:0:
448,192,179810,128,0,180010:0:0:0:0:
64,192,180210,128,0,180410:0:0:0:0:
448,192,180210,128,0,180410:0:0:0:0:
320,192,180210,128,0,180410:0:0:0:0:
64,192,180510,128,0,180710:0:0:0:0:
448,192,180510,128,0,180710:0:0:0:0:
64,192,180810,1,0,0:0:0:0:
192,192,180810,1,0,0:0:0:0:
320,192,180810,1,0,0:0:0:0:
448,192,180810,1,0,0:0:0:0:
