osu file format v9

[General]
AudioFilename: scarlet heaven of Delays.mp3
AudioLeadIn: 0
PreviewTime: 95359
Countdown: 0
SampleSet: Soft
StackLeniency: 0.7
Mode: 0
LetterboxInBreaks: 0

[Editor]
DistanceSpacing: 1.2
BeatDivisor: 4
GridSize: 4

[Metadata]
Title:scarlet heaven of Delays
Artist:camellia
Creator:Shino
Version:Heaven
Source:Touhou
Tags:U.N. Owen was her Flandre Scarlet Underefined Dubstep OnosakiHito

[Difficulty]
HPDrainRate:7
CircleSize:4
OverallDifficulty:8
ApproachRate:8
SliderMultiplier:1.9998
SliderTickRate:1

[Events]
//Background and Video events
0,0,"heaven.jpg"
//Break Periods
2,81944,87589
2,109176,121841
2,163640,176304
2,245333,257999
//Storyboard Layer 0 (Background)
Sprite,Background,Centre,"effect\pastel.jpg",320,240 S,0,204295,,0.625 F,0,204295,204401,0,1 F,0,204401,231529,1 F,0,231529,231635,1,0
//Storyboard Layer 1 (Fail)
//Storyboard Layer 2 (Pass)
//Storyboard Layer 3 (Foreground)
Sprite,Foreground,TopLeft,"text\mapper.png",320,240 M,0,6848,,300,390 S,0,6848,,0.625 F,0,6848,8550,0,1 F,0,8550,10252,1 F,0,10252,11954,1,0
//Storyboard Sound Samples
//Background Colour Transformations
3,100,163,162,255

[TimingPoints]
50,425.491914893617,4,2,1,100,1,0
50683,-200,4,2,1,100,0,0
51109,-100,4,2,1,100,0,0
64299,-200,4,2,1,100,0,0
64725,-100,4,2,1,100,0,0
88339,-100,4,1,0,50,0,0
88658,-100,4,2,1,100,0,0
148919,-100,4,2,1,50,0,0
149025,-100,4,2,1,100,0,0
192159,-100,4,2,1,90,0,0
194074,-100,4,2,1,80,0,0
194925,-100,4,2,1,70,0,0
195776,-100,4,2,1,60,0,0
196627,-100,4,2,1,50,0,0
197478,-100,4,2,1,40,0,0
198329,-100,4,2,1,35,0,0
199180,-100,4,2,1,30,0,0
200031,-100,4,2,1,25,0,0
200882,-100,4,2,1,20,0,0
201733,-100,4,2,1,15,0,0
202584,-100,4,2,1,5,0,0
204286,-66.6666666666667,4,2,1,100,0,1
217795,-66.6666666666667,4,2,1,100,0,0
217902,-66.6666666666667,4,2,1,100,0,1
231517,-100,4,2,1,100,0,0
258749,-200,4,2,0,60,0,0
271514,-200,4,2,0,50,0,0
272365,-200,4,2,0,40,0,0
273216,-200,4,2,0,30,0,0
274067,-200,4,2,0,20,0,0
274918,-200,4,2,0,10,0,0
275769,-200,4,2,0,5,0,0

[Colours]
Combo1 : 80,45,65
Combo2 : 155,220,230

[HitObjects]
72,56,27281,2,0,L|24:120|40:200,1,149.985
72,336,27919,1,0
128,252,28132,1,8
412,296,28558,1,0
356,212,28770,1,8
156,60,29302,6,0,L|224:96|312:96,1,149.985
396,96,29834,1,8
316,156,30047,1,0
416,156,30260,1,0
336,216,30473,1,8
436,216,30686,37,0
412,324,30899,1,0
412,324,31005,2,0,B|292:324,1,99.99,0|8
288,324,31324,1,0
220,248,31537,1,8
140,308,31750,1,0
220,148,31962,1,0
140,208,32175,1,8
56,264,32388,6,0,B|56:104,2,149.985
140,308,33239,1,8
240,308,33452,1,0
340,308,33664,1,0
440,308,33877,1,0
440,208,34090,37,0
420,172,34232,1,0
392,144,34374,1,0
356,132,34516,1,0
316,144,34657,1,0
284,172,34799,1,0
268,208,34941,2,0,B|356:260,1,99.99,8|0
440,208,35367,2,0,B|352:260,1,99.99,0|8
352,360,35792,6,0,B|244:360,1,99.99
108,316,36111,2,0,B|152:212,1,99.99
156,200,36430,1,0
88,68,36643,2,0,B|200:68,1,99.99,8|0
432,144,37069,6,0,B|328:144,2,99.99
412,272,37813,1,0
268,312,38131,1,0
316,224,38343,5,8
316,224,38450,1,0
228,176,38662,1,0
228,176,38769,1,0
180,264,38982,1,8
136,176,39194,6,0,B|20:176,1,99.99
64,120,39514,2,0,B|168:120,1,99.99
196,68,39833,2,0,B|88:68,1,99.99,0|8
228,176,40258,2,0,B|332:176,1,99.99,0|8
412,120,40684,1,0
100,264,40897,5,4
124,264,41003,1,0
148,264,41109,1,0
148,300,41216,1,0
172,300,41322,1,0
196,300,41428,1,0
200,336,41535,1,0
224,336,41641,1,0
248,336,41748,2,0,B|352:336,2,99.99,8|0|0
460,320,42599,5,0
448,300,42705,1,0
436,280,42811,1,0
388,296,42918,1,0
376,276,43024,1,0
364,256,43130,1,0
316,268,43237,1,0
304,248,43343,1,0
292,228,43450,2,0,B|240:136,2,99.99,8|0|0
412,120,44301,37,0
388,120,44407,1,0
364,120,44513,1,0
364,84,44620,1,0
340,84,44726,1,0
316,84,44832,1,0
312,48,44939,1,0
288,48,45045,1,0
264,48,45152,2,0,B|160:48,2,99.99,8|0|0
52,64,46003,5,0
64,84,46109,1,0
76,104,46215,1,0
124,88,46322,1,0
136,108,46428,1,0
148,128,46534,1,0
196,116,46641,1,0
208,136,46747,1,0
220,156,46854,2,0,B|284:256,1,99.99,8|0
220,324,47279,2,0,B|156:224,1,99.99,0|8
272,240,47705,37,0
324,232,47847,1,0
376,244,47989,1,0
472,144,48131,1,0
420,152,48273,1,0
368,140,48415,1,0
428,232,48556,2,0,B|428:336,1,99.99,8|0
312,152,48982,2,0,B|312:48,1,99.99,0|8
216,136,49407,6,0,B|108:136,1,99.99
200,232,49726,2,0,B|200:340,1,99.99
200,356,50045,1,0
296,248,50258,2,0,B|408:248,1,99.99,8|0
216,136,50684,6,0,B|112:136,1,99.99,0|0
416,136,51428,1,0
156,292,51748,1,0
256,292,51960,6,0,B|304:292,1,49.995,8|0
456,292,52279,2,0,B|408:292,1,49.995,0|0
356,204,52599,1,8
456,116,52811,2,0,B|408:100,1,49.995,0|0
256,116,53130,2,0,B|304:100,1,49.995,0|0
224,40,53450,5,0
208,60,53556,1,0
192,80,53662,1,8
176,100,53769,1,0
160,120,53875,1,0
144,140,53981,1,8
128,160,54088,1,0
112,180,54195,1,0
96,200,54301,1,8
80,220,54407,1,0
64,240,54514,38,0,B|184:344,1,149.985,4|0
276,328,54939,2,0,B|156:224,1,149.985
256,216,55365,2,0,B|376:320,1,149.985,8|0
468,304,55790,2,0,B|348:200,1,149.985
468,80,56216,6,0,B|348:184,1,149.985
256,168,56640,2,0,B|376:64,1,149.985
276,56,57065,2,0,B|156:160,1,149.985,8|0
64,144,57491,2,0,B|184:40,1,149.985
8,40,57916,38,0,B|76:40,2,66.66
236,148,58341,2,0,B|168:148,2,66.66
8,248,58767,2,0,B|76:248,2,66.66,8|0|0
236,356,59192,2,0,B|168:356,2,66.66
504,356,59618,6,0,B|504:288,2,66.66
276,248,60043,2,0,B|276:320,2,66.66
504,148,60469,2,0,B|504:80,2,66.66,8|0|0
276,40,60894,2,0,B|276:112,2,66.66
380,128,61320,37,0
456,312,61533,1,0
456,312,61639,1,0
456,312,61746,2,0,B|348:312,1,99.99
280,128,62171,1,8
356,312,62384,1,0
356,312,62490,1,0
356,312,62597,2,0,B|248:312,1,99.99
132,128,63022,5,0
56,312,63235,1,0
56,312,63341,1,0
56,312,63448,2,0,B|164:312,1,99.99
232,128,63873,1,8
194,220,64086,1,0
156,312,64299,2,0,B|264:312,1,99.99
340,260,64937,38,0,B|284:296,1,49.995
256,312,65150,1,0
356,136,65363,2,0,B|300:172,1,49.995
272,188,65576,1,8
372,20,65788,2,0,B|316:56,1,49.995
288,72,66001,1,0
204,124,66214,1,8
104,128,66426,5,0
64,128,66568,1,0
24,128,66710,1,0
40,192,66852,1,0
64,224,66994,1,0
88,256,67136,1,0
52,312,67278,1,8
92,312,67420,1,0
132,312,67562,1,0
168,256,67704,1,8
192,224,67846,1,0
216,192,67988,1,0
300,244,68129,38,0,B|300:324,2,49.995,4|0|0
300,220,68448,1,0
300,196,68554,1,0
300,172,68660,1,0
300,148,68767,1,0
300,124,68873,1,0
300,100,68980,2,0,L|376:100|440:148,2,149.985,8|0|0
212,244,69831,6,0,B|212:324,2,49.995,0|0|0
212,220,70150,1,0
212,196,70256,1,0
212,172,70362,1,0
212,148,70469,1,0
212,124,70575,1,0
212,100,70682,2,0,L|136:100|72:148,2,149.985,8|0|0
300,56,71533,37,0
320,68,71639,1,0
340,84,71746,1,0
360,100,71852,1,0
380,116,71958,1,0
380,140,72065,1,0
380,164,72171,1,0
380,188,72277,1,0
380,212,72384,2,0,L|336:268|256:268,2,149.985,8|0|0
212,56,73235,5,0
192,68,73341,1,0
172,84,73448,1,0
152,100,73554,1,0
132,116,73660,1,0
132,140,73767,1,0
132,164,73873,1,0
132,188,73979,1,0
132,212,74086,2,0,L|160:256|212:256,1,99.99,8|0
8,256,74512,2,0,L|56:256|84:300,1,99.99,0|8
172,348,74937,38,0,B|276:348,1,99.99
196,280,75256,2,0,B|300:280,1,99.99
220,212,75575,2,0,B|324:212,1,99.99,0|8
400,272,76001,2,0,B|400:336,2,49.995
480,212,76426,1,8
480,112,76639,6,0,L|428:112|388:152|332:152|292:112|292:32,1,299.97,0|0
396,44,77490,1,8
480,112,77703,1,0
480,212,77916,2,0,B|480:320,2,99.99
392,268,78660,37,0
304,312,78979,2,0,B|304:204,1,99.99,0|8
392,164,79405,1,0
308,108,79618,1,0
224,164,79829,1,0
224,264,80041,6,0,L|172:264|136:296|84:296,1,149.985,0|0
56,224,80679,2,0,L|108:224|144:192,1,99.99,0|8
143,192,81034,5,0
143,192,81106,1,0
87,109,81248,1,0
87,109,81319,1,0
144,31,81461,1,0
232,62,81602,1,0
232,160,81744,1,0
360,296,88339,5,0
428,104,88552,1,0
428,104,88658,1,0
428,104,88765,1,0
428,104,88871,1,0
256,192,89084,1,0
256,192,89191,1,0
256,192,89297,1,0
84,104,89510,1,0
84,104,89617,1,0
84,104,89723,1,0
256,192,89935,1,0
256,192,90042,1,0
256,192,90148,1,0
152,296,90361,5,0
152,296,90467,1,0
152,296,90573,1,0
192,68,90786,1,0
192,68,90892,1,0
192,68,90998,1,0
360,296,91212,1,0
360,296,91318,1,0
360,296,91424,1,0
320,68,91637,1,0
320,68,91743,1,0
320,68,91849,1,0
92,192,92063,37,0
92,192,92169,1,0
92,192,92275,1,0
420,192,92489,1,0
420,192,92595,1,0
420,192,92701,1,0
136,320,92914,1,0
136,320,93020,1,0
136,320,93126,1,0
376,320,93339,1,0
376,320,93445,1,0
376,320,93551,1,0
256,192,93658,12,8,94510
256,320,94829,5,0
472,192,95361,38,0,B|468:152|448:120|412:104|376:120|356:152|352:192,2,199.98,4|0|8
440,288,96424,1,0
440,288,96531,1,0
348,328,96744,1,0
348,328,96850,1,0
284,252,97063,2,0,B|222:236|198:268|136:252,2,149.985
216,180,97914,2,0,B|278:164|302:196|364:180,2,149.985,8|0|0
288,112,98765,6,0,B|400:72,1,99.99
184,72,99190,2,0,B|296:32,1,99.99
126,170,99616,2,0,B|238:130,1,99.99,8|0
22,130,100041,2,0,B|134:90,1,99.99
64,184,100467,2,0,B|28:256|100:256|64:328,2,149.985
160,208,101318,1,8
160,208,101424,1,0
160,308,101637,1,0
160,308,101742,1,0
248,260,101954,1,0
320,192,102167,38,0,B|304:254|336:278|320:340,2,149.985,0|0|0
420,192,103018,2,0,B|436:130|404:106|420:44,2,149.985,8|0|0
368,280,103869,1,0
368,280,103976,1,0
256,104,104188,1,0
256,104,104295,1,0
144,280,104508,1,0
144,104,104720,5,8
144,104,104827,1,0
256,280,105039,1,0
256,280,105146,1,0
368,104,105359,1,0
416,192,105571,2,0,B|300:192,1,99.99
96,192,105997,2,0,B|212:192,1,99.99
292,120,106422,2,0,B|372:48,1,99.99,8|0
220,264,106848,2,0,B|140:336,1,99.99,0|0
256,192,107273,12,4,108976
212,124,122591,6,0,B|76:124,1,133.32
80,192,123016,2,0,B|216:192,1,133.32
212,260,123442,2,0,B|76:260,1,133.32,8|0
80,328,123867,2,0,B|216:328,1,133.32
300,260,124293,6,0,B|436:260,1,133.32
432,192,124718,2,0,B|296:192,1,133.32
300,124,125144,2,0,B|436:124,1,133.32,8|0
432,56,125569,2,0,B|296:56,1,133.32
212,56,125995,38,0,B|136:56,2,66.66,0|0|0
300,124,126420,2,0,B|376:124,2,66.66,0|0|0
192,192,126846,2,0,B|116:192,2,66.66,8|0|0
320,260,127271,2,0,B|396:260,2,66.66,0|0|0
172,328,127697,6,0,B|96:328,2,66.66,0|0|0
340,260,128122,2,0,B|420:260,2,66.66,0|0|0
152,192,128548,2,0,B|76:192,2,66.66,8|0|0
360,124,128973,2,0,B|432:124,2,66.66,0|0|0
132,56,129399,38,0,B|96:80|56:64,2,66.66,0|0|0
132,56,129825,2,0,B|123:98|83:115,2,66.66,0|0|0
132,56,130250,2,0,B|156:92|140:132,2,66.66,8|0|0
132,56,130676,2,0,B|174:64|191:104,2,66.66,0|0|0
380,56,131101,6,0,B|416:80|456:64,2,66.66,0|0|0
360,72,131527,2,0,B|369:114|409:131,2,66.66,0|0|0
332,76,131952,2,0,B|308:112|324:152,2,66.66,8|0|0
308,64,132378,2,0,B|266:72|249:112,2,66.66,0|0|0
380,328,132803,38,0,B|416:304|456:320,2,66.66,0|0|0
332,300,133229,2,0,B|341:258|381:241,2,66.66,0|0|0
280,312,133654,2,0,B|256:272|272:232,2,66.66,8|0|0
252,356,134080,2,0,B|210:348|193:308,2,66.66,0|0|0
132,328,134506,6,0,B|96:304|56:320,2,66.66,0|0|0
180,264,134932,2,0,B|171:222|131:205,2,66.66,0|0|0
260,256,135357,2,0,B|284:220|268:180,2,66.66,8|0|0
316,312,135783,2,0,B|358:304|375:264,2,66.66,0|0|0
260,256,136208,5,4
336,192,136420,1,0
336,192,136527,1,0
336,192,136633,2,0,B|392:192|416:132,1,99.99
320,96,137059,1,8
220,96,137271,2,0,B|156:96,1,49.995
252,152,137591,2,0,B|196:200,1,49.995,0|0
196,200,137803,1,0
96,220,137910,6,0,B|-4:260,1,99.99
164,272,138229,2,0,B|64:312,1,99.99
232,324,138548,2,0,B|132:364,1,99.99,0|8
356,352,138974,2,0,B|432:352,2,49.995
316,260,139399,1,0
416,260,139612,38,0,L|416:224|408:200|408:160,1,99.99,0|0
348,24,140037,2,0,L|348:60|340:84|340:124,1,99.99,0|0
280,260,140463,2,0,L|280:224|272:200|272:160,1,99.99,8|0
212,24,140888,2,0,L|212:60|204:84|204:124,1,99.99,0|8
142,192,141314,1,0
204,124,141527,1,0
80,124,141740,1,0
80,260,141952,1,0
204,260,142165,2,0,L|256:314|308:260,2,149.985,8|0|0
142,192,143016,6,0,B|244:192,1,99.99,0|0
268,192,143335,1,0
292,192,143442,1,0
360,120,143654,1,0
424,44,143867,2,0,B|322:44,1,99.99,8|0
298,44,144186,1,0
274,44,144293,1,0
248,44,144399,1,0
224,44,144504,1,0
160,120,144716,38,0,B|336:120,2,149.985
136,124,145461,1,0
112,136,145567,2,0,B|56:164|56:228,1,99.99,8|0
60,240,145887,1,0
68,264,145993,1,0
80,284,146099,1,0
96,304,146206,1,0
188,344,146418,6,0,B|172:244,1,99.99
324,344,146844,2,0,B|340:244,1,99.99
176,136,147269,2,0,B|76:120,1,99.99,8|0
336,136,147695,2,0,B|436:120,1,99.99,0|8
440,232,148121,2,0,B|256:373|72:232,2,399.96,0|8|0
88,44,150673,37,8
88,44,150780,1,8
88,144,150993,1,8
72,244,151206,1,0
76,268,151312,1,0
72,292,151418,1,0
64,316,151525,2,0,B|152:348|192:260,2,149.985,4|0|0
136,92,152376,2,0,B|224:60|264:148,2,149.985,8|0|0
164,180,153227,6,0,B|196:284,1,99.99
248,360,153652,2,0,B|280:256,1,99.99
348,336,154078,2,0,B|472:336,1,99.99,8|0
508,256,154504,2,0,B|376:256,1,99.99,0|8
328,192,154929,38,0,B|440:136,1,99.99
440,48,155355,2,0,B|328:104,1,99.99
256,136,155780,1,8
182,266,155993,1,0
182,266,156099,1,0
330,266,156312,1,0
330,266,156418,1,0
256,332,156631,6,0,B|308:332,2,49.995
156,332,157057,1,0
80,268,157269,1,0
80,168,157482,1,8
156,104,157695,2,0,B|156:44,2,49.995
256,104,158121,1,0
332,40,158333,38,0,L|404:40|472:84,2,149.985
384,124,159184,2,0,B|384:228,1,99.99,8|0
472,176,159610,2,0,B|472:280,1,99.99
384,328,160035,5,0
284,328,160248,1,0
344,248,160461,1,0
224,248,160674,1,0
304,168,160887,1,8
164,168,161099,1,0
264,88,161312,1,0
104,88,161525,1,0
256,192,161738,12,4,163440
380,96,177054,5,0
364,132,177196,1,0
348,168,177337,1,0
312,120,177479,1,0
296,156,177621,1,0
280,192,177764,1,0
244,144,177905,1,8
228,180,178048,1,0
212,216,178190,1,0
196,252,178332,1,0
128,324,178543,5,0
128,324,178650,1,0
128,324,178756,2,0,L|288:324,2,149.985
372,240,179607,2,0,B|412:200|472:220,1,99.99,8|0
371,240,180032,2,0,B|386:294|339:336,1,99.99,0|0
371,240,180458,2,0,B|317:225|304:163,1,99.99,0|0
296,72,180884,5,0
216,132,181096,1,0
232,232,181309,2,0,L|232:336,1,99.99,8|0
232,332,181735,1,0
140,300,181947,1,0
116,292,182054,1,0
92,284,182160,2,0,B|92:128,2,149.985
172,224,183011,2,0,B|256:170,1,99.99,8|0
316,248,183437,2,0,B|400:194,1,99.99,0|0
456,112,183862,5,0
416,112,184004,1,0
376,112,184146,1,0
348,84,184288,1,0
308,84,184430,1,0
268,84,184572,1,0
236,108,184713,1,8
196,108,184855,1,0
156,108,184997,1,0
116,108,185139,1,0
80,192,185352,5,0
80,192,185458,1,0
80,192,185564,2,0,B|132:300,1,99.99
160,192,185884,2,0,B|212:300,1,99.99
240,192,186203,2,0,B|292:300,1,99.99,0|8
376,320,186628,1,0
376,320,186735,1,0
376,320,186841,1,0
468,284,187054,1,0
428,192,187266,6,0,B|384:232|340:192,1,99.99,0|0
320,172,187586,1,0
304,152,187692,1,0
384,100,187904,1,0
368,80,188011,1,0
348,60,188116,2,0,B|304:20|260:60,1,99.99,8|0
240,80,188437,1,0
224,100,188543,1,0
304,152,188756,5,0
288,172,188863,1,0
268,192,188968,2,0,B|224:232|180:192,1,99.99,0|0
144,96,189288,2,0,B|96:188,1,99.99
16,128,189607,2,0,B|40:260,1,99.99,0|8
92,308,190032,1,0
116,308,190139,1,0
140,308,190245,1,0
164,308,190352,1,0
188,308,190458,1,0
280,344,190671,5,4
364,292,190884,1,0
364,292,190990,1,0
364,292,191096,1,0
280,236,191309,1,0
280,236,191415,1,0
280,236,191522,1,8
364,184,191735,1,0
364,184,191841,1,0
364,184,191947,1,0
448,236,192160,5,0
448,236,192266,1,0
448,236,192373,2,0,B|448:132,1,99.99
448,136,192692,2,0,B|388:56,1,99.99
388,56,193011,2,0,B|284:56,1,99.99,0|8
256,168,193437,1,0
256,192,193543,1,0
256,216,193649,1,0
224,328,193862,1,0
76,296,194075,6,0,B|76:192,2,99.99
148,220,194713,1,0
104,128,194926,2,0,B|208:128,2,99.99,8|0|0
172,56,195564,1,0
196,56,195671,1,0
220,56,195777,1,0
304,112,195990,6,0,B|336:176,1,49.995
428,160,196309,2,0,B|396:224,1,49.995
368,296,196628,1,8
348,308,196734,1,0
324,316,196840,1,0
300,320,196946,1,0
276,324,197053,1,0
252,324,197160,1,0
228,324,197266,1,0
204,320,197372,1,0
176,316,197478,5,0
152,308,197585,1,0
131,300,197691,1,0
109,287,197797,1,0
88,273,197904,1,0
71,254,198010,1,0
60,231,198117,1,0
53,206,198223,1,0
50,181,198329,1,8
54,156,198436,1,0
63,133,198542,1,0
76,111,198648,1,0
94,93,198755,1,0
115,80,198861,1,0
137,69,198968,1,0
161,62,199074,1,0
185,58,199180,5,0
210,56,199287,1,0
234,55,199393,1,0
259,56,199500,1,0
283,59,199606,1,0
307,65,199712,1,0
329,75,199819,1,0
349,88,199925,1,0
367,104,200031,1,0
382,123,200138,1,0
393,144,200244,1,0
397,168,200351,1,0
394,192,200457,1,0
384,214,200563,1,0
370,234,200670,1,0
350,250,200776,1,0
328,262,200883,6,0,B|270:278,1,49.995
255,280,201095,2,0,B|197:280,1,49.995
179,279,201308,2,0,B|122:265,1,49.995
109,252,201521,2,0,B|71:191,1,49.995
75,185,201734,2,0,B|82:122,1,49.995,8|0
87,111,201946,2,0,B|132:63,1,49.995
144,65,202159,2,0,B|211:39,1,49.995
215,45,202372,2,0,B|278:45,1,49.995
256,192,202585,12,0,203435
100,132,204286,6,0,B|252:132,1,149.984995530099,4|0
380,56,204711,1,8
348,204,204924,1,0
348,204,205030,1,0
478,128,205243,1,0
478,128,205350,1,0
424,268,205562,2,0,B|364:332|272:280,1,149.984995530099,8|0
212,276,205988,38,0,L|140:240|104:172,1,149.984995530099
144,112,206307,1,0
208,88,206413,1,8
272,112,206520,1,0
296,176,206626,1,0
272,240,206732,1,0
212,276,206839,2,0,B|203:363|115:372,1,149.984995530099
140,260,207264,2,0,B|72:316|4:260,1,149.984995530099,8|0
108,172,207690,6,0,B|92:88|184:28|256:76,1,224.977493295148
255,75,208115,1,8
392,76,208328,2,0,B|400:160,1,74.9924977650494
404,212,208541,6,0,B|420:296|328:356|256:308,1,224.977493295148
257,309,208966,1,8
120,308,209179,1,0
76,248,209392,5,0
48,224,209498,1,0
40,188,209605,1,0
52,152,209711,1,0
84,132,209817,1,8
120,132,209924,1,0
152,152,210030,1,0
164,188,210136,1,0
160,224,210243,5,0
168,280,210349,1,0
208,320,210456,1,8
264,332,210562,1,0
320,320,210668,1,8
360,280,210775,1,0
376,228,210881,1,0
376,172,210987,1,8
356,120,211094,6,8,B|256:112|272:24,1,149.984995530099,0|0
344,48,211519,2,0,B|212:152,1,149.984995530099,8|0
156,264,211945,2,8,B|256:272|240:360,1,149.984995530099,0|0
168,336,212370,2,0,B|300:232,1,149.984995530099,8|0
340,192,212796,6,0,B|424:180,2,74.9924977650494
172,192,213221,2,0,B|88:180,2,74.9924977650494,8|0|0
368,104,213647,1,0
144,104,213859,1,0
184,8,214072,2,0,L|256:28|328:8,1,149.984995530099,8|0
428,40,214498,5,0
448,144,214710,1,0
356,192,214923,1,8
346,244,215030,1,0
336,296,215136,1,0
256,224,215349,1,0
156,192,215561,1,0
166,244,215668,1,0
176,296,215774,1,8
64,144,215987,1,0
84,40,216200,5,8
428,40,216412,1,8
148,124,216625,1,8
364,124,216838,1,8
200,228,217051,5,0
176,284,217157,1,0
200,340,217263,1,8
256,364,217370,1,0
312,340,217477,1,8
336,284,217583,1,0
312,228,217689,1,0
256,120,217902,6,0,B|280:44,1,74.9924977650494,4|0
200,146,218114,2,0,B|156:80,1,74.9924977650494
185,208,218327,2,0,B|106:201,1,74.9924977650494,8|0
224,256,218540,2,0,B|169:314,1,74.9924977650494
287,256,218753,2,0,B|299:335,1,74.9924977650494
326,208,218965,2,0,B|394:248,1,74.9924977650494
311,146,219178,2,0,B|386:117,2,74.9924977650494,8|0|0
428,164,219604,5,0
444,220,219710,1,0
440,280,219816,1,0
404,328,219923,1,0
344,340,220029,1,8
284,324,220135,1,0
256,268,220242,2,0,B|256:120,1,149.984995530099
228,60,220561,1,0
168,44,220667,1,8
108,56,220774,1,0
72,104,220880,1,8
68,164,220986,1,0
84,220,221093,1,0
32,328,221306,6,0,B|120:344,2,74.9924977650494
180,328,221731,2,0,B|268:344,2,74.9924977650494,8|0|0
328,328,222157,1,0
368,312,222263,1,0
400,280,222369,1,8
408,236,222476,1,0
404,192,222582,1,8
256,88,222795,1,8
108,192,223008,6,0,B|112:216|140:228|168:232|196:228|224:216|228:192,1,149.984995530099,0|0
404,192,223433,2,0,B|400:168|372:156|344:152|316:156|288:168|284:192,1,149.984995530099,8|0
168,140,223859,2,0,B|164:116|136:104|108:100|80:104|52:116|48:140,1,149.984995530099,0|0
344,244,224284,2,0,B|348:268|376:280|404:284|432:280|460:268|464:244,1,149.984995530099,8|0
464,152,224709,5,0
436,116,224816,1,0
328,172,225029,1,0
304,208,225135,1,8
256,104,225348,1,0
216,84,225454,1,0
124,160,225667,1,0
84,180,225773,1,0
140,284,225986,2,0,B|208:340,2,74.9924977650494,8|0|0
216,192,226411,5,0
216,192,226518,1,0
332,56,226731,1,0
332,56,226837,1,8
332,236,227050,1,0
332,236,227156,1,0
216,96,227369,1,8
216,96,227475,1,0
388,149,227688,2,0,B|468:149,2,74.9924977650494,8|0|0
256,192,228113,12,8,231092
472,232,231517,38,0,B|468:272|448:304|412:320|376:304|356:272|352:232,1,199.98,4|8
380,192,232155,1,0
412,152,232368,2,0,B|408:112|388:80|352:64|316:80|296:112|292:152,1,199.98,0|8
212,92,233219,2,0,B|92:92,1,99.99
44,164,233644,2,0,B|164:164,1,99.99,8|0
212,236,234070,2,0,B|92:236,1,99.99
44,308,234495,2,0,B|164:308,1,99.99,8|0
240,332,234921,5,0
340,348,235134,1,0
432,312,235347,1,8
468,220,235559,1,0
432,128,235772,1,0
340,92,235985,1,0
240,108,236198,1,8
152,156,236410,1,0
228,220,236623,2,0,B|348:220,2,99.99,0|0|8
152,284,237261,1,0
152,284,237368,1,0
152,284,237473,1,0
64,336,237687,2,0,B|64:224,1,99.99,0|8
172,68,238325,5,0
172,68,238432,1,0
172,68,238538,1,0
172,68,238644,1,0
172,68,238751,2,0,B|280:92,1,99.99,8|0
408,148,239176,1,0
408,148,239283,1,0
408,148,239389,1,0
408,148,239495,1,0
408,148,239602,2,0,B|300:172,1,99.99,8|0
188,256,240027,5,0
240,344,240240,2,0,B|276:296,2,49.995,0|0|8
392,344,240666,2,0,B|356:296,2,49.995
444,256,241091,1,0
368,192,241304,2,0,B|248:192,1,99.99,8|0
168,192,241730,5,0
256,104,241942,1,0
344,192,242155,1,8
256,280,242368,1,0
128,164,242581,1,0
284,64,242793,1,0
384,220,243006,1,8
228,320,243218,1,0
256,192,243432,12,4,245133
112,144,258749,6,0,B|216:144,1,99.99,0|2
400,144,259599,2,0,B|292:144,1,99.99,0|2
196,252,260450,2,0,B|160:296|196:344,1,99.99,0|2
256,296,261088,1,0
316,344,261301,2,0,B|352:300|316:252,1,99.99,0|2
428,160,262152,6,0,L|472:136|472:76,1,99.99,0|2
428,24,262790,1,0
360,56,263003,2,0,L|316:80|316:140,1,99.99,0|2
360,192,263641,1,0
396,256,263854,2,0,B|444:256,2,49.995,0|0|2
360,320,264493,1,0
324,256,264705,1,0
400,240,265556,6,0,B|296:240,1,99.99,0|2
112,240,266407,2,0,B|220:240,1,99.99,0|2
316,132,267259,2,0,B|352:88|316:40,1,99.99,0|2
256,88,267897,1,0
196,40,268110,2,0,B|160:84|196:132,1,99.99,0|2
84,224,268960,6,0,L|40:248|40:308,1,99.99,0|2
84,360,269598,1,0
152,328,269811,2,0,L|196:304|196:244,1,99.99,2|2
152,192,270449,1,0
256,192,270663,12,0,275981
