osu file format v12

[General]
AudioFilename: tearrain.mp3
AudioLeadIn: 0
PreviewTime: 150851
Countdown: 0
SampleSet: Soft
StackLeniency: 0.7
Mode: 0
LetterboxInBreaks: 1
WidescreenStoryboard: 1

[Editor]
Bookmarks: 75851,120851,128351,135851,150851,195851,242726
DistanceSpacing: 1.4
BeatDivisor: 4
GridSize: 4

[Metadata]
Title:Tear Rain
TitleUnicode:Tear Rain
Artist:cYsmix feat. Emmy
ArtistUnicode:cYsmix feat. えみぃ
Creator:grumd
Version:Insane
Source:Touhou
Tags:Amateras Records Mizuyosi Radical Destruction 魔法少女達の百年祭 The Centennial Festival for Magical Girls 東方紅魔郷 ~ the Embodiment of Scarlet Devil Extra stage theme monthly beatmapping contest two
BeatmapID:351513
BeatmapSetID:140805

[Difficulty]
HPDrainRate:7
CircleSize:4
OverallDifficulty:8
ApproachRate:8
SliderMultiplier:1.6
SliderTickRate:1

[Events]
//Background and Video events
0,0,"583759-1366x768.jpg",0,0
//Break Periods
2,121051,127601
//Storyboard Layer 0 (Background)
//Storyboard Layer 1 (Fail)
//Storyboard Layer 2 (Pass)
//Storyboard Layer 3 (Foreground)
//Storyboard Sound Samples
//Background Colour Transformations
3,100,163,162,255

[TimingPoints]
851,468.75,4,2,0,40,1,0
8351,-100,4,2,0,50,0,0
12101,-95.2380952380952,4,2,0,70,0,0
15851,-90.9090909090909,4,2,0,70,0,0
17726,-111.111111111111,4,2,0,70,0,0
18311,-90.9090909090909,4,2,0,60,0,0
23351,-83.3333333333333,4,2,0,70,0,0
23761,-90.9090909090909,4,2,0,70,0,0
25226,-90.9090909090909,4,2,0,60,0,0
30851,-90.9090909090909,4,2,0,75,0,1
45382,-90.9090909090909,4,2,0,40,0,0
45851,-133.333333333333,4,2,0,50,0,0
60851,-100,4,2,0,60,0,0
76905,-83.3333333333333,4,2,0,70,0,0
77257,-71.4285714285714,4,2,0,75,0,1
77608,-83.3333333333333,4,2,0,75,0,1
83116,-83.3333333333333,4,2,0,50,0,1
83351,-83.3333333333333,4,2,0,75,0,1
96944,-83.3333333333333,4,2,0,70,0,0
98351,-71.4285714285714,4,2,0,70,0,1
98819,-83.3333333333333,4,2,0,70,0,1
105382,-83.3333333333333,4,2,0,70,0,1
105851,-90.9090909090909,4,2,0,50,0,0
120851,-90.9090909090909,4,2,0,20,0,0
128351,-100,4,2,0,50,0,0
134444,-100,4,2,0,35,0,0
134913,-100,4,2,0,70,0,0
135851,-90.9090909090909,4,2,0,70,0,0
143351,-83.3333333333333,4,2,0,70,0,0
149913,-83.3333333333333,4,2,0,70,0,0
150851,-76.9230769230769,4,2,0,70,0,1
151085,-83.3333333333333,4,2,0,70,0,1
165382,-83.3333333333333,4,2,0,50,0,0
165851,-100,4,2,0,60,0,0
180851,-100,4,2,0,50,0,0
195851,-83.3333333333333,4,2,0,70,0,0
225851,-90.9090909090909,4,2,0,60,0,0
226319,-100,4,2,0,50,0,0
226788,-111.111111111111,4,2,0,40,0,0
227257,-111.111111111111,4,2,0,30,0,0
227726,-125,4,2,0,50,0,0
229601,-125,4,2,0,45,0,0
231476,-125,4,2,0,40,0,0
233351,-125,4,2,0,35,0,0
235226,-125,4,2,0,30,0,0
237101,-125,4,2,0,25,0,0

[Colours]
Combo1 : 168,139,222
Combo2 : 105,200,231
Combo3 : 75,94,197
Combo4 : 125,193,180

[HitObjects]
243,215,851,2,0,P|237:172|221:134,1,80,4|0,0:3|0:0,0:0:0:0:
146,95,1319,1,4,0:3:0:0:
66,132,1554,1,0,0:0:0:0:
18,205,1788,2,0,P|39:302|96:324,1,160,4|4,0:3|0:3,0:0:0:0:
171,297,2491,1,0,0:0:0:0:
259,297,2726,6,0,P|299:310|331:333,1,80,4|0,0:3|0:0,0:0:0:0:
466,238,3194,2,0,P|434:253|390:259,1,80,4|0,0:3|0:0,0:0:0:0:
247,201,3663,2,0,P|287:188|326:186,1,80,4|0,0:3|0:0,0:0:0:0:
462,129,4132,2,0,P|419:124|382:107,1,80,4|0,0:3|0:0,0:0:0:0:
322,47,4601,5,2,0:0:0:0:
237,71,4835,1,0,0:0:0:0:
261,155,5069,1,2,0:0:0:0:
175,132,5304,1,0,0:0:0:0:
200,216,5538,1,2,0:0:0:0:
117,245,5772,1,0,0:0:0:0:
84,160,6007,2,0,P|49:146|6:148,1,80,2|0,0:0|0:0,0:0:0:0:
34,233,6476,5,2,0:0:0:0:
88,164,6710,1,0,0:0:0:0:
174,181,6944,1,2,0:0:0:0:
148,96,7179,1,0,0:0:0:0:
233,115,7413,1,2,0:0:0:0:
253,29,7647,1,0,0:0:0:0:
313,92,7882,2,0,P|314:137|292:175,1,80,2|2,0:0|0:0,0:0:0:0:
341,244,8351,5,4,0:3:0:0:
368,252,8468,1,0,0:0:0:0:
390,266,8585,1,0,0:0:0:0:
330,328,8819,1,8,0:0:0:0:
244,349,9054,1,0,0:0:0:0:
119,242,9288,1,4,0:3:0:0:
205,263,9522,1,2,0:0:0:0:
275,210,9757,2,0,B|265:171|265:171|267:131,1,80,10|0,0:0|0:0,0:0:0:0:
331,71,10226,5,4,0:3:0:0:
358,65,10343,1,0,0:0:0:0:
383,52,10460,1,0,0:0:0:0:
458,96,10694,1,8,0:0:0:0:
490,178,10929,1,0,0:0:0:0:
370,299,11163,1,4,0:3:0:0:
402,217,11397,1,2,0:0:0:0:
290,119,11632,2,0,B|301:157|301:157|297:198,1,80,10|0,0:0|0:0,0:0:0:0:
187,307,12101,6,0,B|196:245|196:245|166:173,1,125.999996154785,4|0,1:3|0:0,0:0:0:0:
95,158,12569,2,0,B|159:153|159:153|216:111,1,125.999996154785,8|0,1:2|0:0,0:0:0:0:
286,76,13038,2,0,B|223:80|223:80|165:42,1,125.999996154785,0|0,1:0|0:0,0:0:0:0:
85,58,13507,1,4,1:3:0:0:
65,86,13624,1,0,0:0:0:0:
60,120,13741,1,2,0:0:0:0:
68,153,13858,1,2,0:0:0:0:
90,180,13976,6,0,B|145:210|145:210|212:216,1,125.999996154785,4|0,1:3|0:0,0:0:0:0:
288,183,14444,2,0,P|301:164|310:144,1,41.9999987182618,4|0,0:3|0:0,0:0:0:0:
327,257,14679,1,2,0:0:0:0:
162,347,14913,1,2,0:3:0:0:
54,195,15147,1,0,0:0:0:0:
54,195,15265,1,2,0:3:0:0:
54,195,15382,2,0,L|61:146,1,41.9999987182618,2|0,1:3|0:0,0:0:0:0:
156,107,15616,2,0,L|166:153,1,41.9999987182618,8|0,0:3|0:0,0:0:0:0:
246,210,15851,6,0,P|299:164|370:152,1,132.00000402832,4|0,1:1|0:0,0:0:0:0:
431,188,16319,2,0,P|437:213|436:237,1,44.0000013427735,4|2,0:3|0:0,0:0:0:0:
461,115,16554,2,0,P|458:68|467:27,1,88.000002685547,8|4,0:3|0:3,0:0:0:0:
363,246,17022,1,2,0:0:0:0:
279,126,17257,2,0,P|230:115|181:119,1,88.000002685547,4|2,0:3|0:0,0:0:0:0:
159,127,17608,1,0,0:0:0:0:
130,147,17726,6,0,B|106:174|106:174|94:209|94:209|95:245|95:245|113:278,1,143.999995605469,4|4,0:3|0:3,0:0:0:0:
205,311,18429,1,0,0:2:0:0:
237,296,18546,1,0,0:2:0:0:
263,272,18663,2,0,P|273:251|276:222,1,44.0000013427735,4|0,0:3|0:0,0:0:0:0:
336,318,18897,2,0,P|341:340|350:361,1,44.0000013427735,0|0,0:0|0:0,0:0:0:0:
401,261,19132,2,0,B|414:214|414:214|408:167,1,88.000002685547,12|8,1:3|0:3,0:0:0:0:
337,91,19601,6,0,B|301:119|255:112|255:112|210:90|196:44,1,176.000005371094,4|4,1:3|0:3,0:0:0:0:
108,183,20304,2,0,P|97:164|82:148,1,44.0000013427735,0|2,0:0|0:0,0:0:0:0:
171,226,20538,2,0,B|176:271|176:271|199:315,1,88.000002685547,12|0,0:3|0:0,0:0:0:0:
290,329,21007,1,4,0:3:0:0:
376,286,21241,1,0,0:0:0:0:
414,196,21476,6,0,B|388:178|388:178|370:147|370:147|370:112|370:112|384:80,1,132.00000402832,12|0,0:3|0:0,0:0:0:0:
400,48,21944,2,0,B|357:64|357:64|314:62,1,88.000002685547,4|0,0:3|0:0,0:0:0:0:
231,120,22413,2,0,B|222:166,1,44.0000013427735,4|0,0:3|0:0,0:0:0:0:
256,232,22647,1,2,0:2:0:0:
370,134,22882,1,10,0:3:0:0:
433,301,23116,5,0,0:0:0:0:
433,301,23233,1,0,0:0:0:0:
433,301,23351,2,0,P|358:343|289:334,1,143.999995605469,4|0,1:1|0:0,0:0:0:0:
238,290,23819,2,0,L|228:243,1,44.0000013427735,4|0,0:3|0:0,0:0:0:0:
166,196,24054,1,2,0:2:0:0:
310,139,24288,1,4,0:3:0:0:
181,58,24522,2,0,B|136:69|136:69|88:66,1,88.000002685547,2|4,0:0|0:3,0:0:0:0:
37,192,24991,1,0,0:0:0:0:
45,226,25108,1,0,0:0:0:0:
62,257,25226,6,0,B|78:275|78:275|99:289|99:289|126:293|126:293|154:290|154:290|181:276,1,132.00000402832,4|0,0:3|0:0,0:0:0:0:
205,253,25694,2,0,B|242:227|242:227|285:215,1,88.000002685547,4|0,0:3|0:2,0:0:0:0:
318,215,26046,1,0,0:2:0:0:
350,227,26163,2,0,L|365:287,1,44.0000013427735,4|0,0:3|0:0,0:0:0:0:
424,183,26397,2,0,L|433:138,1,44.0000013427735,0|0,0:0|0:0,0:0:0:0:
479,242,26632,1,4,0:3:0:0:
395,70,26866,1,8,0:3:0:0:
313,141,27101,6,0,B|274:164|229:157|229:157|190:130|186:81,1,176.000005371094,4|4,0:3|0:3,0:0:0:0:
35,167,27804,2,0,L|30:211,1,44.0000013427735,0|0,0:0|0:0,0:0:0:0:
80,99,28038,2,0,L|60:11,1,88.000002685547,12|0,0:3|0:0,0:0:0:0:
152,209,28507,2,0,L|135:313,1,88.000002685547,4|0,0:3|0:0,0:0:0:0:
250,138,28976,6,0,P|345:134|379:114,1,132.00000402832,4|0,0:3|0:0,0:0:0:0:
399,90,29444,1,2,0:2:0:0:
436,275,29679,1,2,0:2:0:0:
423,70,29913,2,0,L|434:20,1,44.0000013427735,4|2,0:3|0:0,0:0:0:0:
466,142,30147,1,0,0:0:0:0:
267,67,30382,2,0,P|239:70|215:80,1,44.0000013427735,4|0,1:3|0:0,0:0:0:0:
302,159,30616,2,0,P|325:166|350:168,1,44.0000013427735,4|0,0:3|0:0,0:0:0:0:
235,233,30851,6,0,P|195:252|149:258,1,88.000002685547,4|2,1:1|0:0,0:0:0:0:
37,192,31319,1,4,0:3:0:0:
113,130,31554,1,2,0:0:0:0:
98,34,31788,2,0,P|168:66|231:60,1,132.00000402832,2|0,0:0|0:0,0:0:0:0:
252,45,32257,2,0,L|263:2,1,44.0000013427735,4|0,0:3|0:0,0:0:0:0:
307,108,32491,1,2,0:0:0:0:
317,141,32608,1,2,0:0:0:0:
320,176,32726,6,0,P|268:239|266:298,1,132.00000402832,4|0,0:3|0:0,0:0:0:0:
279,318,33194,2,0,P|325:323|368:343,1,88.000002685547,4|2,0:3|0:0,0:0:0:0:
432,311,33546,2,0,L|445:267,1,44.0000013427735,2|4,0:0|0:3,0:0:0:0:
415,201,33780,2,0,L|407:169,2,22.0000006713867,0|0|0,0:0|0:0|0:0,0:0:0:0:
357,248,34015,1,2,0:0:0:0:
297,203,34132,2,0,L|317:104,1,88.000002685547,4|2,0:3|0:0,0:0:0:0:
209,35,34601,6,0,P|169:57|125:66,1,88.000002685547,4|0,1:1|0:0,0:0:0:0:
92,65,34952,1,0,0:0:0:0:
57,57,35069,1,8,0:3:0:0:
48,205,35304,2,0,L|59:159,1,44.0000013427735,2|0,0:0|0:3,0:0:0:0:
113,259,35538,2,0,B|126:302|126:302|121:352,1,88.000002685547,4|2,0:3|0:0,0:0:0:0:
209,211,36007,2,0,B|195:167|195:167|201:118,1,88.000002685547,4|2,0:3|0:0,0:0:0:0:
316,257,36476,6,0,P|376:266|445:228,1,132.00000402832,2|2,1:2|0:0,0:0:0:0:
401,164,36944,2,0,P|356:160|316:132,1,88.000002685547,4|0,0:3|0:0,0:0:0:0:
217,51,37413,2,0,P|196:44|174:43,1,44.0000013427735,2|0,0:0|0:0,0:0:0:0:
109,98,37647,1,12,0:3:0:0:
134,262,37882,1,4,0:1:0:0:
188,153,38116,5,0,0:0:0:0:
188,153,38233,1,0,0:0:0:0:
188,153,38351,2,0,P|260:158|317:112,1,132.00000402832,4|0,1:1|0:0,0:0:0:0:
322,42,38819,2,0,P|303:30|277:24,1,44.0000013427735,4|0,0:3|0:0,0:0:0:0:
390,98,39054,2,0,P|437:89|475:63,1,88.000002685547,2|2,0:0|0:0,0:0:0:0:
347,198,39522,2,0,P|392:213|438:210,1,88.000002685547,0|4,0:0|0:3,0:0:0:0:
259,265,39991,2,0,P|266:289|281:311,1,44.0000013427735,2|2,0:0|0:0,0:0:0:0:
188,207,40226,6,0,P|223:161|227:82,1,132.00000402832,4|0,0:3|0:0,0:0:0:0:
156,42,40694,2,0,L|101:51,1,44.0000013427735,4|0,0:3|0:0,0:0:0:0:
23,148,40929,2,0,L|72:157,1,44.0000013427735,2|2,0:0|0:0,0:0:0:0:
105,223,41163,1,4,0:3:0:0:
67,290,41280,2,0,L|36:300,2,22.0000006713867,0|0|2,0:0|0:0|0:0,0:0:0:0:
131,331,41515,1,2,0:0:0:0:
197,293,41632,2,0,B|239:283|239:283|285:289,1,88.000002685547,4|0,0:3|0:0,0:0:0:0:
436,335,42101,6,0,P|393:275|399:206,1,132.00000402832,4|2,1:1|0:0,0:0:0:0:
418,194,42569,2,0,P|441:187|459:176,1,44.0000013427735,4|0,0:3|0:0,0:0:0:0:
349,116,42804,2,0,P|326:123|308:134,1,44.0000013427735,2|2,0:0|0:0,0:0:0:0:
418,194,43038,1,12,0:3:0:0:
335,25,43272,1,2,0:0:0:0:
265,217,43507,2,0,P|211:217|172:199,1,88.000002685547,12|2,0:3|0:0,0:0:0:0:
103,65,43976,6,0,P|151:39|229:43,1,132.00000402832,2|0,1:2|0:0,0:0:0:0:
252,116,44444,2,0,P|228:155|223:204,1,88.000002685547,12|0,0:3|0:0,0:0:0:0:
389,338,44913,2,0,P|401:273|361:204,1,132.00000402832,4|0,0:3|0:0,0:0:0:0:
302,186,45382,1,8,0:0:0:0:
81,278,45851,6,0,L|88:342,1,60.0000022888184,2|0,0:0|0:0,0:0:0:0:
171,238,46319,2,0,L|166:304,1,60.0000022888184,2|0,0:0|0:0,0:0:0:0:
239,187,46788,2,0,L|221:67,1,120.000004577637,2|2,0:0|0:0,0:0:0:0:
153,33,47491,1,0,0:0:0:0:
96,83,47726,6,0,L|87:149,1,60.0000022888184,2|0,0:0|0:0,0:0:0:0:
143,196,48194,2,0,L|159:326,2,120.000004577637,2|2|0,0:0|0:0|0:0,0:0:0:0:
188,132,49366,1,0,0:0:0:0:
250,85,49601,6,0,L|259:22,1,60.0000022888184,2|0,0:0|0:0,0:0:0:0:
334,131,50069,2,0,L|326:67,1,60.0000022888184,2|0,0:0|0:0,0:0:0:0:
404,85,50538,2,0,L|409:24,1,60.0000022888184,2|0,0:0|0:0,0:0:0:0:
490,129,51007,2,0,L|481:69,1,60.0000022888184,2|0,0:0|0:0,0:0:0:0:
421,162,51476,6,0,L|415:228,1,60.0000022888184,2|0,0:0|0:0,0:0:0:0:
333,110,51944,2,0,L|339:177,1,60.0000022888184,2|0,0:0|0:0,0:0:0:0:
246,122,52413,2,0,L|255:60,2,60.0000022888184,2|0|0,0:0|0:0|0:0,0:0:0:0:
181,171,53116,1,0,0:0:0:0:
102,190,53351,6,0,P|37:146|34:46,1,180.000006866455,2|0,0:0|0:0,0:0:0:0:
113,33,54288,2,0,P|175:98|269:78,1,180.000006866455,2|0,0:0|0:0,0:0:0:0:
315,25,55226,2,0,P|293:119|358:173,1,180.000006866455,2|0,0:0|0:0,0:0:0:0:
428,147,56163,2,0,P|437:120|440:82,1,60.0000022888184,2|0,0:0|0:0,0:0:0:0:
470,218,56632,2,0,P|472:251|482:277,1,60.0000022888184,2|0,0:0|0:0,0:0:0:0:
427,147,57101,6,0,P|366:135|266:197,1,180.000006866455,2|0,0:0|0:0,0:0:0:0:
240,271,58038,2,0,P|236:305|223:334,1,60.0000022888184,2|0,0:0|0:0,0:0:0:0:
143,344,58507,1,0,0:0:0:0:
84,284,58741,2,0,P|83:224|120:148,1,120.000004577637,2|0,0:0|0:0,0:0:0:0:
55,99,59444,2,0,P|26:90|0:75,1,60.0000022888184,2|0,0:0|0:0,0:0:0:0:
139,88,59913,1,2,0:0:0:0:
229,62,60147,1,0,0:0:0:0:
344,67,60382,1,2,0:0:0:0:
432,141,60616,1,0,0:0:0:0:
441,273,60851,6,0,P|435:310|415:353,1,80,4|0,0:3|0:0,0:0:0:0:
375,207,61319,2,0,P|368:162|352:120,1,80,4|0,0:3|0:0,0:0:0:0:
312,280,61788,2,0,P|232:290|162:251,1,160,4|4,0:3|0:3,0:0:0:0:
136,167,62491,1,0,0:0:0:0:
204,103,62726,6,0,P|219:60|223:20,1,80,4|0,0:3|0:0,0:0:0:0:
282,161,63194,2,0,P|299:271|331:318,1,160,4|4,0:3|0:3,0:0:0:0:
416,329,63897,1,0,0:0:0:0:
476,257,64132,2,0,P|472:211|459:175,1,80,4|0,0:3|0:0,0:0:0:0:
377,131,64601,6,0,P|291:133|219:90,1,160,4|4,0:3|0:3,0:0:0:0:
169,22,65304,1,0,0:0:0:0:
83,65,65538,2,0,P|70:104|69:157,1,80,4|0,0:3|0:0,0:0:0:0:
191,218,66007,2,0,P|188:169|176:133,1,80,4|0,0:3|0:0,0:0:0:0:
88,263,66476,5,2,0:0:0:0:
101,292,66593,1,0,0:0:0:0:
124,313,66710,1,0,0:0:0:0:
155,319,66827,1,0,0:0:0:0:
185,309,66944,1,2,0:0:0:0:
253,252,67179,1,0,0:0:0:0:
338,273,67413,1,2,0:0:0:0:
376,351,67647,1,0,0:0:0:0:
453,308,67882,2,0,P|467:268|468:222,1,80,2|0,0:0|0:0,0:0:0:0:
421,146,68351,5,4,0:3:0:0:
421,146,68468,1,0,0:0:0:0:
421,146,68585,1,0,0:0:0:0:
335,188,68819,2,0,P|265:188|217:164,1,120,8|0,0:2|0:0,0:0:0:0:
199,143,69288,2,0,P|198:99|185:54,1,80,4|2,0:3|0:0,0:0:0:0:
70,151,69757,2,0,P|65:189|70:230,1,80,8|0,0:2|0:0,0:0:0:0:
127,303,70226,5,4,0:3:0:0:
127,303,70343,1,0,0:0:0:0:
127,303,70460,1,0,0:0:0:0:
205,248,70694,2,0,P|270:233|328:241,1,120,8|0,0:2|0:0,0:0:0:0:
349,257,71163,1,4,0:3:0:0:
372,349,71397,1,2,0:0:0:0:
465,229,71632,2,0,P|460:178|446:146,1,80,8|0,0:2|0:0,0:0:0:0:
303,75,72101,6,0,L|212:65,1,80,4|0,0:3|0:0,0:0:0:0:
66,162,72569,2,0,L|155:149,1,80,8|0,0:2|0:0,0:0:0:0:
270,236,73038,2,0,L|325:247,2,40,4|0|0,0:3|0:0|0:0,0:0:0:0:
154,311,73507,2,0,L|65:293,1,80,8|0,0:2|0:0,0:0:0:0:
301,260,73976,6,0,L|390:248,1,80,8|0,0:2|0:0,0:0:0:0:
129,184,74444,2,0,L|38:169,1,80,8|0,0:2|0:0,0:0:0:0:
223,106,74913,2,0,P|276:75|341:80,1,120,12|0,0:3|0:0,0:0:0:0:
361,91,75382,1,4,0:0:0:0:
396,281,75616,1,4,0:0:0:0:
437,142,75851,5,0,0:0:0:0:
252,65,77022,1,0,0:0:0:0:
227,155,77257,6,0,P|168:205|82:200,1,167.999994873047,4|0,1:1|0:0,0:0:0:0:
54,173,77726,1,4,0:3:0:0:
148,318,77960,2,0,B|190:291|190:291|236:283,1,95.9999970703126,2|8,0:0|0:3,0:0:0:0:
311,303,78311,2,0,L|321:350,2,47.9999985351563,2|0|2,0:0|0:0|0:0,0:0:0:0:
366,244,78663,2,0,L|374:191,1,47.9999985351563,4|0,0:3|0:0,0:0:0:0:
279,64,78897,2,0,B|301:107|301:107|305:159,1,95.9999970703126,2|8,0:0|0:3,0:0:0:0:
154,208,79366,1,2,0:0:0:0:
299,316,79601,6,0,P|396:289|418:244,1,143.999995605469,4|0,1:0|0:0,0:0:0:0:
375,189,80069,2,0,B|341:153|346:96,1,95.9999970703126,8|2,0:3|0:0,0:0:0:0:
443,26,80538,1,4,0:3:0:0:
443,26,80890,1,0,0:0:0:0:
443,26,81007,1,8,0:3:0:0:
505,122,81241,2,0,P|502:152|496:173,1,47.9999985351563,0|0,0:0|0:0,0:0:0:0:
431,219,81476,6,0,P|437:262|460:310,1,95.9999970703126,4|2,0:3|0:0,0:0:0:0:
337,139,81944,2,0,P|311:183|306:240,1,95.9999970703126,8|0,0:3|0:0,0:0:0:0:
287,46,82413,2,0,B|247:75|197:76,1,95.9999970703126,4|2,0:3|0:0,0:0:0:0:
26,46,82882,2,0,P|45:66|57:93,1,47.9999985351563,2|0,0:0|0:0,0:0:0:0:
67,159,83116,1,4,0:2:0:0:
231,189,83351,6,0,P|293:143|374:142,1,143.999995605469,4|0,0:3|0:0,0:0:0:0:
428,183,83819,2,0,P|432:209|445:237,1,47.9999985351563,8|2,0:3|0:0,0:0:0:0:
354,330,84054,2,0,P|361:309|362:283,1,47.9999985351563,0|2,0:0|0:0,0:0:0:0:
304,134,84288,2,0,P|311:158|312:183,1,47.9999985351563,4|2,0:3|0:0,0:0:0:0:
284,258,84522,1,4,0:3:0:0:
157,130,84757,2,0,B|168:84|168:84|199:40,1,95.9999970703126,4|0,0:2|0:3,0:0:0:0:
308,21,85226,5,4,0:3:0:0:
375,114,85460,1,2,0:0:0:0:
358,227,85694,2,0,P|298:275|226:277,1,143.999995605469,8|0,0:3|0:0,0:0:0:0:
201,258,86163,1,4,0:3:0:0:
149,72,86397,2,0,P|163:52|182:36,1,47.9999985351563,0|2,0:0|0:0,0:0:0:0:
243,127,86632,2,0,P|263:113|286:104,1,47.9999985351563,4|2,0:3|0:0,0:0:0:0:
294,229,86866,1,0,0:0:0:0:
285,266,86983,1,2,0:0:0:0:
268,300,87101,6,0,P|234:338|191:360,1,95.9999970703126,4|0,1:1|0:0,0:0:0:0:
64,256,87569,2,0,B|81:210|81:210|73:161,1,95.9999970703126,2|0,1:2|0:0,0:0:0:0:
57,128,87921,1,2,0:0:0:0:
32,98,88038,2,0,P|12:83|-12:74,1,47.9999985351563,4|0,0:3|0:0,0:0:0:0:
121,55,88272,1,2,0:2:0:0:
268,115,88507,2,0,B|316:106|316:106|359:79,1,95.9999970703126,8|0,1:3|0:0,0:0:0:0:
463,124,88976,6,0,L|481:223,2,95.9999970703126,4|2|8,0:3|0:0|0:3,0:0:0:0:
365,61,89679,1,2,0:0:0:0:
281,139,89913,2,0,L|272:188,1,47.9999985351563,4|2,0:3|0:0,0:0:0:0:
316,248,90147,1,2,0:0:0:0:
158,139,90382,2,0,L|149:90,1,47.9999985351563,8|2,0:3|0:0,0:0:0:0:
193,30,90616,1,2,0:0:0:0:
318,150,90851,6,0,P|326:192|276:279,1,143.999995605469,4|0,1:2|0:0,0:0:0:0:
204,289,91319,2,0,P|164:278|121:278,2,71.9999978027344,0|0|0,0:0|0:0|0:0,0:0:0:0:
254,348,91788,1,8,0:3:0:0:
403,298,92022,1,2,0:0:0:0:
328,206,92257,2,0,P|313:162|316:113,1,95.9999970703126,4|0,1:2|0:0,0:0:0:0:
457,41,92726,6,0,P|474:84|475:135,1,95.9999970703126,4|2,0:3|0:0,0:0:0:0:
401,263,93194,2,0,L|414:312,1,47.9999985351563,8|2,0:3|0:0,0:0:0:0:
316,214,93429,2,0,L|327:163,1,47.9999985351563,2|0,0:0|0:0,0:0:0:0:
259,296,93663,1,4,0:3:0:0:
226,316,93780,1,0,0:0:0:0:
189,327,93897,1,2,0:0:0:0:
84,262,94132,2,0,P|106:219|112:169,1,95.9999970703126,8|2,0:3|0:0,0:0:0:0:
43,81,94601,6,0,P|97:126|176:132,1,143.999995605469,4|0,1:3|0:0,0:0:0:0:
204,121,95069,1,8,0:3:0:0:
270,38,95304,1,2,0:0:0:0:
337,175,95538,2,0,P|334:244|288:300,1,143.999995605469,4|0,0:3|0:0,0:0:0:0:
250,310,96007,2,0,P|206:293|158:291,1,95.9999970703126,8|2,0:3|0:0,0:0:0:0:
121,304,96358,1,2,0:0:0:0:
89,326,96476,5,4,0:3:0:0:
152,203,96710,2,0,B|158:155|158:155|138:107,1,95.9999970703126,2|8,0:0|0:3,0:0:0:0:
29,35,97179,6,0,L|-20:29,1,47.9999985351563,0|0,0:3|0:0,0:0:0:0:
220,75,97413,2,0,L|270:66,1,47.9999985351563,0|0,0:0|0:0,0:0:0:0:
106,218,97647,2,0,L|54:229,1,47.9999985351563,2|2,0:0|0:0,0:0:0:0:
290,256,97882,2,0,L|342:271,1,47.9999985351563,2|2,0:0|0:0,0:0:0:0:
492,143,98116,2,0,L|439:157,1,47.9999985351563,2|2,0:0|0:0,0:0:0:0:
350,44,98351,6,0,P|229:66|205:111,1,167.999994873047,4|0,1:0|0:0,0:0:0:0:
217,133,98819,1,4,0:1:0:0:
300,302,99054,1,2,0:0:0:0:
425,159,99288,2,0,P|414:113|387:72,1,95.9999970703126,4|2,0:3|0:0,0:0:0:0:
250,33,99757,2,0,B|206:53|206:53|155:58,1,95.9999970703126,4|2,0:0|0:0,0:0:0:0:
58,25,100226,5,4,0:3:0:0:
104,119,100460,1,2,0:0:0:0:
36,200,100694,2,0,P|44:284|107:320,1,143.999995605469,8|0,0:3|0:0,0:0:0:0:
128,307,101163,2,0,P|175:292|233:298,1,95.9999970703126,4|2,0:3|0:0,0:0:0:0:
254,313,101515,1,0,0:0:0:0:
286,334,101632,2,0,L|294:386,1,47.9999985351563,8|2,0:3|0:0,0:0:0:0:
363,261,101866,2,0,L|373:208,1,47.9999985351563,4|2,0:3|0:0,0:0:0:0:
437,329,102101,5,4,1:1:0:0:
381,136,102335,1,0,0:0:0:0:
314,242,102569,2,0,B|268:255|268:255|217:248,1,95.9999970703126,4|0,1:2|0:0,0:0:0:0:
185,232,102921,1,2,0:0:0:0:
157,204,103038,1,4,0:3:0:0:
126,103,103272,1,2,0:0:0:0:
66,270,103507,2,0,P|69:315|94:367,1,95.9999970703126,8|0,1:3|0:0,0:0:0:0:
157,204,103976,5,4,0:3:0:0:
85,36,104210,2,0,L|29:23,1,47.9999985351563,2|0,0:0|0:0,0:0:0:0:
126,103,104444,1,4,0:3:0:0:
268,193,104679,2,0,P|293:193|318:185,1,47.9999985351563,2|0,0:0|0:0,0:0:0:0:
367,64,104913,2,0,P|344:58|318:57,1,47.9999985351563,4|0,0:3|0:0,0:0:0:0:
429,169,105147,2,0,P|442:190|448:213,1,47.9999985351563,2|0,0:0|0:0,0:0:0:0:
425,309,105382,1,4,1:3:0:0:
198,273,105616,2,0,P|222:267|249:266,1,47.9999985351563,0|0,0:0|0:0,0:0:0:0:
171,298,105851,6,0,P|127:286|85:254,1,88.000002685547,2|0,1:2|0:0,0:0:0:0:
306,210,106319,2,0,P|354:200|397:175,1,88.000002685547,2|0,0:0|0:0,0:0:0:0:
371,29,106788,2,0,P|325:37|277:61,1,88.000002685547,2|0,0:0|0:0,0:0:0:0:
232,152,107257,1,2,0:0:0:0:
263,252,107491,1,0,0:0:0:0:
356,301,107726,6,0,P|406:304|454:289,1,88.000002685547,2|0,0:0|0:0,0:0:0:0:
489,146,108194,2,0,P|439:143|391:158,1,88.000002685547,2|0,0:0|0:0,0:0:0:0:
323,233,108663,1,2,0:0:0:0:
241,299,108897,1,0,0:0:0:0:
136,314,109132,1,2,0:0:0:0:
36,279,109366,1,0,0:0:0:0:
2,178,109601,6,0,P|8:128|27:82,1,88.000002685547,2|0,0:0|0:0,0:0:0:0:
204,50,110069,2,0,P|198:100|179:146,1,88.000002685547,2|0,0:0|0:0,0:0:0:0:
95,204,110538,2,0,P|101:254|120:300,1,88.000002685547,2|0,0:0|0:0,0:0:0:0:
305,350,111007,2,0,P|299:300|280:254,1,88.000002685547,2|0,0:0|0:0,0:0:0:0:
198,192,111476,5,2,0:0:0:0:
218,88,111710,1,0,0:0:0:0:
300,22,111944,1,2,0:0:0:0:
404,6,112179,1,0,0:0:0:0:
494,59,112413,2,0,P|508:106|510:162,1,88.000002685547,2|0,0:0|0:0,0:0:0:0:
394,275,112882,2,0,P|380:228|378:172,1,88.000002685547,2|0,0:0|0:0,0:0:0:0:
347,79,113351,6,0,P|307:60|257:54,1,88.000002685547,2|0,0:0|0:0,0:0:0:0:
126,155,113819,2,0,P|166:174|216:180,1,88.000002685547,2|0,0:0|0:0,0:0:0:0:
317,145,114288,1,2,0:0:0:0:
435,208,114522,1,0,0:0:0:0:
372,326,114757,1,2,0:0:0:0:
253,263,114991,1,0,0:0:0:0:
243,157,115226,6,0,P|236:106|217:62,1,88.000002685547,2|0,0:0|0:0,0:0:0:0:
51,51,115694,2,0,P|58:102|77:146,1,88.000002685547,2|0,0:0|0:0,0:0:0:0:
169,190,116163,1,2,0:0:0:0:
310,152,116397,1,0,0:0:0:0:
348,294,116632,1,2,0:0:0:0:
205,333,116866,1,0,0:0:0:0:
169,190,117101,5,2,0:0:0:0:
281,219,117335,1,0,0:0:0:0:
251,333,117569,1,2,0:0:0:0:
136,302,117804,1,0,0:0:0:0:
169,190,118038,1,2,0:0:0:0:
140,57,118272,1,0,0:0:0:0:
272,31,118507,1,2,0:0:0:0:
300,163,118741,1,0,0:0:0:0:
384,226,118976,6,0,P|435:220|477:200,1,88.000002685547,2|0,0:0|0:0,0:0:0:0:
323,311,119444,2,0,P|370:331|416:334,1,88.000002685547,2|0,0:0|0:0,0:0:0:0:
280,217,119913,2,0,P|229:223|187:243,1,88.000002685547,2|0,0:0|0:0,0:0:0:0:
341,132,120382,2,0,P|293:111|247:108,1,88.000002685547,2|0,0:0|0:0,0:0:0:0:
156,158,120851,5,4,0:0:0:0:
363,251,128351,5,4,0:3:0:0:
367,219,128468,1,0,0:0:0:0:
372,187,128585,1,0,0:0:0:0:
299,39,128819,2,0,L|312:117,1,80,8|0,0:2|0:0,0:0:0:0:
277,199,129288,1,4,0:3:0:0:
195,231,129522,1,2,0:0:0:0:
112,199,129757,2,0,P|94:162|88:119,1,80,8|0,0:2|0:0,0:0:0:0:
147,58,130226,5,4,0:3:0:0:
178,65,130343,1,0,0:0:0:0:
209,72,130460,1,0,0:0:0:0:
284,117,130694,2,0,P|309:169|305:232,1,120,8|0,0:2|0:0,0:0:0:0:
286,256,131163,2,0,L|202:270,1,80,4|2,0:3|0:0,0:0:0:0:
94,161,131632,2,0,L|175:175,1,80,8|0,0:2|0:0,0:0:0:0:
255,142,132101,5,4,0:3:0:0:
305,70,132335,1,2,0:0:0:0:
387,41,132569,1,8,0:3:0:0:
472,62,132804,1,2,0:0:0:0:
502,144,133038,2,0,P|500:166|493:189,1,40,4|0,0:3|0:0,0:0:0:0:
466,197,133272,1,2,0:0:0:0:
380,176,133507,2,0,P|340:175|296:187,1,80,8|2,0:3|0:0,0:0:0:0:
254,260,133976,6,0,L|289:265,1,20,0|0,1:0|1:0,0:0:0:0:
238,273,134093,2,0,L|270:287,1,20,0|0,1:0|1:0,0:0:0:0:
220,281,134210,2,0,L|247:303,1,20,0|0,1:0|1:0,0:0:0:0:
199,285,134327,2,0,L|220:314,1,20,0|0,1:0|1:0,0:0:0:0:
179,283,134444,2,0,L|191:316,1,20,2|2,0:3|0:3,0:0:0:0:
160,276,134561,2,0,L|163:311,1,20,2|2,0:3|0:3,0:0:0:0:
143,265,134679,2,0,L|137:300,1,20,2|2,0:3|0:3,0:0:0:0:
130,249,134796,2,0,L|115:281,1,20,2|2,0:3|0:3,0:0:0:0:
124,231,134913,6,0,B|111:188|138:157|138:157|166:124|156:80,1,160,0|4,0:0|0:3,0:0:0:0:
161,84,135851,6,0,B|245:98|245:98|290:88,1,132.00000402832,4|0,1:1|0:0,0:0:0:0:
367,115,136319,2,0,P|379:138|384:163,1,44.0000013427735,4|2,0:3|0:0,0:0:0:0:
352,36,136554,1,8,0:3:0:0:
296,211,136788,2,0,P|302:255|325:296,1,88.000002685547,4|2,0:3|0:0,0:0:0:0:
476,231,137257,2,0,P|485:196|484:174,1,44.0000013427735,4|0,0:3|0:0,0:0:0:0:
381,118,137491,2,0,P|385:144|393:167,1,44.0000013427735,2|0,0:0|0:0,0:0:0:0:
432,35,137726,6,0,B|414:55|414:55|390:70|390:70|361:77|361:77|334:77|334:77|308:71,1,132.00000402832,4|0,0:3|0:0,0:0:0:0:
245,40,138194,2,0,P|198:47|160:72,1,88.000002685547,4|0,0:3|0:2,0:0:0:0:
144,143,138546,2,0,P|154:167|158:187,1,44.0000013427735,0|4,0:2|0:3,0:0:0:0:
141,263,138780,2,0,L|132:288,2,22.0000006713867,0|0|0,0:0|0:0|0:0,0:0:0:0:
218,239,139015,1,0,0:0:0:0:
282,287,139132,2,0,P|342:276|371:258,1,88.000002685547,4|8,0:3|0:3,0:0:0:0:
409,126,139601,6,0,B|382:126|382:126|356:121|356:121|332:109|332:109|315:94|315:94|301:75|301:75|296:55,1,132.00000402832,4|0,1:3|0:0,0:0:0:0:
224,66,140069,2,0,B|210:106|210:106|206:156,1,88.000002685547,4|0,0:3|0:0,0:0:0:0:
257,209,140421,1,2,0:0:0:0:
328,176,140538,2,0,P|320:157|317:133,1,44.0000013427735,12|0,0:3|0:0,0:0:0:0:
391,219,140772,2,0,P|402:264|400:311,1,88.000002685547,0|4,0:0|0:3,0:0:0:0:
281,348,141241,1,0,0:0:0:0:
189,257,141476,6,0,B|165:249|165:249|137:249|137:249|112:255|112:255|88:271|88:271|73:293,1,132.00000402832,12|0,0:3|0:0,0:0:0:0:
63,368,141944,2,0,P|85:378|111:383,1,44.0000013427735,4|0,0:3|0:0,0:0:0:0:
2,319,142179,1,2,0:0:0:0:
131,197,142413,1,4,0:3:0:0:
61,100,142647,1,2,0:2:0:0:
167,48,142882,2,0,P|186:40|211:38,1,44.0000013427735,8|0,0:3|0:0,0:0:0:0:
303,120,143116,2,0,P|274:119|252:114,1,44.0000013427735,0|0,0:0|0:0,0:0:0:0:
364,44,143351,6,0,P|339:99|363:193,1,143.999995605469,4|0,1:1|0:0,0:0:0:0:
429,217,143819,2,0,P|451:202|465:179,1,47.9999985351563,4|0,0:3|0:0,0:0:0:0:
377,281,144054,2,0,P|390:322|430:366,1,95.9999970703126,2|4,0:2|0:3,0:0:0:0:
265,251,144522,1,2,0:0:0:0:
186,315,144757,2,0,P|139:328|92:326,1,95.9999970703126,4|0,0:3|0:0,0:0:0:0:
55,314,145108,1,0,0:0:0:0:
20,294,145226,6,0,B|46:276|46:276|63:252|63:252|71:224|71:224|68:193|68:193|56:168|56:168,1,143.999995605469,4|0,0:3|0:0,0:0:0:0:
11,115,145694,2,0,B|26:133|26:133|48:147|48:147|75:153|75:153|97:152,1,95.9999970703126,4|0,0:3|0:2,0:0:0:0:
149,93,146046,2,0,P|173:82|200:76,1,47.9999985351563,0|4,0:2|0:3,0:0:0:0:
265,119,146280,2,0,L|276:152,2,23.9999992675781,0|0|0,0:0|0:0|0:0,0:0:0:0:
307,48,146515,1,0,0:0:0:0:
376,93,146632,2,0,P|365:135|368:192,1,95.9999970703126,4|8,0:3|0:3,0:0:0:0:
428,323,147101,6,0,B|404:300|404:300|371:282|371:282|333:273|333:273|297:275,1,143.999995605469,4|0,0:3|0:0,0:0:0:0:
234,318,147569,2,0,P|197:342|143:349,1,95.9999970703126,4|0,0:3|0:0,0:0:0:0:
109,336,147921,1,0,0:0:0:0:
81,309,148038,2,0,P|71:286|70:258,1,47.9999985351563,12|0,0:3|0:0,0:0:0:0:
118,202,148272,1,0,0:0:0:0:
260,158,148507,2,0,P|314:137|343:109,1,95.9999970703126,4|0,0:3|0:0,0:0:0:0:
348,269,148976,6,0,P|396:315|471:317,1,143.999995605469,4|0,0:3|0:0,0:0:0:0:
493,241,149444,2,0,P|472:228|455:207,1,47.9999985351563,2|0,0:2|0:0,0:0:0:0:
441,135,149679,1,2,0:2:0:0:
304,49,149913,2,0,P|296:77|281:98,1,47.9999985351563,4|2,0:3|0:0,0:0:0:0:
204,118,150147,2,0,P|198:96|185:76,1,47.9999985351563,2|0,0:0|0:0,0:0:0:0:
163,185,150382,1,2,0:0:0:0:
154,222,150499,1,0,0:0:0:0:
156,260,150616,1,0,0:0:0:0:
375,328,150851,6,0,P|377:277|357:225,1,103.999995239258,4|2,1:1|0:0,0:0:0:0:
333,198,151202,1,0,0:0:0:0:
301,175,151319,1,4,0:3:0:0:
265,161,151436,1,0,0:0:0:0:
226,157,151554,1,2,0:0:0:0:
131,284,151788,2,0,P|223:266|231:259,1,95.9999970703126,2|0,0:0|0:0,0:0:0:0:
281,84,152257,1,4,0:3:0:0:
419,144,152491,2,0,L|472:136,1,47.9999985351563,2|2,0:0|0:0,0:0:0:0:
372,213,152726,5,4,0:3:0:0:
364,250,152843,1,0,0:0:0:0:
357,287,152960,1,0,0:0:0:0:
195,335,153194,2,0,B|189:311|189:311|189:283,1,47.9999985351563,2|2,0:0|0:0,0:0:0:0:
110,187,153429,2,0,B|108:211|108:211|96:233,1,47.9999985351563,2|0,0:0|0:0,0:0:0:0:
159,125,153663,1,12,0:3:0:0:
225,81,153780,2,0,L|230:52,2,23.9999992675781,0|0|2,0:0|0:0|0:0,0:0:0:0:
274,143,154015,1,2,0:0:0:0:
236,212,154132,2,0,P|242:240|256:267,1,47.9999985351563,4|0,0:3|0:0,0:0:0:0:
388,180,154366,2,0,P|395:152|394:133,1,47.9999985351563,2|0,0:0|0:0,0:0:0:0:
319,80,154601,6,0,P|236:89|178:40,1,143.999995605469,4|0,1:1|0:0,0:0:0:0:
113,76,155069,2,0,P|107:100|105:126,1,47.9999985351563,8|0,0:3|0:0,0:0:0:0:
204,220,155304,2,0,P|199:192|190:169,1,47.9999985351563,2|0,0:0|0:3,0:0:0:0:
112,318,155538,1,4,0:3:0:0:
143,339,155655,1,0,0:0:0:0:
179,351,155772,2,0,P|231:352|270:334,1,95.9999970703126,2|4,0:0|0:3,0:0:0:0:
337,173,156241,1,2,0:0:0:0:
445,251,156476,6,0,P|439:290|406:344,2,95.9999970703126,2|0|4,1:2|0:0|0:3,0:0:0:0:
369,93,157179,1,2,0:0:0:0:
252,195,157413,2,0,P|213:205|192:204,1,47.9999985351563,2|0,0:0|0:0,0:0:0:0:
148,141,157647,2,0,P|101:120|46:116,1,95.9999970703126,12|4,0:3|0:1,0:0:0:0:
89,276,158116,1,2,0:0:0:0:
122,294,158233,1,0,0:0:0:0:
159,302,158351,6,0,P|210:302|254:287,1,95.9999970703126,4|2,1:1|0:0,0:0:0:0:
293,115,158819,2,0,P|279:95|271:72,1,47.9999985351563,4|0,0:3|0:0,0:0:0:0:
374,144,159054,2,0,P|369:192|344:238,1,95.9999970703126,2|2,0:0|0:0,0:0:0:0:
238,272,159522,1,0,0:0:0:0:
136,216,159757,1,4,0:3:0:0:
163,104,159991,2,0,P|185:95|210:91,1,47.9999985351563,2|2,0:0|0:0,0:0:0:0:
272,134,160226,6,0,P|317:125|361:98,1,95.9999970703126,4|2,0:3|0:0,0:0:0:0:
457,160,160694,1,4,0:3:0:0:
493,270,160929,2,0,P|479:297|466:311,1,47.9999985351563,2|2,0:0|0:0,0:0:0:0:
389,321,161163,1,4,0:3:0:0:
331,261,161280,2,0,L|343:238,2,23.9999992675781,0|0|2,0:0|0:0|0:0,0:0:0:0:
256,297,161515,1,2,0:0:0:0:
190,248,161632,2,0,P|174:210|171:149,1,95.9999970703126,4|2,0:3|0:0,0:0:0:0:
282,64,162101,6,0,P|351:57|388:40,1,95.9999970703126,4|2,1:1|0:0,0:0:0:0:
476,132,162569,2,0,P|485:160|488:186,1,47.9999985351563,8|2,0:3|0:0,0:0:0:0:
358,267,162804,2,0,P|362:239|371:217,1,47.9999985351563,2|0,0:0|0:0,0:0:0:0:
480,306,163038,2,0,P|486:334|483:362,1,47.9999985351563,4|0,0:3|0:0,0:0:0:0:
443,240,163272,1,2,0:0:0:0:
288,339,163507,1,4,0:3:0:0:
163,268,163741,1,2,0:0:0:0:
35,333,163976,6,0,P|81:274|68:202,1,143.999995605469,4|0,0:3|0:0,0:0:0:0:
6,171,164444,2,0,P|78:184|143:144,1,143.999995605469,4|0,0:3|0:0,0:0:0:0:
165,78,164913,2,0,P|242:67|319:157,1,191.999994140625,12|0,0:3|0:0,0:0:0:0:
247,260,165616,5,0,0:0:0:0:
247,260,165733,1,0,0:0:0:0:
247,260,165851,2,0,L|258:352,1,80,2|0,0:0|0:0,0:0:0:0:
366,222,166319,2,0,L|359:309,1,80,2|0,0:0|0:0,0:0:0:0:
451,247,166788,2,0,P|399:194|387:104,1,160,2|2,0:0|0:0,0:0:0:0:
441,43,167491,1,0,0:0:0:0:
356,18,167726,6,0,P|312:20|272:34,1,80,2|0,0:0|0:0,0:0:0:0:
247,113,168194,2,0,P|249:189|179:242,2,160,2|2|2,0:0|0:0|0:0,0:0:0:0:
173,64,169366,1,0,0:0:0:0:
93,102,169601,6,0,L|102:184,1,80,2|0,0:0|0:0,0:0:0:0:
202,144,170069,2,0,L|192:231,1,80,2|0,0:0|0:0,0:0:0:0:
292,91,170538,2,0,L|304:170,1,80,2|0,0:0|0:0,0:0:0:0:
406,118,171007,2,0,L|395:202,1,80,2|0,0:0|0:0,0:0:0:0:
344,269,171476,6,0,P|246:281|200:232,1,160,2|2,0:0|0:0,0:0:0:0:
188,157,172179,1,0,0:0:0:0:
125,94,172413,2,0,P|84:82|38:82,2,80,2|0|2,0:0|0:0|0:0,0:0:0:0:
188,157,173116,1,0,0:0:0:0:
272,183,173351,6,0,P|312:182|353:166,1,80,2|0,0:0|0:0,0:0:0:0:
414,109,173819,2,0,L|425:16,1,80,2|0,0:0|0:0,0:0:0:0:
505,60,174288,2,0,L|519:144,1,80,2|0,0:0|0:0,0:0:0:0:
490,222,174757,1,2,0:0:0:0:
410,258,174991,1,0,0:0:0:0:
324,235,175226,6,0,P|284:237|239:254,1,80,2|0,0:0|0:0,0:0:0:0:
219,334,175694,2,0,P|259:351|296:353,1,80,2|0,0:0|0:0,0:0:0:0:
380,330,176163,1,2,0:0:0:0:
422,252,176397,1,0,0:0:0:0:
395,167,176632,1,2,0:0:0:0:
315,129,176866,1,0,0:0:0:0:
237,171,177101,6,0,L|228:260,1,80,2|0,0:0|0:0,0:0:0:0:
144,274,177569,2,0,L|130:189,1,80,2|0,0:0|0:0,0:0:0:0:
144,107,178038,1,2,0:0:0:0:
210,49,178272,1,0,0:0:0:0:
298,45,178507,1,0,0:0:0:0:
372,92,178741,6,0,P|374:171|437:229,1,160,2|0,0:0|0:0,0:0:0:0:
470,303,179444,2,0,P|435:318|392:324,1,80,2|0,0:0|0:0,0:0:0:0:
312,289,179913,1,0,0:0:0:0:
352,211,180147,2,0,P|355:170|345:126,2,80,2|0|0,0:0|0:0|0:0,0:0:0:0:
274,253,180851,6,0,P|240:250|198:230,1,80,2|0,0:0|0:0,0:0:0:0:
283,168,181319,2,0,P|255:148|228:110,1,80,2|0,0:0|0:0,0:0:0:0:
363,211,181788,2,0,P|367:282|298:337,1,160,2|2,0:0|0:0,0:0:0:0:
216,319,182491,1,0,0:0:0:0:
148,262,182726,6,0,P|123:225|113:185,1,80,2|0,0:0|0:0,0:0:0:0:
176,130,183194,2,0,P|256:120|313:66,1,160,2|2,0:0|0:0,0:0:0:0:
387,21,183897,1,0,0:0:0:0:
472,42,184132,1,2,0:0:0:0:
508,122,184366,1,0,0:0:0:0:
488,208,184601,6,0,P|438:253|339:246,1,160,2|0,0:0|0:0,0:0:0:0:
316,169,185304,2,0,P|241:121|174:132,1,160,2|0,0:0|0:0,0:0:0:0:
130,208,186007,1,2,0:0:0:0:
165,288,186241,1,0,0:0:0:0:
246,320,186476,6,0,P|304:269|295:189,1,160,2|0,0:0|0:0,0:0:0:0:
233,130,187179,1,0,0:0:0:0:
311,91,187413,2,0,P|356:90|393:99,1,80,2|0,0:0|0:0,0:0:0:0:
435,173,187882,1,0,0:0:0:0:
303,334,188351,6,0,P|206:329|158:286,1,160,2|0,0:0|0:0,0:0:0:0:
124,210,189054,1,0,0:0:0:0:
157,128,189288,2,0,P|213:84|301:80,1,160,2|0,0:0|0:0,0:0:0:0:
362,142,189991,1,0,0:0:0:0:
328,223,190226,6,0,P|320:261|324:309,1,80,2|0,0:0|0:0,0:0:0:0:
243,338,190694,2,0,P|219:305|207:265,1,80,0|0,0:0|0:0,0:0:0:0:
252,191,191163,2,0,P|266:147|266:105,2,80,2|0|0,0:0|0:0|0:0,0:0:0:0:
172,230,191866,5,0,0:0:0:0:
141,226,191983,1,0,0:0:0:0:
112,212,192101,2,0,P|62:160|84:69,1,160,2|0,0:0|0:0,0:0:0:0:
160,51,192804,2,0,P|224:98|316:87,1,160,2|0,0:0|0:0,0:0:0:0:
362,29,193507,1,0,0:0:0:0:
446,54,193741,6,0,P|495:117|480:199,1,160,2|2,0:0|0:0,0:0:0:0:
401,220,194444,2,0,L|320:206,1,80,0|2,0:0|0:0,0:0:0:0:
326,316,194913,2,0,L|243:327,1,80,2|0,0:0|0:0,0:0:0:0:
123,216,195382,2,0,L|201:230,1,80,2|0,0:0|0:0,0:0:0:0:
389,93,195851,6,0,B|340:88|340:88|292:104,1,95.9999970703126,4|2,0:3|0:0,0:0:0:0:
220,220,196319,1,4,0:3:0:0:
130,55,196554,1,8,0:3:0:0:
29,149,196788,2,0,L|18:202,1,47.9999985351563,2|0,0:0|0:0,0:0:0:0:
134,256,197022,2,0,L|127:204,1,47.9999985351563,2|0,0:0|0:0,0:0:0:0:
51,317,197257,1,4,0:3:0:0:
255,298,197491,5,0,0:0:0:0:
294,302,197608,1,0,0:0:0:0:
331,315,197726,2,0,P|371:313|424:291,1,95.9999970703126,2|0,0:2|0:0,0:0:0:0:
481,205,198194,1,4,0:3:0:0:
428,113,198429,1,0,0:0:0:0:
347,181,198663,2,0,P|272:199|165:149,1,191.999994140625,2|4,0:0|0:3,0:0:0:0:
137,52,199366,2,0,P|155:37|178:27,1,47.9999985351563,0|0,0:0|0:0,0:0:0:0:
52,92,199601,6,0,P|34:138|27:193,1,95.9999970703126,2|0,0:2|0:0,0:0:0:0:
125,222,200069,2,0,P|202:186|312:197,2,191.999994140625,4|2|4,0:3|0:0|0:3,0:0:0:0:
93,323,201241,1,0,0:0:0:0:
192,358,201476,6,0,P|238:356|290:338,1,95.9999970703126,2|0,0:2|0:0,0:0:0:0:
339,250,201944,1,4,0:3:0:0:
270,168,202179,1,0,0:0:0:0:
270,168,202296,1,0,0:0:0:0:
270,168,202413,2,0,P|274:115|292:72,1,95.9999970703126,2|0,0:0|0:0,0:0:0:0:
185,218,202882,2,0,P|137:203|98:169,1,95.9999970703126,4|0,0:3|0:0,0:0:0:0:
220,311,203351,6,0,P|148:351|39:348,1,191.999994140625,2|4,0:2|0:3,0:0:0:0:
0,250,204054,1,0,0:0:0:0:
77,178,204288,2,0,P|99:133|104:82,1,95.9999970703126,2|0,0:0|0:0,0:0:0:0:
162,238,204757,2,0,P|167:288|186:330,1,95.9999970703126,4|0,0:3|0:0,0:0:0:0:
287,357,205226,5,2,0:2:0:0:
380,309,205460,1,0,0:0:0:0:
380,309,205577,1,0,0:0:0:0:
380,309,205694,1,4,0:3:0:0:
329,215,205929,1,0,0:0:0:0:
387,126,206163,2,0,P|437:104|485:100,1,95.9999970703126,2|0,0:0|0:0,0:0:0:0:
285,97,206632,2,0,P|236:95|191:79,1,95.9999970703126,4|0,0:3|0:0,0:0:0:0:
113,8,207101,5,2,0:2:0:0:
49,92,207335,2,0,P|42:123|43:149,1,47.9999985351563,0|0,0:0|0:0,0:0:0:0:
116,193,207569,2,0,P|127:235|125:295,1,95.9999970703126,4|0,0:3|0:0,0:0:0:0:
208,354,208038,2,0,P|315:338|370:276,1,191.999994140625,2|4,0:0|0:3,0:0:0:0:
345,175,208741,1,0,0:0:0:0:
265,104,208976,6,0,P|209:112|163:138,1,95.9999970703126,2|0,0:2|0:0,0:0:0:0:
143,152,209327,1,0,0:0:0:0:
117,180,209444,1,4,0:3:0:0:
90,282,209679,1,0,0:0:0:0:
167,353,209913,2,0,P|223:347|272:326,1,95.9999970703126,2|0,0:0|0:0,0:0:0:0:
315,242,210382,1,4,0:3:0:0:
242,165,210616,1,0,0:0:0:0:
304,73,210851,6,0,P|354:57|405:57,1,95.9999970703126,2|0,0:2|0:0,0:0:0:0:
486,112,211319,1,4,0:3:0:0:
407,182,211554,2,0,P|393:230|391:282,1,95.9999970703126,0|2,0:0|0:0,0:0:0:0:
466,349,212022,1,0,0:0:0:0:
364,380,212257,2,0,P|321:372|274:341,1,95.9999970703126,4|0,0:3|0:0,0:0:0:0:
202,264,212726,6,0,P|180:221|172:172,1,95.9999970703126,2|0,0:2|0:0,0:0:0:0:
172,135,213077,1,0,0:0:0:0:
181,97,213194,1,4,0:3:0:0:
268,36,213429,1,0,0:0:0:0:
363,80,213663,2,0,P|412:81|465:69,1,95.9999970703126,2|0,0:0|0:0,0:0:0:0:
329,175,214132,2,0,P|371:195|425:202,1,95.9999970703126,4|0,0:3|0:0,0:0:0:0:
261,259,214601,5,2,0:2:0:0:
171,314,214835,1,0,0:0:0:0:
133,323,214952,1,0,0:0:0:0:
94,323,215069,1,4,0:3:0:0:
23,244,215304,1,0,0:0:0:0:
74,152,215538,2,0,P|116:125|170:111,1,95.9999970703126,2|0,0:0|0:0,0:0:0:0:
314,203,216007,2,0,P|272:230|218:244,1,95.9999970703126,4|0,0:3|0:0,0:0:0:0:
130,78,216476,6,0,P|197:114|311:94,1,191.999994140625,2|4,0:2|0:3,0:0:0:0:
411,75,217179,2,0,P|440:78|469:88,1,47.9999985351563,0|0,0:0|0:0,0:0:0:0:
347,30,217413,2,0,P|299:43|248:44,1,95.9999970703126,2|0,0:0|0:0,0:0:0:0:
190,154,217882,2,0,P|237:155|284:168,1,95.9999970703126,4|0,0:3|0:0,0:0:0:0:
318,268,218351,5,2,0:0:0:0:
283,285,218468,1,0,0:0:0:0:
245,290,218585,1,0,0:0:0:0:
209,275,218702,1,0,0:0:0:0:
186,244,218819,1,2,0:0:0:0:
107,173,219054,1,0,0:0:0:0:
15,225,219288,1,2,0:0:0:0:
23,329,219522,1,0,0:0:0:0:
119,372,219757,2,0,P|167:364|212:336,1,95.9999970703126,2|0,0:0|0:0,0:0:0:0:
255,246,220226,6,0,P|190:193|195:85,1,191.999994140625,2|0,0:0|0:0,0:0:0:0:
270,29,220929,2,0,P|181:93|97:78,1,191.999994140625,2|0,0:0|0:0,0:0:0:0:
19,145,221632,2,0,P|25:198|45:238,1,95.9999970703126,2|0,0:0|0:0,0:0:0:0:
147,255,222101,5,2,0:0:0:0:
180,237,222218,1,0,0:0:0:0:
204,208,222335,1,0,0:0:0:0:
212,170,222452,1,0,0:0:0:0:
203,132,222569,1,0,0:0:0:0:
304,161,222804,1,0,0:0:0:0:
395,108,223038,2,0,P|418:72|429:17,1,95.9999970703126,2|0,0:0|0:0,0:0:0:0:
453,189,223507,2,0,P|440:237|445:293,1,95.9999970703126,4|0,0:3|0:0,0:0:0:0:
348,331,223976,6,0,P|272:280|159:301,1,191.999994140625,2|0,0:0|0:0,0:0:0:0:
94,358,224679,1,0,0:0:0:0:
22,280,224913,2,0,P|6:200|74:118,1,191.999994140625,2|4,0:0|0:3,0:0:0:0:
175,98,225616,1,0,0:0:0:0:
251,157,225851,6,0,L|236:254,1,88.000002685547,2|0,0:0|0:0,0:0:0:0:
341,207,226319,2,0,L|299:285,1,80,4|0,0:3|0:0,0:0:0:0:
407,270,226788,2,0,L|353:328,1,71.9999978027344,2|0,0:0|0:0,0:0:0:0:
448,339,227257,1,8,0:0:0:0:
436,133,227726,6,0,L|442:68,1,64,2|0,0:0|0:0,0:0:0:0:
331,38,228194,2,0,B|338:70|338:70|355:98,1,64,2|0,0:0|0:0,0:0:0:0:
246,154,228663,2,0,B|255:119|255:119|256:84,1,64,2|0,0:0|0:0,0:0:0:0:
160,34,229132,2,0,L|171:106,1,64,2|0,0:0|0:0,0:0:0:0:
82,186,229601,5,2,0:0:0:0:
99,262,229835,1,0,0:0:0:0:
186,229,230069,1,2,0:0:0:0:
168,305,230304,1,0,0:0:0:0:
280,346,230538,2,0,P|272:310|273:279,1,64,2|0,0:0|0:0,0:0:0:0:
377,240,231007,2,0,P|374:275|362:304,1,64,2|0,0:0|0:0,0:0:0:0:
289,186,231476,5,2,0:0:0:0:
362,149,231710,1,0,0:0:0:0:
267,161,231944,1,2,0:0:0:0:
322,87,232179,1,0,0:0:0:0:
239,144,232413,1,2,0:0:0:0:
259,45,232647,1,0,0:0:0:0:
200,138,232882,1,2,0:0:0:0:
186,33,233116,1,0,0:0:0:0:
100,98,233351,5,2,0:0:0:0:
21,127,233585,1,0,0:0:0:0:
100,98,233819,1,2,0:0:0:0:
47,200,234054,1,0,0:0:0:0:
100,98,234288,1,2,0:0:0:0:
123,227,234522,1,0,0:0:0:0:
100,98,234757,1,2,0:0:0:0:
202,202,234991,1,0,0:0:0:0:
225,111,235226,6,0,P|214:81|193:54,1,64,2|0,0:0|0:0,0:0:0:0:
287,173,235694,2,0,P|316:162|343:141,1,64,2|0,0:0|0:0,0:0:0:0:
224,235,236163,2,0,P|234:264|255:291,1,64,2|0,0:0|0:0,0:0:0:0:
162,173,236632,2,0,P|132:183|105:204,1,64,2|0,0:0|0:0,0:0:0:0:
84,277,237101,5,2,0:0:0:0:
109,349,237335,1,0,0:0:0:0:
180,375,237569,1,2,0:0:0:0:
252,349,237804,1,0,0:0:0:0:
294,164,238038,5,2,0:0:0:0:
366,138,238273,1,0,0:0:0:0:
437,164,238507,1,2,0:0:0:0:
462,236,238741,1,0,0:0:0:0:
465,313,238976,6,0,P|452:345|433:371,1,64,2|0,0:0|0:0,0:0:0:0:
378,268,239444,2,0,P|369:233|370:200,1,64,2|0,0:0|0:0,0:0:0:0:
276,264,239913,2,0,P|266:297|250:321,1,64,2|0,0:0|0:0,0:0:0:0:
203,191,240382,2,0,P|210:159|225:129,1,64,2|0,0:0|0:0,0:0:0:0:
135,253,240851,6,0,P|141:282|141:317,1,64,2|0,0:0|0:0,0:0:0:0:
83,179,241319,1,2,0:0:0:0:
24,107,241554,1,0,0:0:0:0:
74,30,241788,1,2,0:0:0:0:
164,54,242022,1,0,0:0:0:0:
168,144,242257,1,2,0:0:0:0:
102,103,242491,5,0,0:0:0:0:
