osu file format v14

[General]
AudioFilename: cYsmix - bells!.mp3
AudioLeadIn: 0
PreviewTime: 16547
Countdown: 0
SampleSet: Soft
StackLeniency: 0.7
Mode: 0
LetterboxInBreaks: 0
EpilepsyWarning: 1
WidescreenStoryboard: 1

[Editor]
Bookmarks: 1894,75855
DistanceSpacing: 1
BeatDivisor: 8
GridSize: 4
TimelineZoom: 1.1

[Metadata]
Title:bells!
TitleUnicode:bells!
Artist:cYsmix
ArtistUnicode:cYsmix
Creator:Gero
Version:easy!
Source:osu!
Tags:merry xmas x-mas white snow winter orchestra menu theme remix click the circles! nekodex
BeatmapID:1160178
BeatmapSetID:547772

[Difficulty]
HPDrainRate:2
CircleSize:3
OverallDifficulty:2
ApproachRate:3
SliderMultiplier:1.8
SliderTickRate:2

[Events]
//Background and Video events
0,0,"BG.jpg",0,0
//Break Periods
//Storyboard Layer 0 (Background)
//Storyboard Layer 1 (Fail)
//Storyboard Layer 2 (Pass)
//Storyboard Layer 3 (Foreground)
//Storyboard Sound Samples

[TimingPoints]
1894,923.076923076923,4,2,1,60,1,0
72970,-100,4,2,1,50,0,0
73086,-100,4,2,1,40,0,0
73894,-100,4,2,1,30,0,0
74817,-100,4,2,1,20,0,0
75855,-100,4,2,1,10,0,0

[Colours]
Combo1 : 130,130,130
Combo2 : 102,186,92
Combo3 : 225,102,81
Combo4 : 203,105,188

[HitObjects]
105,192,1894,6,0,B|180:144|248:188|256:192|264:196|332:240|407:192,2,315,2|2|0,0:0|0:0|0:0,0:0:0:0:
41,255,5586,2,0,L|264:32,2,315,2|2|0,0:0|0:0|0:0,0:0:0:0:
104,318,9278,6,0,B|117:342|145:362|178:358|178:358|205:340|215:307|209:279,1,180,2|2,0:0|0:0,0:0:0:0:
256,204,10663,1,0,0:0:0:0:
302,279,11124,2,0,B|296:307|306:340|333:358|333:358|366:362|394:342|408:318,1,180,2|2,0:0|0:0,0:0:0:0:
471,254,12509,1,2,0:0:0:0:
407,192,12970,6,0,B|328:252|256:192|132:192|56:-4|256:-107|456:-4|380:192|256:192|184:252|105:192,1,720,2|2,0:0|0:0,0:0:0:0:
41,254,17124,5,0,0:0:0:0:
103,317,17586,2,0,P|145:331|187:317,1,90,2|0,0:0|0:0,0:0:0:0:
256,256,18509,1,2,0:0:0:0:
325,317,18970,2,0,P|367:331|409:317,2,90,0|2|2,0:0|0:0|0:0,0:0:0:0:
256,256,20355,6,0,L|256:121,2,135,2|2|0,0:0|0:0|0:0,0:0:0:0:
187,317,22201,2,0,B|232:328|256:371|256:371|280:328|325:317,1,180,2|2,0:0|0:0,0:0:0:0:
388,256,23586,1,2,0:0:0:0:
452,192,24047,6,0,B|452:120|384:64|296:72|256:132|256:132|216:72|128:64|60:120|60:192,1,540,2|2,0:0|0:0,0:0:0:0:
124,256,27278,1,0,0:0:0:0:
187,317,27740,6,0,B|232:328|256:371|256:371|280:328|325:317,1,180,2|2,0:0|0:0,0:0:0:0:
388,256,29124,1,0,0:0:0:0:
325,195,29586,2,0,B|280:184|256:141|256:141|232:184|187:195,1,180,2|2,0:0|0:0,0:0:0:0:
124,134,30970,1,0,0:0:0:0:
60,196,31432,6,0,B|60:220|43:236|43:236|60:252|60:276,1,90,2|0,0:0|0:0,0:0:0:0:
139,236,32355,2,0,B|139:260|156:276|156:276|139:292|139:316,1,90,2|0,0:0|0:0,0:0:0:0:
58,357,33278,2,0,P|139:324|220:358,1,180,2|2,0:0|0:0,0:0:0:0:
256,276,34663,1,2,0:0:0:0:
292,193,35124,6,0,B|264:180|256:139|256:139|248:180|220:193,2,135,2|2|0,0:0|0:0|0:0,0:0:0:0:
256,276,36970,2,0,L|256:96,1,180,2|2,0:0|0:0,0:0:0:0:
192,32,38355,1,2,0:0:0:0:
128,95,38817,6,0,B|128:156|128:156|128:244|192:284|256:298|256:298|320:284|384:244|384:156|384:156|384:95,1,540,2|2,0:0|0:0,0:0:0:0:
320,32,42047,1,0,0:0:0:0:
256,96,42509,6,0,L|446:286,1,270,2|2,0:0|0:0,0:0:0:0:
382,349,44355,2,0,B|342:369|342:369|302:349,1,90,2|0,0:0|0:0,0:0:0:0:
210,349,45278,2,0,B|170:369|170:369|130:349,1,90,2|2,0:0|0:0,0:0:0:0:
169,268,46201,6,0,P|256:183|343:268,1,270,2|0,0:0|0:0,0:0:0:0:
424,224,48047,2,0,P|377:147|301:101,1,180,2|2,0:0|0:0,0:0:0:0:
256,180,49432,1,2,0:0:0:0:
210,101,49894,6,0,P|134:147|87:224,1,180,2|2,0:0|0:0,0:0:0:0:
256,288,51740,1,2,0:0:0:0:
424,224,52663,1,2,0:0:0:0:
340,188,53124,1,2,0:0:0:0:
256,150,53586,6,0,P|172:122|88:150,1,180,2|2,0:0|0:0,0:0:0:0:
8,192,54970,1,0,0:0:0:0:
88,234,55432,2,0,P|172:262|256:234,1,180,2|2,0:0|0:0,0:0:0:0:
336,192,56817,1,2,0:0:0:0:
416,149,57278,6,0,B|495:192|495:192|416:235,1,180,2|2,0:0|0:0,0:0:0:0:
479,298,58663,1,0,0:0:0:0:
415,361,59124,2,0,P|373:375|331:361,1,90,2|0,0:0|0:0,0:0:0:0:
256,312,60047,1,2,0:0:0:0:
180,361,60509,1,0,0:0:0:0:
105,312,60970,6,0,B|105:241|144:192|212:192|212:192|212:244|256:262|256:262|300:244|300:192|300:192|368:192|407:241|407:312,1,540,2|2,0:0|0:0,0:0:0:0:
442,136,64663,6,0,B|406:88|358:88|358:88|324:88,1,135,2|2,0:0|0:0,0:0:0:0:
188,88,66047,2,0,B|153:88|153:88|105:88|69:136,2,135,2|2|2,0:0|0:0|0:0,0:0:0:0:
256,28,67894,1,2,0:0:0:0:
324,88,68355,6,0,B|324:168|324:168|328:176|328:176|332:184|332:184|332:266,1,180,2|2,0:0|0:0,0:0:0:0:
256,316,69740,1,0,0:0:0:0:
180,266,70201,2,0,B|180:184|180:184|184:176|184:176|188:168|188:168|188:88,1,180,2|2,0:0|0:0,0:0:0:0:
256,28,71586,1,2,0:0:0:0:
324,88,72047,6,0,B|337:112|365:132|398:128|398:128|425:110|435:77|429:49,1,180,2|2,0:0|0:0,0:0:0:0:
256,192,73086,12,2,75855,0:0:0:0:
