osu file format v14

[General]
AudioFilename: cYsmix - Manic 224.mp3
AudioLeadIn: 0
PreviewTime: 52858
Countdown: 0
SampleSet: Normal
StackLeniency: 0.2
Mode: 0
LetterboxInBreaks: 0
WidescreenStoryboard: 1

[Editor]
Bookmarks: 1258,11258,20858,27258,33658,40058,46458,52458,52858,57858,59258,65658,72058,77858,78458,88058,96458,97658,103658,104058,110458,116858,127558,127758,129258,129658,131658,136058,140858,142458,148858,161658,169258,169658,182458
DistanceSpacing: 0.8
BeatDivisor: 8
GridSize: 4
TimelineZoom: 1.6

[Metadata]
Title:Manic
TitleUnicode:Manic
Artist:cYsmix
ArtistUnicode:cYsmix
Creator:Bluekrait
Version:Normal
Source:osu!
Tags:complextro 8 bit beatmapping beat mapping contest with rewards ephemeral bluekrait
BeatmapID:799127
BeatmapSetID:361502

[Difficulty]
HPDrainRate:3
CircleSize:3.5
OverallDifficulty:4
ApproachRate:5
SliderMultiplier:1.2
SliderTickRate:1

[Events]
//Background and Video events
0,0,"osu!cysmix-bgtiny.jpg",0,0
//Break Periods
2,78458,86858
//Storyboard Layer 0 (Background)
//Storyboard Layer 1 (Fail)
//Storyboard Layer 2 (Pass)
//Storyboard Layer 3 (Foreground)
//Storyboard Sound Samples

[TimingPoints]
1658,400,4,1,1,55,1,0
14058,-100,4,3,0,65,0,0
14458,-100,4,1,1,35,0,0
15258,-100,4,1,1,30,0,0
16058,-100,4,1,1,35,0,0
20858,-100,4,1,1,55,0,0
40058,-100,4,1,1,35,0,0
46458,-100,4,3,0,45,0,0
48058,-100,4,3,0,55,0,0
49658,-100,4,3,0,65,0,0
51258,-100,4,3,0,55,0,0
51458,-100,4,3,0,60,0,0
51658,-100,4,3,0,65,0,0
51858,-100,4,3,0,70,0,0
52458,-100,4,1,1,75,0,0
52858,-100,4,1,1,75,0,1
64458,-100,4,1,1,75,0,0
65658,-100,4,1,1,75,0,1
77658,-200,4,1,1,5,0,0
88058,-100,4,3,0,25,0,0
88858,-100,4,3,0,35,0,0
89158,-100,4,3,0,25,0,0
89358,-100,4,3,0,35,0,0
89458,-100,4,3,0,25,0,0
89558,-100,4,3,0,35,0,0
89658,-100,4,3,0,35,0,0
91258,-100,4,1,1,75,0,0
91458,-100,4,1,1,45,0,0
97658,-100,4,3,0,55,0,0
104058,-100,4,1,1,55,0,0
110458,-100,4,1,1,65,0,0
116858,-100,4,1,1,35,0,0
123258,-100,4,3,0,45,0,0
124858,-100,4,3,0,55,0,0
126458,-100,4,3,0,65,0,0
128058,-100,4,3,0,55,0,0
128458,-100,4,3,0,65,0,0
128858,-100,4,3,0,75,0,0
129258,-100,4,1,1,75,0,0
129658,-100,4,1,1,55,0,1
129758,-100,4,1,1,55,0,0
130458,-100,4,1,1,55,0,1
130558,-100,4,1,1,55,0,0
131258,-100,4,1,1,55,0,1
131358,-100,4,1,1,55,0,0
132058,-100,4,1,1,75,0,0
132858,-100,4,1,1,75,0,1
141658,-100,4,1,1,75,0,0
142458,-100,4,1,1,75,0,1
148458,-100,4,1,1,75,0,0
148858,-100,4,1,1,75,0,1
150258,-95.2380952380952,4,1,1,75,0,1
150358,-100,4,1,1,75,0,1
154058,-100,4,1,1,75,0,0
155258,-100,4,1,1,75,0,1
161258,-100,4,1,1,75,0,0
161658,-100,4,1,1,75,0,1
167258,-100,4,1,1,45,0,0
167558,-100,4,1,1,25,0,0
167858,-100,4,1,1,5,0,0

[Colours]
Combo1 : 255,159,203
Combo2 : 255,255,128
Combo3 : 220,190,0
Combo4 : 128,255,255
Combo5 : 0,128,255
Combo6 : 255,255,255
Combo7 : 255,102,170

[HitObjects]
256,196,1258,53,12,0:0:0:0:
308,128,1658,2,0,P|340:188|324:248,1,120,0|0,0:0|2:0,0:0:0:0:
304,276,2258,1,0,0:0:0:0:
260,292,2458,1,0,0:0:0:0:
256,196,2858,2,0,B|216:140|216:140|164:116,1,120,0|0,0:0|2:0,0:0:0:0:
124,104,3458,1,0,0:0:0:0:
80,116,3658,1,0,0:0:0:0:
76,212,4058,86,0,P|135:222|192:200,1,120,0|0,0:0|2:0,0:0:0:0:
224,168,4658,1,0,0:0:0:0:
272,160,4858,1,0,0:0:0:0:
296,252,5258,2,0,B|312:304|312:304|372:336,1,120,0|0,0:0|2:0,0:0:0:0:
416,336,5858,1,0,0:0:0:0:
460,312,6058,1,0,0:0:0:0:
388,248,6458,6,0,P|384:188|404:124,1,120,0|0,0:0|2:0,0:0:0:0:
420,88,7058,1,0,0:0:0:0:
384,60,7258,1,0,0:0:0:0:
320,132,7658,86,0,B|312:156|308:180|308:180|264:112,1,120
200,52,8458,1,0,0:1:0:0:
188,148,8858,2,0,P|172:204|112:244,1,120,0|8,0:1|0:1,0:1:0:0:
92,148,9658,5,0,0:1:0:0:
104,52,10058,1,0,0:1:0:0:
200,52,10458,2,0,P|252:72|284:136,1,120,0|8,0:1|1:1,0:1:0:0:
284,220,11258,86,0,L|256:288,1,60
216,260,11658,2,0,L|194:316,1,60
148,300,12058,2,0,B|80:340|80:340|88:292,1,120,0|8,0:0|0:1,0:0:0:0:
124,212,12858,6,0,P|160:208|192:220,1,60
216,260,13258,2,0,P|236:284|276:300,1,60
308,300,13658,2,0,P|352:268|364:200,1,120,0|12,0:0|0:1,0:0:0:0:
284,220,14458,6,0,B|279:182|293:149|337:124|337:124|279:139|246:104|246:104|205:109,2,240
365,206,16458,69,0,0:0:0:0:
373,255,16658,1,0,0:0:0:0:
352,300,16858,2,0,B|341:330|341:330|294:306|248:318,1,120
160,332,17658,22,0,B|88:344|88:344|20:256,2,180
256,316,19258,70,0,B|309:307|309:307|330:334|364:344,1,120
387,250,20058,1,0,0:0:0:0:
292,228,20458,1,0,0:0:0:0:
256,316,20858,6,0,P|211:278|199:210,1,120
292,228,21658,2,0,B|292:164|292:164|312:104,1,120
388,168,22458,2,0,B|408:105|408:105|408:33,1,120
492,100,23258,85,0,0:0:0:0:
492,148,23458,1,0,0:0:0:0:
492,196,23658,2,0,B|492:240|492:240|472:272,1,60
452,288,24058,6,0,P|420:264|400:232,1,60
328,196,24658,2,0,P|312:232|316:276,1,60
264,336,25258,2,0,P|236:312|220:268,1,60
136,256,25858,2,0,P|112:272|60:280,1,60
72,184,26458,2,0,P|108:164|144:156,1,60
172,172,26858,2,0,P|208:180|244:180,1,60
276,164,27258,86,0,P|324:132|344:56,2,120
252,72,28458,1,0,0:0:0:0:
180,136,28858,2,0,B|180:200|180:200|232:252,2,120
276,164,30058,1,0,0:0:0:0:
220,240,30458,6,0,B|148:300|148:300|152:268,1,120
160,228,31058,2,0,B|168:172|168:172|125:116,1,120
140,76,31658,2,0,B|187:137|187:137|236:132,1,120
236,180,32258,2,0,B|296:252|296:252|264:248,1,120
220,240,32858,86,4,L|136:224,2,60
316,196,33658,6,0,P|316:163|300:128,2,60
236,180,34458,2,0,P|188:168|156:176,2,60
192,248,35258,2,0,P|162:266|144:294,2,60
220,324,36058,2,0,P|212:360|196:384,2,60
284,252,36858,86,0,B|307:292|356:312|356:312|375:288,1,120
371,244,37458,2,0,B|411:221|431:172|431:172|407:153,1,120
363,156,38058,2,0,B|340:116|291:96|291:96|272:120,1,120
275,164,38658,2,0,B|235:187|215:236|215:236|239:255,1,120
284,252,39258,6,4,P|295:268|339:308,2,60
275,164,40058,6,4,B|279:132|307:108|307:108|304:74|318:50,1,120,4|4,0:0|2:0,0:0:0:0:
403,96,40858,1,8,0:0:0:0:
367,184,41258,1,8,0:0:0:0:
307,104,41658,2,4,B|244:100|244:100|228:136|196:152,1,120,4|4,0:0|2:0,0:0:0:0:
151,219,42458,1,8,0:0:0:0:
208,297,42858,1,8,0:0:0:0:
112,308,43258,70,12,P|68:268|56:204,1,120,4|4,0:0|2:0,0:0:0:0:
116,131,44058,1,8,0:0:0:0:
209,144,44458,1,8,0:0:0:0:
248,52,44858,1,4,0:0:0:0:
340,42,45258,1,4,2:0:0:0:
432,32,45658,2,8,B|436:84|396:116|396:116|408:152,1,120
396,236,46458,22,0,L|373:169,1,60
340,212,46858,2,0,L|317:145,1,60
284,188,47258,2,0,B|264:132|264:132|224:124|196:80,1,120,8|8,0:1|0:1,0:0:0:0:
284,40,48058,70,0,L|260:104,1,60,0|2,0:0|0:0,0:0:0:0:
305,131,48458,2,0,L|281:195,1,60,0|2,0:0|0:0,0:0:0:0:
326,222,48858,2,8,B|304:280|304:280|336:292|368:328,1,120,8|8,0:1|0:1,0:1:0:0:
220,280,49658,22,0,B|168:272|148:228|148:228|116:220,2,120,0|0|0,0:0|2:0|0:0,0:0:0:0:
248,240,50658,2,0,B|304:256|304:256|332:184,1,120
276,200,51258,70,4,L|252:136,1,60,4|6,0:0|0:0,0:0:0:0:
304,160,51658,2,4,L|280:96,1,60,4|6,0:0|0:0,0:0:0:0:
328,124,52058,2,4,L|304:60,1,60,4|6,0:0|0:0,0:0:0:0:
292,24,52458,21,4,0:1:0:0:
432,68,52858,38,0,P|432:128|371:140,1,120
408,192,53458,1,0,0:0:0:0:
436,240,53658,1,0,0:0:0:0:
456,336,54058,2,0,P|400:328|352:272,1,120
380,240,54658,1,0,0:0:0:0:
408,192,54858,1,0,0:0:0:0:
332,268,55258,2,4,P|276:288|216:256,1,120,4|4,0:0|2:0,0:0:0:0:
240,160,56058,6,0,L|284:208,1,60
172,204,56658,2,0,L|128:156,1,60
140,52,57258,2,0,L|184:100,1,60
72,96,57858,2,0,L|28:48,1,60
20,160,58458,2,4,B|60:204|60:204|136:184,1,120
234,156,59258,86,0,B|192:236|192:236|192:272,1,120,0|0,0:0|2:0,0:0:0:0:
236,297,59858,1,0,0:0:0:0:
272,256,60058,1,0,0:0:0:0:
344,174,60458,2,0,B|300:144|300:144|208:160,1,120,0|0,0:0|2:0,0:0:0:0:
180,168,61058,1,0,0:0:0:0:
148,124,61258,1,0,0:0:0:0:
244,76,61658,2,0,B|309:64|309:64|368:76,1,120,0|0,0:0|2:0,0:0:0:0:
416,168,62458,6,0,L|456:224,1,60
344,240,63058,2,0,L|309:191,1,60
202,191,63658,2,0,L|168:240,1,60
61,216,64258,2,4,L|96:168,2,60,4|4|0,0:0|0:0|0:0,0:0:0:0:
116,308,65058,86,0,P|176:328|232:296,1,120
278,307,65658,22,0,B|318:295|318:295|414:311,1,120
484,244,66458,2,0,B|397:229,1,60
372,224,66858,1,0,0:0:0:0:
320,212,67058,2,0,B|392:188|392:188|412:144,1,120
428,96,67658,1,0,0:0:0:0:
320,108,68058,1,4,0:0:0:0:
268,200,68458,1,4,0:0:0:0:
212,120,68858,6,0,L|176:72,1,60
136,108,69258,2,0,L|100:60,1,60
60,96,69658,2,0,L|24:48,2,60
60,152,70258,2,0,B|56:200|100:228|100:228|116:268,1,120,0|0,0:1|0:0,0:0:0:0:
124,308,70858,1,0,0:0:0:0:
208,240,71258,2,4,B|184:228|184:228|168:188,1,60
136,156,71658,1,4,0:2:0:0:
164,52,72058,86,0,P|216:83|242:141,1,120
208,240,72858,2,0,B|229:207|229:207|276:214|304:173,1,120
344,152,73458,1,0,0:0:0:0:
390,121,73658,2,0,B|390:177|390:177|426:173|458:193,1,120
404,272,74458,2,0,L|368:332,1,60
326,314,74858,2,0,L|256:320,1,60
256,272,75258,2,0,L|198:288,1,60
152,300,75658,6,0,B|168:248|168:248|240:228,1,120
280,232,76258,1,0,0:0:0:0:
303,273,76458,1,0,0:0:0:0:
326,314,76658,2,0,P|373:230|336:156,1,180
256,192,88058,12,0,90458,0:0:0:0:
340,246,91258,86,0,P|361:191|356:132,1,120
312,112,91858,1,0,0:0:0:0:
269,93,92058,2,0,B|288:56|288:56|368:36,1,120
355,131,92858,6,0,B|336:168|336:168|256:188,1,120
212,180,93458,1,0,0:0:0:0:
184,140,93658,2,0,L|128:184,2,60
269,93,94458,86,0,P|309:141|313:205,1,120
300,244,95058,1,0,0:0:0:0:
286,292,95258,2,0,L|144:328,1,120
104,252,96058,6,0,B|175:235|175:235|180:180,2,120
76,212,97058,1,0,0:0:0:0:
52,172,97258,2,0,L|58:90,1,60
104,100,97658,86,0,L|108:28,2,60,0|2|0,0:0|0:0|0:0,0:0:0:0:
128,140,98258,1,2,0:0:0:0:
152,180,98458,2,0,L|296:208,1,120,0|2,0:0|0:0,0:0:0:0:
364,200,99258,6,0,L|422:188,2,60,0|2|0,0:0|0:0|0:0,0:0:0:0:
344,248,99858,1,2,0:0:0:0:
324,296,100058,2,0,B|280:272|280:272|268:188,1,120,0|2,0:0|0:0,0:0:0:0:
184,268,100858,86,0,B|174:334,2,60
168,216,101458,1,2,0:0:0:0:
152,164,101658,2,0,B|161:105|161:105|216:60,1,120,0|2,0:0|0:0,0:0:0:0:
312,40,102458,6,4,B|324:108|276:148|276:148|316:140|316:140|376:192|376:192|440:180,1,300,0|6,0:0|0:0,0:0:0:0:
488,172,103658,1,6,0:0:0:0:
432,264,104058,86,0,L|354:280,1,60,0|2,0:0|0:3,0:0:0:0:
320,288,104458,1,0,0:0:0:0:
232,224,104858,2,0,L|310:208,1,60,0|2,0:0|0:3,0:0:0:0:
344,200,105258,1,0,0:0:0:0:
376,96,105658,6,0,P|408:112|432:136,1,60,0|2,0:0|0:3,0:0:0:0:
452,176,106058,1,0,0:0:0:0:
420,280,106458,2,0,P|388:264|364:240,1,60,0|2,0:0|0:3,0:0:0:0:
344,200,106858,1,0,0:0:0:0:
268,120,107258,86,0,B|213:138|213:138|204:155|204:155|164:171,1,120,0|2,0:0|0:3,0:0:0:0:
152,224,107858,2,0,B|187:213|187:213|212:232|212:232|276:232,1,120,0|2,0:0|0:3,0:0:0:0:
316,232,108458,2,0,B|348:256|348:256|364:256|364:256|372:320,1,120,0|2,0:0|0:3,0:0:0:0:
324,344,109058,2,0,B|280:308|280:308|216:308,1,120,0|2,0:0|0:3,0:0:0:0:
165,282,109658,6,0,L|149:214,1,60,0|2,0:0|1:0,0:0:0:0:
100,236,110058,2,0,L|84:168,1,60
35,190,110458,86,0,L|19:122,1,60,0|2,0:0|0:3,0:0:0:0:
8,80,110858,1,0,0:0:0:0:
72,0,111258,2,0,L|88:68,1,60,0|2,0:0|0:3,0:0:0:0:
99,110,111658,1,0,0:0:0:0:
168,192,112058,6,0,P|172:164|188:136,1,60,0|2,0:0|0:3,0:0:0:0:
232,108,112458,1,0,0:0:0:0:
332,148,112858,2,0,P|341:174|344:212,1,60,0|2,0:0|0:3,0:0:0:0:
320,252,113258,1,0,0:0:0:0:
256,192,113658,86,0,B|168:192|168:192|148:232,1,120,0|2,0:0|0:3,0:0:0:0:
136,272,114258,2,0,B|212:272|212:272|236:312,1,120,0|2,0:0|0:3,0:0:0:0:
256,360,114858,2,0,B|272:380|272:380|328:340|308:280,1,120,0|2,0:0|0:3,0:0:0:0:
320,252,115458,2,0,B|304:220|304:220|352:136,1,120,0|2,0:0|0:3,0:0:0:0:
332,100,116058,6,4,L|360:47,2,60,4|4|4,0:0|0:0|0:3,0:0:0:0:
252,156,116858,6,8,B|216:216|216:216|236:260|236:260|208:252|208:252|168:288|112:272,1,240,8|0,0:0|0:0,0:0:0:0:
144,180,118058,1,8,0:0:0:0:
84,104,118458,2,8,B|120:76|160:76|196:96|196:96|204:40|216:80|216:80|256:60|304:92,1,240,8|0,0:0|0:0,0:0:0:0:
360,132,119658,1,8,0:0:0:0:
252,156,120058,69,0,0:0:0:0:
316,228,120458,1,0,0:0:0:0:
304,324,120858,2,0,B|340:328|370:308|370:308|380:331|404:348,1,120,8|8,0:0|0:0,0:0:0:0:
460,264,121658,1,0,0:0:0:0:
404,188,122058,1,0,0:0:0:0:
316,228,122458,2,8,B|264:223|264:223|249:144,1,120
152,112,123258,22,0,L|174:229,1,120,0|0,1:0|1:0,1:0:0:0:
208,329,124058,2,8,P|148:332|97:303,1,120,8|8,0:1|0:1,0:0:0:0:
96,248,124658,1,0,0:0:0:0:
95,193,124858,70,0,P|152:212|220:180,1,120,0|2,0:0|0:0,0:0:0:0:
288,124,125658,2,8,P|344:92|416:112,1,120,8|8,0:1|0:1,0:1:0:0:
408,152,126258,1,2,0:0:0:0:
360,180,126458,22,0,P|352:240|376:296,1,120,0|2,0:0|0:0,0:0:0:0:
460,224,127258,2,8,B|392:220|392:220|351:169,1,120,8|8,0:1|0:1,0:1:0:0:
312,208,127858,1,2,0:0:0:0:
260,196,128058,70,4,L|201:226,1,60,4|6,0:0|0:0,0:0:0:0:
236,268,128458,2,4,L|177:298,1,60,4|6,0:0|0:0,0:0:0:0:
212,340,128858,2,4,L|153:370,1,60,4|6,0:0|0:0,0:0:0:0:
106,355,129258,21,6,0:0:0:0:
144,256,129658,38,0,B|161:204|161:204|137:196|137:196|133:144,1,120
244,156,130458,2,0,B|227:108|227:108|203:104|203:104|172:60,1,120
276,20,131258,2,0,B|316:44|316:44|308:88|308:88|324:136,1,120
424,100,132058,22,0,B|436:92|452:88|452:88|444:52,2,60
376,128,132658,1,0,0:0:0:0:
364,180,132858,86,0,B|316:308,1,120,0|0,0:0|2:0,0:0:0:0:
368,284,133458,2,0,L|344:348,1,60
252,336,134058,2,0,B|236:296|236:296|264:220,1,120,0|0,0:0|2:0,0:0:0:0:
236,176,134658,2,0,L|206:257,1,60
156,324,135258,2,4,L|130:269,2,60
52,292,136058,86,0,P|60:228|104:192,1,120,0|0,0:0|1:0,0:0:0:0:
156,192,136658,1,0,0:0:0:0:
200,224,136858,1,0,0:0:0:0:
288,288,137258,2,0,P|308:232|292:168,1,120
248,200,137858,1,0,0:0:0:0:
204,168,138058,1,0,0:0:0:0:
212,60,138458,2,4,B|244:64|272:84|272:84|300:76|332:88,1,120,4|4,0:0|2:0,0:0:0:0:
432,108,139258,6,0,P|416:144|384:172,1,60
295,174,139858,2,0,P|294:203|302:232,1,60
260,332,140458,2,0,P|236:308|216:260,1,60
200,180,141058,2,0,P|168:192|136:220,1,60
120,312,141658,85,0,0:0:0:0:
168,316,141858,2,0,B|196:352|196:352|187:308|220:280,1,120
208,232,142458,22,0,B|152:216|152:216|116:152,1,120
224,132,143258,2,0,L|281:148,1,60
332,168,143658,1,0,0:0:0:0:
383,188,143858,2,4,B|403:236|403:236|385:276|396:314,1,120,0|0,0:0|0:0,0:0:0:0:
416,352,144458,1,0,0:0:0:0:
500,284,144858,1,4,0:0:0:0:
472,180,145258,1,4,0:0:0:0:
388,248,145658,6,0,L|326:290,1,60
304,241,146058,2,0,L|236:208,1,60
269,165,146458,2,0,L|262:89,2,60
320,184,147058,2,0,P|348:152|352:64,1,120
340,24,147658,1,0,0:0:0:0:
264,105,148058,1,4,0:0:0:0:
188,186,148458,1,4,0:0:0:0:
156,80,148858,86,0,B|84:44|84:44|68:104,1,120
172,133,149658,2,0,B|244:169|244:169|248:220,1,120
276,256,150258,2,0,B|324:236|324:236|332:144,1,125.999996154785
288,128,150858,1,0,0:0:0:0:
300,20,151258,2,0,P|330:28|362:48,1,60
380,92,151658,2,0,P|388:132|376:168,1,60
330,162,152058,6,0,P|328:192|344:232,1,60
368,264,152458,2,0,P|392:280|435:286,1,60
460,248,152858,1,0,0:0:0:0:
428,204,153058,1,0,0:0:0:0:
384,172,153258,1,0,0:0:0:0:
330,162,153458,2,0,B|308:168|288:184|272:212|272:212|256:204|256:204|248:228|248:228|232:208|192:200,1,180
256,96,154458,69,6,0:3:0:0:
296,60,154658,2,0,L|352:36,2,60,0|2|0,0:3|0:3|0:3,0:3:0:0:
245,44,155258,70,0,B|197:80|197:80|145:48|145:48|129:84|97:96,1,180
121,162,156058,1,0,0:0:0:0:
190,181,156258,1,0,0:0:0:0:
260,168,156458,1,0,0:0:0:0:
330,155,156658,2,0,B|400:142|400:142|424:184|424:184|504:200,1,180
492,340,157658,1,4,0:0:0:0:
356,296,158058,1,4,0:0:0:0:
330,155,158458,86,0,L|294:101,1,60
236,111,158858,2,0,L|187:68,1,60
134,93,159258,2,0,L|75:64,2,60
152,148,159858,2,0,B|200:188|200:188|224:240|224:240|254:206|280:192,1,180
400,142,160858,2,4,L|436:214,1,60
392,246,161258,2,4,L|428:318,1,60
472,332,161658,6,0,B|496:296|496:252|496:252|508:236|516:204,1,120,0|0,0:0|2:0,0:0:0:0:
460,188,162258,1,0,0:0:0:0:
470,129,162458,2,0,B|440:80|440:80|372:68,1,120
332,108,163058,1,0,0:0:0:0:
285,146,163258,86,0,B|238:184|238:184|168:172,1,120
120,216,163858,1,0,0:0:0:0:
47,209,164058,2,0,L|61:137,1,60
121,135,164458,2,0,L|180:94,1,60
226,135,164858,2,0,L|297:148,1,60
298,208,165258,6,0,B|332:258|332:258|316:320,1,120
251,274,165858,1,0,0:0:0:0:
220,208,166058,1,0,0:0:0:0:
226,135,166258,2,0,B|188:128|148:160|144:204|144:204|143:256|143:256|89:223|89:223|85:268|85:268|67:283|18:256|18:256|9:227|13:182|38:161|70:150,1,480
