osu file format v14

[General]
AudioFilename: cYsmix - Manic 224.mp3
AudioLeadIn: 0
PreviewTime: 52858
Countdown: 0
SampleSet: Normal
StackLeniency: 0.2
Mode: 0
LetterboxInBreaks: 0
WidescreenStoryboard: 0

[Editor]
Bookmarks: 1258,8058,11258,17658,18258,18858,19458,20058,20658,20858,27258,33658,41158,41258,41458,42758,42858,43058,44358,44458,44658,45958,46058,46258,47558,47758,49158,49358,50758,50958,52458,52858,57258,59258,62858,65058,65658,72058,78458,79558,79658,79858,80358,81158,81658,82758,82858,83058,83558,84358,84858,85958,86058,86258,86758,87558,88058,91258,96458,97658,103658,104058,105558,110458,116858,117958,118258,119558,119858,121158,121458,122758,123058,123258,124358,124558,125958,126158,127558,127758,129258,129658,131658,136058,141858,142058,142258,142458,148858,154658,155258,161658,163358,169258,169658,182458
DistanceSpacing: 1.55
BeatDivisor: 16
GridSize: 4
TimelineZoom: 2.3

[Metadata]
Title:Manic
TitleUnicode:Manic
Artist:cYsmix
ArtistUnicode:cYsmix
Creator:Bluekrait
Version:690 style
Source:osu!
Tags:complextro 8 bit beatmapping beat mapping contest with rewards ephemeral bluekrait
BeatmapID:794250
BeatmapSetID:361502

[Difficulty]
HPDrainRate:5.5
CircleSize:4
OverallDifficulty:8
ApproachRate:9.2
SliderMultiplier:2
SliderTickRate:1

[Events]
//Background and Video events
0,0,"osu!cysmix-bgtiny.jpg",0,0
//Break Periods
//Storyboard Layer 0 (Background)
//Storyboard Layer 1 (Fail)
//Storyboard Layer 2 (Pass)
//Storyboard Layer 3 (Foreground)
//Storyboard Sound Samples

[TimingPoints]
1658,400,4,1,1,55,1,0
8058,-125,4,1,1,55,0,0
8458,-100,4,1,1,55,0,0
8858,-83.3333333333333,4,1,1,55,0,0
9658,-111.111111111111,4,1,1,55,0,0
10058,-90.9090909090909,4,1,1,55,0,0
10458,-76.9230769230769,4,1,1,55,0,0
11258,-100,4,3,0,45,0,0
12058,-100,4,3,0,45,0,0
12858,-100,4,3,0,55,0,0
13058,-100,4,3,0,45,0,0
13258,-100,4,3,0,35,0,0
13658,-100,4,3,0,45,0,0
13958,-100,4,3,0,65,0,0
14058,-200,4,1,1,55,0,0
14358,-200,4,1,1,5,0,0
14458,-100,4,2,1,35,0,0
14858,-100,4,2,1,25,0,0
14958,-100,4,2,1,35,0,0
15058,-100,4,2,1,25,0,0
15258,-100,4,2,1,40,0,0
15658,-100,4,2,1,30,0,0
15758,-100,4,2,1,40,0,0
15858,-100,4,2,1,30,0,0
16058,-100,4,2,1,45,0,0
16458,-100,4,2,1,35,0,0
16558,-100,4,2,1,45,0,0
16658,-100,4,2,1,35,0,0
16858,-100,4,2,1,45,0,0
17658,-100,4,2,1,35,0,0
20858,-90.9090909090909,4,1,1,35,0,0
21658,-83.3333333333333,4,1,1,35,0,0
22458,-76.9230769230769,4,1,1,35,0,0
23658,-100,4,1,1,35,0,0
24058,-90.9090909090909,4,1,1,35,0,0
26858,-142.857142857143,4,1,1,35,0,0
27258,-90.9090909090909,4,1,1,45,0,0
30058,-142.857142857143,4,1,1,45,0,0
30458,-90.9090909090909,4,1,1,45,0,0
33258,-142.857142857143,4,1,1,45,0,0
33658,-83.3333333333333,4,1,1,55,0,0
36458,-142.857142857143,4,1,1,55,0,0
36858,-83.3333333333333,4,1,1,55,0,0
39658,-142.857142857143,4,1,1,55,0,0
40058,-100,4,1,1,35,0,0
41158,-142.857142857143,4,1,1,15,0,0
41458,-100,4,1,1,35,0,0
42758,-142.857142857143,4,1,1,20,0,0
43058,-100,4,1,1,35,0,0
44358,-100,4,1,1,30,0,0
44658,-100,4,1,1,35,0,0
46458,-100,4,3,0,45,0,0
48058,-100,4,3,0,55,0,0
49658,-100,4,3,0,60,0,0
51258,-100,4,3,0,55,0,0
51458,-100,4,3,0,60,0,0
51658,-100,4,3,0,65,0,0
51858,-100,4,3,0,70,0,0
52458,-200,4,1,1,75,0,0
52758,-200,4,1,1,5,0,0
52858,-76.9230769230769,4,1,1,75,0,1
52908,-76.9230769230769,4,1,1,5,0,1
53058,-76.9230769230769,4,1,1,75,0,1
53258,-50,4,1,1,75,0,1
53458,-71.4285714285714,4,1,1,75,0,1
53508,-71.4285714285714,4,1,1,5,0,1
53658,-71.4285714285714,4,1,1,75,0,1
53858,-50,4,1,1,75,0,1
54058,-66.6666666666667,4,1,1,75,0,1
54108,-66.6666666666667,4,1,1,5,0,1
54258,-66.6666666666667,4,1,1,75,0,1
54458,-50,4,1,1,75,0,1
54658,-66.6666666666667,4,1,1,75,0,1
54708,-66.6666666666667,4,1,1,5,0,1
54858,-66.6666666666667,4,1,1,75,0,1
55658,-76.9230769230769,4,1,1,75,0,1
56108,-76.9230769230769,4,1,1,5,0,1
56258,-76.9230769230769,4,1,1,75,0,1
56708,-76.9230769230769,4,1,1,5,0,1
56858,-76.9230769230769,4,1,1,75,0,1
57308,-76.9230769230769,4,1,1,5,0,1
57458,-76.9230769230769,4,1,1,75,0,1
57908,-76.9230769230769,4,1,1,5,0,1
58058,-76.9230769230769,4,1,1,75,0,1
58208,-76.9230769230769,4,1,1,5,0,1
58258,-76.9230769230769,4,1,1,75,0,1
58458,-66.6666666666667,4,1,1,75,0,1
58658,-58.8235294117647,4,1,1,75,0,1
58858,-50,4,1,1,75,0,1
59258,-76.9230769230769,4,1,1,75,0,1
59308,-76.9230769230769,4,1,1,5,0,1
59458,-76.9230769230769,4,1,1,75,0,1
59658,-50,4,1,1,75,0,1
59858,-71.4285714285714,4,1,1,75,0,1
59908,-71.4285714285714,4,1,1,5,0,1
60058,-71.4285714285714,4,1,1,75,0,1
60258,-50,4,1,1,75,0,1
60458,-66.6666666666667,4,1,1,75,0,1
60508,-66.6666666666667,4,1,1,5,0,1
60658,-66.6666666666667,4,1,1,75,0,1
60858,-50,4,1,1,75,0,1
61058,-66.6666666666667,4,1,1,75,0,1
61108,-66.6666666666667,4,1,1,5,0,1
61258,-66.6666666666667,4,1,1,75,0,1
62058,-76.9230769230769,4,1,1,75,0,1
62508,-76.9230769230769,4,1,1,5,0,1
62658,-76.9230769230769,4,1,1,75,0,1
63108,-76.9230769230769,4,1,1,5,0,1
63258,-76.9230769230769,4,1,1,75,0,1
63708,-76.9230769230769,4,1,1,5,0,1
63858,-76.9230769230769,4,1,1,75,0,1
64308,-76.9230769230769,4,1,1,5,0,1
64458,-76.9230769230769,4,1,1,75,0,1
64608,-76.9230769230769,4,1,1,5,0,1
64658,-76.9230769230769,4,1,1,75,0,1
64858,-50,4,1,1,75,0,0
65658,-71.4285714285714,4,1,1,75,0,1
66058,-66.6666666666667,4,1,1,75,0,1
66508,-66.6666666666667,4,1,1,5,0,1
66658,-66.6666666666667,4,1,1,75,0,1
68058,-76.9230769230769,4,1,1,75,0,1
68458,-66.6666666666667,4,1,1,75,0,1
71658,-200,4,1,1,75,0,0
72058,-66.6666666666667,4,1,1,75,0,1
73908,-66.6666666666667,4,1,1,5,0,1
74058,-66.6666666666667,4,1,1,75,0,1
76108,-66.6666666666667,4,1,1,5,0,1
76258,-66.6666666666667,4,1,1,75,0,1
76558,-66.6666666666667,4,1,1,5,0,1
77658,-200,4,1,1,5,0,0
77858,-200,4,1,1,65,0,0
78258,-200,4,1,1,45,0,0
78458,-142.857142857143,4,2,1,45,0,0
79558,-142.857142857143,4,1,1,25,0,0
80058,-142.857142857143,4,2,1,45,0,0
82758,-142.857142857143,4,1,1,25,0,0
83258,-142.857142857143,4,2,1,45,0,0
85958,-142.857142857143,4,1,1,25,0,0
86458,-142.857142857143,4,2,1,45,0,0
87558,-142.857142857143,4,2,1,25,0,0
87758,-142.857142857143,4,2,1,45,0,0
87858,-142.857142857143,4,2,1,25,0,0
87958,-142.857142857143,4,2,1,45,0,0
88058,-100,4,3,0,35,0,0
88108,-76.9230769230769,4,3,0,35,0,0
88858,-100,4,3,0,45,0,0
89158,-100,4,3,0,25,0,0
89358,-100,4,3,0,35,0,0
89458,-100,4,3,0,35,0,0
89558,-100,4,3,0,45,0,0
89658,-100,4,3,0,55,0,0
90058,-100,4,3,0,35,0,0
90258,-100,4,3,0,25,0,0
90458,-100,4,3,0,55,0,0
90759,-100,4,3,0,25,0,0
90858,-100,4,3,0,35,0,0
90958,-100,4,3,0,45,0,0
91058,-100,4,3,0,55,0,0
91158,-100,4,3,0,65,0,0
91258,-100,4,1,1,75,0,0
91458,-100,4,1,1,45,0,0
97658,-100,4,3,0,55,0,0
102458,-100,4,3,0,55,0,0
104058,-90.9090909090909,4,1,1,45,0,0
106858,-142.857142857143,4,1,1,45,0,0
107258,-90.9090909090909,4,1,1,45,0,0
110058,-142.857142857143,4,1,1,45,0,0
110458,-83.3333333333333,4,1,1,55,0,0
113258,-142.857142857143,4,1,1,55,0,0
113658,-83.3333333333333,4,1,1,55,0,0
116458,-142.857142857143,4,1,1,55,0,0
116858,-100,4,1,1,35,0,0
117958,-100,4,1,1,25,0,0
118258,-100,4,1,1,35,0,0
119558,-100,4,1,1,25,0,0
119858,-100,4,1,1,35,0,0
122758,-100,4,1,1,35,0,0
123258,-100,4,3,0,45,0,0
124858,-90.9090909090909,4,3,0,55,0,0
126458,-83.3333333333333,4,3,0,65,0,0
128058,-71.4285714285714,4,3,0,55,0,0
128458,-66.6666666666667,4,3,0,65,0,0
128858,-58.8235294117647,4,3,0,75,0,0
129258,-200,4,1,1,75,0,0
129558,-200,4,1,1,5,0,0
129658,-100,4,1,1,55,0,1
129758,-100,4,1,1,55,0,0
130458,-100,4,1,1,55,0,1
130558,-100,4,1,1,55,0,0
131258,-100,4,1,1,55,0,1
131358,-100,4,1,1,55,0,0
132058,-100,4,1,1,75,0,0
132108,-100,4,1,1,10,0,0
132158,-100,4,1,1,75,0,0
132208,-100,4,1,1,10,0,0
132258,-100,4,1,1,75,0,0
132308,-100,4,1,1,10,0,0
132358,-100,4,1,1,75,0,0
132408,-100,4,1,1,10,0,0
132458,-100,4,1,1,75,0,0
132858,-76.9230769230769,4,1,1,75,0,1
132908,-76.9230769230769,4,1,1,5,0,1
133058,-76.9230769230769,4,1,1,75,0,1
133258,-76.9230769230769,4,1,1,45,0,1
133458,-76.9230769230769,4,1,1,55,0,1
133508,-76.9230769230769,4,1,1,5,0,1
133658,-76.9230769230769,4,1,1,75,0,1
133858,-76.9230769230769,4,1,1,55,0,1
134058,-76.9230769230769,4,1,1,65,0,1
134108,-76.9230769230769,4,1,1,5,0,1
134258,-76.9230769230769,4,1,1,75,0,1
134458,-76.9230769230769,4,1,1,65,0,1
134658,-76.9230769230769,4,1,1,75,0,1
134708,-76.9230769230769,4,1,1,5,0,1
134858,-76.9230769230769,4,1,1,75,0,1
135258,-66.6666666666667,4,1,1,75,0,1
135458,-58.8235294117647,4,1,1,75,0,1
135658,-50,4,1,1,75,0,1
136058,-76.9230769230769,4,1,1,75,0,1
136108,-76.9230769230769,4,1,1,5,0,1
136258,-76.9230769230769,4,1,1,75,0,1
136458,-50,4,1,1,75,0,1
136658,-71.4285714285714,4,1,1,75,0,1
136708,-71.4285714285714,4,1,1,5,0,1
136858,-71.4285714285714,4,1,1,75,0,1
137058,-50,4,1,1,75,0,1
137258,-66.6666666666667,4,1,1,75,0,1
137308,-66.6666666666667,4,1,1,5,0,1
137458,-66.6666666666667,4,1,1,75,0,1
137658,-50,4,1,1,75,0,1
137858,-66.6666666666667,4,1,1,75,0,1
137908,-66.6666666666667,4,1,1,5,0,1
138058,-66.6666666666667,4,1,1,75,0,1
138858,-76.9230769230769,4,1,1,75,0,1
139308,-76.9230769230769,4,1,1,5,0,1
139458,-76.9230769230769,4,1,1,75,0,1
139908,-76.9230769230769,4,1,1,5,0,1
140058,-76.9230769230769,4,1,1,75,0,1
140508,-76.9230769230769,4,1,1,5,0,1
140658,-76.9230769230769,4,1,1,75,0,1
141108,-76.9230769230769,4,1,1,5,0,1
141258,-76.9230769230769,4,1,1,75,0,1
141658,-100,4,1,1,75,0,0
142058,-50,4,1,1,75,0,0
142258,-50,4,1,1,75,0,0
142458,-55.5555555555556,4,1,1,75,0,1
142858,-66.6666666666667,4,1,1,75,0,1
143308,-66.6666666666667,4,1,1,5,0,1
143458,-66.6666666666667,4,1,1,75,0,1
144858,-76.9230769230769,4,1,1,75,0,1
145258,-66.6666666666667,4,1,1,75,0,1
147708,-66.6666666666667,4,1,1,5,0,1
147858,-66.6666666666667,4,1,1,75,0,1
148458,-200,4,1,1,85,0,0
148858,-66.6666666666667,4,1,1,75,0,1
150708,-66.6666666666667,4,1,1,5,0,1
150858,-66.6666666666667,4,1,1,75,0,1
151658,-68.0272108843537,4,1,1,75,0,1
152908,-66.6666666666667,4,1,1,5,0,1
153058,-66.6666666666667,4,1,1,75,0,1
153358,-66.6666666666667,4,1,1,5,0,1
154458,-100,4,1,1,5,0,0
154658,-66.6666666666667,4,1,1,75,0,0
155258,-62.5,4,1,1,75,0,1
156308,-62.5,4,1,1,5,0,1
156458,-62.5,4,1,1,75,0,1
157708,-62.5,4,1,1,5,0,1
157858,-62.5,4,1,1,75,0,1
161258,-200,4,1,1,85,0,0
161658,-62.5,4,1,1,75,0,1
161708,-62.5,4,1,1,5,0,1
161858,-62.5,4,1,1,75,0,1
162108,-62.5,4,1,1,5,0,1
162258,-62.5,4,1,1,75,0,1
162508,-62.5,4,1,1,5,0,1
162658,-62.5,4,1,1,75,0,1
163508,-62.5,4,1,1,5,0,1
163658,-62.5,4,1,1,75,0,1
165708,-62.5,4,1,1,5,0,1
165858,-62.5,4,1,1,75,0,1
166158,-62.5,4,1,1,5,0,1
166258,-62.5,4,1,1,75,0,1
167458,-100,4,1,1,45,0,0
167758,-100,4,1,1,25,0,0
168058,-100,4,1,1,5,0,0

[Colours]
Combo1 : 255,159,203
Combo2 : 255,255,128
Combo3 : 220,190,0
Combo4 : 128,255,255
Combo5 : 0,128,255
Combo6 : 255,255,255
Combo7 : 255,102,170

[HitObjects]
256,192,58,12,12,1258,0:0:0:0:
124,168,1658,38,0,P|100:155|68:148,1,50,0|0,0:0|2:0,0:0:0:0:
68,245,1858,2,0,L|116:352,1,100
80,76,2258,1,0,0:0:0:0:
168,260,2458,1,0,0:0:0:0:
200,112,2658,1,0,0:0:0:0:
301,210,2858,6,0,P|328:224|360:228,1,50,0|0,0:0|2:0,0:0:0:0:
401,226,3058,2,0,P|352:240|312:312,1,100
432,76,3458,1,0,0:0:0:0:
400,312,3658,1,0,0:0:0:0:
301,210,3858,1,0,0:0:0:0:
480,180,4058,86,0,P|492:212|494:248,1,50,0|0,0:0|2:0,0:0:0:0:
400,312,4258,2,0,B|384:304|384:304|414:260|398:216,1,100
264,32,4658,1,0,0:0:0:0:
432,76,4858,1,0,0:0:0:0:
301,210,5058,1,0,0:0:0:0:
200,112,5258,6,0,L|248:52,1,50,0|0,0:0|2:0,0:0:0:0:
264,32,5458,2,0,P|301:63|304:137,1,100
68,245,5858,1,0,0:0:0:0:
124,168,6058,1,0,0:0:0:0:
248,352,6258,1,0,0:0:0:0:
301,210,6458,86,0,P|296:180|276:148,1,50,0|0,0:0|2:0,0:0:0:0:
211,210,6658,2,0,P|188:240|136:264,1,50,0|0,0:0|2:0,0:0:0:0:
124,168,6858,2,0,B|104:128|104:128|120:60,1,100
312,112,7258,1,0,0:0:0:0:
178,247,7458,1,0,0:0:0:0:
334,247,7658,6,0,P|348:228|348:196,1,50,0|0,0:0|2:0,0:0:0:0:
356,128,7858,2,0,P|380:133|400:147,1,50,0|0,0:0|2:0,0:0:0:0:
420,220,8058,86,0,B|438:298|438:298|400:268,1,120,0|0,0:0|2:0,0:0:0:0:
349,202,8458,6,0,B|259:173|259:173|317:160,1,150,0|0,0:0|2:0,0:0:0:0:
400,149,8858,86,0,B|469:85|469:85|450:144,1,119.999996337891,0|0,0:0|2:0,0:0:0:0:
371,258,9158,1,0,0:0:0:0:
326,284,9258,2,0,L|187:240,1,119.999996337891
256,60,9658,6,0,B|308:48|354:71|354:71|312:96,1,134.999995880127,0|0,0:0|2:0,0:0:0:0:
141,126,10058,86,0,B|157:74|200:46|200:46|192:112,1,165.000005035401,0|0,0:0|2:0,0:0:0:0:
141,258,10458,6,0,B|105:218|102:167|102:167|147:203,1,129.999994049073,0|0,0:0|2:0,0:0:0:0:
371,258,10758,1,0,0:0:0:0:
416,232,10858,2,0,B|484:192|484:192|504:112,1,129.999994049073,0|0,0:0|1:0,0:0:0:0:
409,354,11258,85,0,0:0:0:0:
380,362,11358,1,0,0:0:0:0:
351,361,11458,1,0,0:0:0:0:
322,351,11558,1,0,0:0:0:0:
281,310,11658,5,0,0:0:0:0:
268,272,11758,1,0,0:0:0:0:
272,232,11858,1,0,0:0:0:0:
288,196,11958,1,0,0:0:0:0:
324,120,12058,85,0,0:0:0:0:
294,112,12158,1,0,0:0:0:0:
264,115,12258,1,0,0:0:0:0:
237,129,12358,1,0,0:0:0:0:
200,200,12458,5,0,0:0:0:0:
183,225,12558,1,0,0:0:0:0:
159,243,12658,1,0,0:0:0:0:
130,250,12758,1,0,0:0:0:0:
68,216,12858,86,0,L|96:196,1,25
56,196,12958,2,0,L|96:180,1,25
52,172,13058,2,0,L|97:171,1,25
54,146,13158,2,0,L|96:160,1,25
66,124,13258,2,0,L|27:96,6,25
124,168,13658,5,8,2:0:0:0:
446,260,13958,5,0,0:0:0:0:
360,156,14058,2,4,P|320:144|284:144,1,75,12|0,3:2|2:0,0:0:0:0:
216,180,14458,69,0,0:0:0:0:
216,200,14558,1,0,0:0:0:0:
228,216,14658,1,0,0:0:0:0:
252,220,14758,1,0,0:0:0:0:
276,208,14858,1,0,1:0:0:0:
284,184,14958,1,0,0:0:0:0:
287,143,15058,2,0,P|298:113|321:91,1,50,0|0,1:0|0:0,0:0:0:0:
412,88,15258,21,0,0:0:0:0:
428,112,15358,1,0,0:0:0:0:
424,140,15458,1,0,0:0:0:0:
396,160,15558,1,0,0:0:0:0:
360,156,15658,1,0,1:0:0:0:
332,132,15758,1,0,0:0:0:0:
309,99,15858,2,0,P|285:71|249:55,1,50,0|0,1:0|0:0,0:0:0:0:
172,60,16058,69,0,0:0:0:0:
140,72,16158,1,0,0:0:0:0:
116,100,16258,1,0,0:0:0:0:
112,136,16358,1,0,0:0:0:0:
132,172,16458,1,0,1:0:0:0:
172,188,16558,1,0,0:0:0:0:
215,179,16658,2,0,L|233:113,1,50,0|0,1:0|0:0,0:0:0:0:
284,212,16858,21,0,0:0:0:0:
274,250,16958,1,0,0:0:0:0:
264,283,17058,1,0,0:0:0:0:
256,312,17158,1,0,0:0:0:0:
212,336,17258,69,0,1:0:0:0:
176,300,17358,1,0,0:0:0:0:
128,308,17458,1,0,1:0:0:0:
92,272,17558,1,0,0:0:0:0:
48,296,17658,22,0,P|48:328|64:364,1,50,0|0,1:0|0:0,0:0:0:0:
128,308,17858,1,0,1:0:0:0:
128,292,17958,1,0,0:0:0:0:
128,276,18058,2,0,L|168:232,1,50,0|0,1:0|0:0,0:0:0:0:
227,132,18258,70,0,P|217:155|215:179,1,50,0|0,1:0|0:0,0:0:0:0:
294,174,18458,1,0,1:0:0:0:
314,170,18558,1,0,0:0:0:0:
334,166,18658,2,0,L|390:154,1,50,0|0,1:0|0:0,0:0:0:0:
476,293,18858,22,0,L|420:281,1,50,0|0,1:0|0:0,0:0:0:0:
348,265,19058,1,0,1:0:0:0:
328,261,19158,1,0,0:0:0:0:
308,257,19258,2,0,L|300:177,1,50,0|0,1:0|0:0,0:0:0:0:
197,176,19458,70,0,L|192:225,1,50,0|0,1:0|0:0,0:0:0:0:
164,317,19658,1,0,1:0:0:0:
144,321,19758,1,0,0:0:0:0:
124,325,19858,2,0,L|128:275,1,50,0|0,1:0|0:0,0:0:0:0:
159,168,20058,21,0,1:0:0:0:
176,152,20158,1,0,0:0:0:0:
204,148,20258,2,0,L|256:168,1,50,0|0,1:0|0:0,0:0:0:0:
308,257,20458,1,0,0:0:0:0:
348,265,20558,1,0,0:0:0:0:
388,256,20658,2,0,L|440:236,1,50,0|0,1:0|0:0,0:0:0:0:
364,122,20858,70,0,P|332:92|284:84,1,55.0000016784668,0|0,0:0|2:0,0:0:0:0:
288,232,21058,2,0,P|276:268|248:288,1,55.0000016784668,0|0,0:0|2:0,0:0:0:0:
159,168,21258,22,0,L|103:116,3,55.0000016784668,0|0|0|0,2:0|2:0|2:0|2:0,2:0:0:0:
68,312,21658,70,0,P|96:328|136:328,1,59.9999981689454,0|0,0:0|2:0,0:0:0:0:
208,224,21858,2,0,P|220:188|256:156,1,59.9999981689454,0|0,0:0|2:0,0:0:0:0:
364,122,22058,22,0,P|396:124|424:144,3,59.9999981689454,0|0|0|0,2:0|2:0|2:0|2:0,2:0:0:0:
444,312,22458,70,0,P|416:328|372:328,1,64.9999970245363,0|0,0:0|2:0,0:0:0:0:
304,160,22658,2,0,P|284:120|232:100,1,64.9999970245363,0|0,0:0|2:0,0:0:0:0:
123,53,22858,22,0,P|93:56|60:76,3,64.9999970245363,0|0|0|0,2:0|2:0|2:0|2:0,2:0:0:0:
388,53,23258,70,0,P|418:56|452:76,1,64.9999970245363,0|0,0:0|2:0,0:0:0:0:
394,130,23458,2,0,P|374:156|352:204,1,64.9999970245363,0|0,0:0|2:0,0:0:0:0:
383,330,23658,22,0,P|388:262|313:231,1,150,0|0,0:0|2:0,0:0:0:0:
332,292,24058,70,0,L|324:372,1,55.0000016784668,0|0,0:0|2:0,0:0:0:0:
256,192,24258,2,0,L|264:112,3,55.0000016784668,0|0|0|0,0:0|2:0|2:0|2:0,0:0:0:0:
264,300,24658,6,0,L|256:380,1,55.0000016784668,0|0,0:0|2:0,0:0:0:0:
205,154,24858,2,0,L|213:74,3,55.0000016784668,0|0|0|0,0:0|2:0|2:0|2:0,0:0:0:0:
196,308,25258,86,0,L|188:388,1,55.0000016784668,0|0,0:0|2:0,0:0:0:0:
154,116,25458,2,0,L|162:36,3,55.0000016784668,0|0|0|0,0:0|2:0|2:0|2:0,0:0:0:0:
128,316,25858,6,0,L|120:396,1,55.0000016784668,0|0,0:0|2:0,0:0:0:0:
103,78,26058,2,0,L|111:-2,3,55.0000016784668,0|0|0|0,0:0|2:0|2:0|2:0,0:0:0:0:
60,324,26458,86,0,L|52:404,1,55.0000016784668,0|0,0:0|2:0,0:0:0:0:
52,40,26658,2,0,L|59:-40,1,55.0000016784668,0|0,0:0|2:0,0:0:0:0:
332,292,26858,22,0,P|380:292|416:244,1,104.999996795654,0|0,0:0|2:0,0:0:0:0:
404,222,27258,86,0,P|382:206|370:182,1,55.0000016784668,0|0,0:0|2:0,0:0:0:0:
436,160,27458,2,0,P|452:140|456:104,1,55.0000016784668,2|0,0:3|2:0,2:0:0:0:
362,67,27658,1,0,0:0:0:0:
291,98,27758,1,0,0:0:0:0:
256,167,27858,1,0,0:0:0:0:
271,243,27958,1,0,0:0:0:0:
332,292,28058,86,0,L|380:332,1,55.0000016784668,0|0,0:0|2:0,0:0:0:0:
259,319,28258,2,0,P|228:316|195:305,1,55.0000016784668,2|0,0:3|2:0,0:0:0:0:
256,167,28458,1,0,0:0:0:0:
232,89,28558,1,0,0:0:0:0:
168,39,28658,1,0,0:0:0:0:
87,36,28758,1,0,0:0:0:0:
19,81,28858,6,0,P|2:105|-8:132,1,55.0000016784668,0|0,0:0|2:0,0:0:0:0:
110,220,29058,2,0,P|110:203|130:159,1,55.0000016784668,2|0,0:3|2:0,0:0:0:0:
247,37,29258,2,0,P|244:64|232:89,1,55.0000016784668,0|0,0:0|2:0,0:0:0:0:
197,377,29458,2,0,P|199:346|205:313,1,55.0000016784668,2|0,0:3|2:0,0:0:0:0:
224,161,29658,2,0,P|260:181|280:209,1,55.0000016784668,0|0,0:0|2:0,0:0:0:0:
392,340,29858,2,0,P|404:320|408:280,1,55.0000016784668,2|0,0:3|2:0,0:0:0:0:
269,190,30058,6,0,P|200:208|168:164,1,104.999996795654,0|0,0:0|2:0,0:0:0:0:
224,161,30458,70,0,L|272:92,1,55.0000016784668,0|0,0:0|2:0,0:0:0:0:
269,190,30658,2,0,L|304:266,1,55.0000016784668,0|0,0:0|2:0,0:0:0:0:
166,209,30858,2,0,L|82:201,1,55.0000016784668,2|0,0:3|2:0,0:0:0:0:
255,115,31058,6,0,L|303:46,1,55.0000016784668,0|0,0:0|2:0,0:0:0:0:
292,239,31258,2,0,L|327:315,1,55.0000016784668,0|0,0:0|2:0,0:0:0:0:
221,214,31458,2,0,L|137:206,1,55.0000016784668,2|0,0:3|2:0,0:0:0:0:
224,161,31658,86,0,L|272:92,1,55.0000016784668,0|0,0:0|2:0,0:0:0:0:
292,239,31858,2,0,L|327:315,1,55.0000016784668,0|0,0:0|2:0,0:0:0:0:
166,209,32058,2,0,L|82:201,1,55.0000016784668,2|0,0:3|2:0,0:0:0:0:
255,115,32258,6,0,L|303:46,1,55.0000016784668,0|0,0:0|2:0,0:0:0:0:
315,288,32458,2,0,L|350:364,1,55.0000016784668,0|0,0:0|2:0,0:0:0:0:
166,209,32658,2,0,L|82:201,1,55.0000016784668,2|0,0:3|2:0,0:0:0:0:
286,69,32858,86,0,L|334:0,1,55.0000016784668,0|0,0:0|2:0,0:0:0:0:
315,288,33058,2,0,L|350:364,1,55.0000016784668,0|0,0:0|2:0,0:0:0:0:
97,201,33258,22,0,P|126:153|176:140,1,104.999996795654,2|0,0:3|2:0,0:0:0:0:
166,209,33658,86,0,P|192:228|236:236,1,59.9999981689454,0|0,0:0|2:0,0:0:0:0:
304,204,33858,2,0,P|320:176|320:120,1,59.9999981689454,2|0,0:3|2:0,0:0:0:0:
286,69,34058,1,0,0:0:0:0:
352,65,34158,1,0,0:0:0:0:
402,109,34258,1,2,0:3:0:0:
406,176,34358,1,0,0:0:0:0:
362,227,34458,86,0,P|332:252|288:264,1,59.9999981689454,0|0,0:0|2:0,0:0:0:0:
199,259,34658,2,0,P|172:247|150:227,1,59.9999981689454,2|0,0:3|2:0,0:0:0:0:
104,120,34858,1,0,0:0:0:0:
43,183,34958,1,0,0:0:0:0:
44,270,35058,1,0,0:0:0:0:
107,332,35158,1,0,0:0:0:0:
194,332,35258,6,0,P|228:312|248:280,1,59.9999981689454,0|0,0:0|2:0,0:0:0:0:
104,120,35458,2,0,P|108:152|132:200,1,59.9999981689454,2|0,0:3|2:0,0:0:0:0:
364,359,35658,86,0,P|380:336|388:296,1,59.9999981689454,0|0,0:0|2:0,0:0:0:0:
256,28,35858,2,0,L|256:120,1,59.9999981689454,2|0,0:3|2:0,0:0:0:0:
316,304,36058,6,0,P|284:272|276:232,1,59.9999981689454,0|0,0:0|2:0,0:0:0:0:
332,104,36258,2,0,P|356:100|407:107,1,59.9999981689454,2|0,0:3|2:0,0:0:0:0:
456,217,36458,6,0,P|411:241|363:226,1,104.999996795654,0|0,0:0|2:0,0:0:0:0:
406,176,36858,70,0,P|372:164|328:172,1,59.9999981689454,0|0,0:0|2:0,0:0:0:0:
324,270,37058,2,0,P|351:246|366:204,1,59.9999981689454,0|0,0:0|2:0,0:0:0:0:
263,96,37258,2,0,P|269:131|298:165,1,59.9999981689454,2|0,0:3|2:0,0:0:0:0:
456,217,37458,6,0,P|422:205|378:213,1,59.9999981689454,0|0,0:0|2:0,0:0:0:0:
285,314,37658,2,0,P|312:290|327:248,1,59.9999981689454,0|0,0:0|2:0,0:0:0:0:
283,152,37858,2,0,P|289:187|318:221,1,59.9999981689454,2|0,0:3|2:0,0:0:0:0:
406,176,38058,86,0,P|372:164|328:172,1,59.9999981689454,0|0,0:0|2:0,0:0:0:0:
285,314,38258,2,0,P|312:290|327:248,1,59.9999981689454,0|0,0:0|2:0,0:0:0:0:
216,144,38458,2,0,P|222:179|251:213,1,59.9999981689454,2|0,0:3|2:0,0:0:0:0:
456,217,38658,6,0,P|422:205|378:213,1,59.9999981689454,0|0,0:0|2:0,0:0:0:0:
246,358,38858,2,0,P|273:334|288:292,1,59.9999981689454,0|0,0:0|2:0,0:0:0:0:
197,88,39058,2,0,P|203:123|232:157,1,59.9999981689454,2|0,0:3|2:0,0:0:0:0:
506,258,39258,86,0,P|472:246|428:254,1,59.9999981689454,0|0,0:0|2:0,0:0:0:0:
179,355,39458,2,0,P|206:331|221:289,1,59.9999981689454,0|0,0:0|2:0,0:0:0:0:
263,96,39658,22,0,P|216:64|160:56,1,104.999996795654,2|0,0:3|2:0,2:0:0:0:
159,132,40058,69,4,0:0:0:0:
172,180,40458,1,0,0:0:0:0:
124,168,40858,1,0,0:0:0:0:
98,72,41158,22,8,L|83:16,1,34.9999989318848
150,264,41458,1,0,0:0:0:0:
264,200,41658,69,0,0:0:0:0:
277,248,42058,1,0,0:0:0:0:
312,212,42458,1,0,0:0:0:0:
229,236,42758,22,8,L|184:284,1,34.9999989318848
334,128,43058,1,0,0:0:0:0:
472,217,43258,69,0,0:0:0:0:
460,168,43658,1,0,0:0:0:0:
448,119,44058,1,0,0:0:0:0:
472,36,44358,22,8,L|456:-28,1,50
448,301,44658,1,8,0:0:0:0:
124,168,44858,69,0,0:0:0:0:
112,217,45258,1,0,0:0:0:0:
100,266,45658,1,0,0:0:0:0:
39,329,45958,22,8,L|51:377,1,50
152,55,46258,1,8,0:0:0:0:
448,119,46458,69,0,0:0:0:0:
472,217,46658,1,2,0:0:0:0:
312,136,46858,1,0,0:0:0:0:
460,168,47058,1,2,0:0:0:0:
272,232,47258,1,0,0:0:0:0:
448,119,47458,5,2,0:0:0:0:
460,96,47558,1,8,0:1:0:0:
344,316,47758,1,2,0:0:0:0:
332,339,47858,1,8,0:1:0:0:
312,136,48058,85,0,0:0:0:0:
188,171,48258,1,2,0:0:0:0:
356,293,48458,1,0,0:0:0:0:
192,22,48658,1,2,0:0:0:0:
156,293,48858,1,0,0:0:0:0:
64,119,49058,5,2,0:0:0:0:
52,96,49158,1,8,0:1:0:0:
168,316,49358,1,2,0:0:0:0:
180,339,49458,1,8,0:1:0:0:
356,293,49658,86,0,L|388:225,1,50,2|0,0:0|2:0,0:0:0:0:
344,144,49858,2,0,L|331:218,1,50,2|0,0:0|2:0,0:0:0:0:
297,308,50058,2,0,L|297:236,1,50,2|0,0:0|2:0,0:0:0:0:
244,128,50258,2,0,L|257:202,1,50,2|0,0:0|2:0,0:0:0:0:
238,324,50458,2,0,L|213:253,1,50,2|0,0:0|2:0,0:0:0:0:
124,168,50658,5,2,0:0:0:0:
96,208,50758,1,8,0:1:0:0:
388,168,50958,1,2,0:0:0:0:
416,208,51058,1,8,0:1:0:0:
256,192,51258,86,4,L|188:180,1,50,6|4,0:0|0:0,0:0:0:0:
12,120,51458,2,4,L|100:136,1,50,6|4,0:0|0:0,0:0:0:0:
244,128,51658,2,4,L|332:144,1,50,6|4,0:0|0:0,0:0:0:0:
500,120,51858,2,4,L|412:104,1,50,6|4,0:0|0:0,0:0:0:0:
232,64,52058,1,6,0:0:0:0:
189,90,52158,1,4,0:0:0:0:
178,140,52258,1,6,0:0:0:0:
206,182,52358,1,4,0:0:0:0:
256,192,52458,22,0,L|352:176,1,75,6|0,3:0|2:0,0:0:0:0:
374,136,52858,38,0,P|402:140|430:160,1,32.4999985122681,0|0,0:0|2:0,0:0:0:0:
398,364,53058,2,0,P|384:336|400:288,1,64.9999970245363,0|0,0:0|2:0,0:0:0:0:
352,256,53258,6,0,P|396:260|376:308,1,100,6|0,3:0|2:0,0:0:0:0:
280,320,53458,86,0,P|258:283|256:260,1,34.9999989318848,0|0,0:0|2:0,0:0:0:0:
374,136,53658,2,0,P|334:155|302:151,1,69.9999978637696,0|0,0:0|2:0,0:0:0:0:
244,128,53858,6,0,P|268:96|356:104,1,100,6|0,0:3|2:0,0:0:0:0:
392,68,54058,86,0,P|376:38|344:20,1,37.5000014305115,0|0,0:0|2:0,0:0:0:0:
161,107,54258,2,0,P|160:152|188:195,1,75.0000028610231,0|0,0:0|2:0,0:0:0:0:
244,128,54458,6,0,P|244:80|204:30,1,100,4|0,0:0|2:0,0:0:0:0:
78,86,54658,86,0,L|61:141,1,37.5000014305115,0|0,0:0|2:0,0:0:0:0:
64,332,54858,2,0,B|29:226|29:226|80:260,1,150.000005722046
448,332,55258,2,0,B|500:292|496:212|480:188|480:188|432:172|428:108,1,225.000008583069,0|0,0:0|2:0,0:0:0:0:
416,240,55658,2,0,B|412:272|373:287|373:287|341:257|284:258|253:303,1,194.999991073609,0|0,0:0|2:0,0:0:0:0:
320,344,56058,6,0,L|348:372,1,32.4999985122681,0|0,0:0|2:0,0:0:0:0:
198,244,56258,2,0,P|196:202|224:148,1,64.9999970245363,0|0,0:0|2:0,0:0:0:0:
280,160,56458,1,0,0:0:0:0:
179,319,56658,86,0,L|179:358,1,32.4999985122681,0|0,0:0|2:0,0:0:0:0:
163,162,56858,2,0,P|191:130|249:112,1,64.9999970245363,0|0,0:0|2:0,0:0:0:0:
280,160,57058,1,0,0:0:0:0:
96,200,57258,6,0,L|68:228,1,32.4999985122681,0|0,0:0|2:0,0:0:0:0:
196,78,57458,2,0,P|237:76|292:104,1,64.9999970245363,0|0,0:0|2:0,0:0:0:0:
280,160,57658,1,0,0:0:0:0:
122,59,57858,86,0,L|82:59,1,32.4999985122681,0|0,0:0|2:0,0:0:0:0:
278,43,58058,2,0,B|356:40|356:40|380:4,1,97.4999955368044,0|0,0:0|2:0,0:0:0:0:
416,59,58258,2,0,B|352:62,1,64.9999970245363,0|0,0:0|2:0,0:0:0:0:
163,162,58458,6,0,P|143:214|151:250,1,75.0000028610231,0|0,0:0|2:0,0:0:0:0:
284,280,58658,2,0,P|268:243|232:217,1,85.0000016212464,0|0,0:0|2:0,0:0:0:0:
46,164,58858,2,0,B|31:194|23:250|23:250|43:242|43:242|32:288|72:336|124:356|187:334,1,300,0|0,0:0|2:0,0:0:0:0:
144,231,59258,86,0,L|156:180,1,32.4999985122681,0|0,0:0|2:0,0:0:0:0:
330,118,59458,2,0,L|398:62,1,64.9999970245363,0|0,0:0|2:0,0:0:0:0:
278,43,59658,6,0,P|244:84|244:148,1,100,6|0,3:0|2:0,0:0:0:0:
214,213,59858,86,0,P|232:217|252:216,1,34.9999989318848,0|0,0:0|2:0,0:0:0:0:
488,228,60058,2,0,P|468:264|416:280,1,69.9999978637696,0|0,0:0|2:0,0:0:0:0:
392,224,60258,6,0,P|380:204|420:216,1,100,6|0,0:3|2:0,0:0:0:0:
336,336,60458,86,0,P|312:336|268:320,1,37.5000014305115,0|0,0:0|2:0,0:0:0:0:
163,162,60658,2,0,P|128:162|84:192,1,75.0000028610231,0|0,0:0|2:0,0:0:0:0:
125,300,60858,6,0,P|164:262|113:230,1,100,4|0,0:0|2:0,0:0:0:0:
75,250,61058,86,0,P|55:243|36:224,1,37.5000014305115,0|0,0:0|2:0,0:0:0:0:
251,74,61258,2,0,B|296:56|344:56|375:79|375:79|342:109,1,150.000005722046
125,300,61658,2,0,B|88:348|52:272|104:244|160:240|208:252|272:304,1,225.000008583069,0|0,0:0|2:0,0:0:0:0:
336,336,62058,2,0,B|412:352|440:300|440:300|420:260|420:260|436:196,1,194.999991073609,0|0,0:0|2:0,0:0:0:0:
504,148,62458,6,0,L|492:204,1,32.4999985122681,0|0,0:0|2:0,0:0:0:0:
344,260,62658,2,0,L|368:180,1,64.9999970245363,0|0,0:0|2:0,0:0:0:0:
280,160,62858,1,0,0:0:0:0:
426,297,63058,86,0,L|438:353,1,32.4999985122681,0|0,0:0|2:0,0:0:0:0:
237,279,63258,2,0,P|220:236|188:204,1,64.9999970245363,0|0,0:0|2:0,0:0:0:0:
125,300,63458,1,0,0:0:0:0:
323,41,63658,6,0,L|335:-15,1,32.4999985122681,0|0,0:0|2:0,0:0:0:0:
344,260,63858,2,0,B|336:292|336:292|308:228,1,64.9999970245363,0|0,0:0|2:0,0:0:0:0:
280,160,64058,1,0,0:0:0:0:
461,263,64258,86,0,L|512:292,1,32.4999985122681,0|0,0:0|2:0,0:0:0:0:
237,279,64458,2,0,B|192:280|160:292|160:292|188:264,1,97.4999955368044,0|0,0:0|2:0,0:0:0:0:
160,239,64658,2,0,B|200:240|224:268,1,64.9999970245363,0|0,0:0|2:0,0:0:0:0:
125,300,65058,6,0,P|92:256|102:198,1,100,0|0,0:0|2:0,0:0:0:0:
280,160,65258,2,0,B|328:196|328:196|300:204|272:240,1,100,0|0,0:0|2:0,0:0:0:0:
371,361,65458,1,0,0:0:0:0:
237,279,65658,6,0,B|170:238|170:238|205:227|224:192,1,139.999995727539
272,28,66058,1,0,0:0:0:0:
152,164,66258,1,0,0:0:0:0:
398,103,66458,2,0,L|460:88,1,37.5000014305115,0|0,0:0|2:0,0:0:0:0:
234,143,66658,1,0,0:0:0:0:
240,356,66858,1,0,0:0:0:0:
347,268,67058,6,0,P|416:276|464:343,1,150.000005722046
371,361,67458,1,0,0:0:0:0:
442,190,67658,1,0,0:0:0:0:
237,279,67858,1,0,0:0:0:0:
324,176,68058,2,0,B|360:148|360:104|360:104|360:44|320:32|320:84|360:88|392:104,1,194.999991073609,4|0,0:0|2:0,0:0:0:0:
347,268,68458,2,4,P|416:196|344:84,1,225.000008583069,4|0,0:0|2:0,0:0:0:0:
275,105,68858,85,0,0:0:0:0:
237,279,69058,1,0,0:0:0:0:
324,176,69258,1,0,0:0:0:0:
113,150,69458,1,0,0:0:0:0:
294,18,69658,1,0,0:0:0:0:
284,360,69858,1,0,0:0:0:0:
256,192,70058,1,0,0:0:0:0:
373,247,70258,6,0,P|444:232|476:132,1,150.000005722046,2|0,0:2|0:0,0:0:0:0:
392,160,70658,1,0,0:0:0:0:
468,308,70858,1,0,0:0:0:0:
389,66,71058,1,0,0:0:0:0:
284,360,71258,2,0,P|251:329|248:264,1,75.0000028610231,4|0,0:0|2:0,0:0:0:0:
324,176,71458,2,0,P|292:196|236:176,1,75.0000028610231,4|0,0:0|2:0,0:0:0:0:
120,160,71658,6,0,P|84:148|40:158,1,75,4|0,3:0|2:0,0:0:0:0:
80,232,72058,70,0,B|112:260|124:320|124:320|160:252,1,150.000005722046
160,88,72458,1,0,0:0:0:0:
216,319,72658,1,0,0:0:0:0:
391,160,72858,2,0,P|344:107|276:128,1,150.000005722046
148,275,73258,1,0,0:0:0:0:
296,65,73458,6,0,P|340:140|280:192,1,150.000005722046
120,160,73858,2,0,L|60:152,1,37.5000014305115,0|0,0:0|2:0,0:0:0:0:
276,128,74058,1,0,0:0:0:0:
28,144,74258,1,0,0:0:0:0:
12,80,74358,1,0,0:0:0:0:
44,28,74458,1,0,0:0:0:0:
96,16,74558,1,0,0:0:0:0:
136,32,74658,1,0,0:0:0:0:
160,64,74758,1,0,0:0:0:0:
197,144,74858,85,0,0:0:0:0:
222,189,74958,1,0,0:0:0:0:
270,209,75058,1,0,0:0:0:0:
321,196,75158,1,0,0:0:0:0:
400,152,75258,5,0,0:0:0:0:
412,124,75358,1,0,0:0:0:0:
352,68,75458,85,0,0:0:0:0:
343,37,75558,1,0,0:0:0:0:
257,47,75658,5,0,0:0:0:0:
229,32,75758,1,0,0:0:0:0:
178,104,75858,85,0,0:0:0:0:
147,113,75958,1,0,0:0:0:0:
166,200,76058,6,0,P|155:227|155:259,1,37.5000014305115,4|0,0:0|2:0,0:0:0:0:
276,128,76258,1,0,0:0:0:0:
304,366,76458,2,0,P|348:380|392:368,1,75.0000028610231,6|2,2:0|2:0,0:0:0:0:
472,308,76658,1,0,0:0:0:0:
256,192,76708,12,0,77658,2:0:0:0:
256,192,77858,5,0,3:2:0:0:
256,116,78058,2,0,L|256:72,1,25,4|0,3:0|2:0,0:0:0:0:
256,40,78258,1,4,3:2:0:0:
340,172,78458,69,2,0:0:0:0:
424,152,78858,1,2,0:0:0:0:
508,132,79258,1,2,0:0:0:0:
484,215,79558,21,10,2:0:0:0:
364,89,79658,2,10,L|308:28,1,69.9999978637696,10|10,2:2|2:0,0:2:0:0:
424,152,80058,69,2,0:0:0:0:
424,152,80358,1,2,0:0:0:0:
292,338,80858,21,2,0:0:0:0:
172,212,81158,1,2,0:0:0:0:
164,184,81258,1,2,0:0:0:0:
172,156,81358,1,2,0:0:0:0:
196,140,81458,1,2,0:0:0:0:
224,144,81558,1,2,0:0:0:0:
256,192,81658,69,2,0:0:0:0:
172,212,82058,1,2,0:0:0:0:
88,232,82458,1,2,0:0:0:0:
148,295,82758,21,10,2:0:0:0:
340,172,82858,2,10,L|408:128,1,69.9999978637696,10|10,2:2|2:0,0:2:0:0:
256,192,83258,69,2,0:0:0:0:
256,192,83558,1,2,0:0:0:0:
288,0,84058,21,2,0:0:0:0:
276,276,84358,1,2,0:0:0:0:
304,268,84458,1,2,0:0:0:0:
324,248,84558,1,2,0:0:0:0:
328,220,84658,1,2,0:0:0:0:
312,196,84758,1,2,0:0:0:0:
256,192,84858,69,2,0:0:0:0:
256,280,85258,1,2,0:0:0:0:
256,368,85658,1,2,0:0:0:0:
180,324,85958,21,10,2:0:0:0:
102,104,86058,2,10,L|72:20,1,69.9999978637696,10|10,2:2|2:0,0:2:0:0:
256,16,86458,69,2,0:0:0:0:
256,16,86758,1,2,0:0:0:0:
256,280,87258,21,2,0:0:0:0:
350,84,87558,1,8,0:2:0:0:
363,60,87658,1,8,0:2:0:0:
387,45,87758,1,2,0:2:0:0:
414,44,87858,1,8,0:2:0:0:
440,56,87958,1,2,0:2:0:0:
350,112,88058,85,0,0:0:0:0:
316,116,88158,1,0,0:0:0:0:
284,104,88258,1,0,0:0:0:0:
264,76,88358,1,0,0:0:0:0:
244,124,88458,1,0,0:0:0:0:
250,175,88558,1,0,0:0:0:0:
280,216,88658,1,0,0:0:0:0:
326,236,88758,1,0,0:0:0:0:
416,192,88858,85,0,0:0:0:0:
387,171,88958,1,0,0:0:0:0:
351,175,89058,1,0,0:0:0:0:
326,201,89158,1,8,0:2:0:0:
364,312,89258,1,8,0:2:0:0:
347,330,89358,1,0,0:0:0:0:
325,341,89458,1,8,0:2:0:0:
300,344,89558,1,0,0:0:0:0:
260,320,89658,6,0,L|248:288,1,25
236,300,89758,2,0,L|218:270,1,25
212,284,89858,2,0,L|189:258,1,25
184,276,89958,2,0,L|155:256,1,25
156,276,90058,2,0,L|124:261,1,25
128,284,90158,2,0,L|93:281,1,25
104,300,90258,2,0,L|71:309,1,25
86,323,90358,2,0,L|58:342,1,25
64,352,90458,1,0,0:0:0:0:
304,272,90758,5,8,0:2:0:0:
312,224,90858,1,8,0:2:0:0:
280,184,90958,1,0,0:0:0:0:
232,196,91058,1,8,0:2:0:0:
224,256,91158,1,0,0:0:0:0:
260,320,91258,69,6,3:0:0:0:
456,288,91458,2,0,P|464:256|468:220,1,50,0|0,0:0|2:0,0:0:0:0:
416,96,91658,2,0,P|396:76|348:48,1,50,0|0,0:0|2:0,0:0:0:0:
232,36,91858,2,0,P|204:44|168:60,1,50,0|0,0:0|2:0,0:0:0:0:
280,184,92058,6,0,L|332:248,1,50,0|0,0:0|2:0,0:0:0:0:
224,256,92258,2,0,L|237:337,1,50,0|0,0:0|2:0,0:0:0:0:
140,284,92458,2,0,L|110:361,1,50,0|0,0:0|2:0,0:0:0:0:
280,184,92658,86,0,L|309:106,1,50,0|0,0:0|2:0,0:0:0:0:
319,272,92858,2,0,L|305:190,1,50,0|0,0:0|2:0,0:0:0:0:
400,324,93058,2,0,L|348:259,1,50,0|0,0:0|2:0,0:0:0:0:
315,90,93258,6,0,L|285:167,1,50,0|0,0:0|2:0,0:0:0:0:
260,320,93458,2,0,L|230:242,1,50,0|0,0:0|2:0,0:0:0:0:
156,188,93658,2,0,L|140:268,1,50,0|0,0:0|2:0,0:0:0:0:
56,312,93858,86,0,P|48:280|48:232,1,50,0|0,0:0|2:0,0:0:0:0:
80,140,94058,2,0,P|100:116|144:84,1,50,0|0,0:0|2:0,0:0:0:0:
236,56,94258,2,0,P|256:56|300:68,1,50,0|0,0:0|2:0,0:0:0:0:
156,188,94458,6,0,L|104:252,1,50,0|0,0:0|2:0,0:0:0:0:
212,260,94658,2,0,L|198:341,1,50,0|0,0:0|2:0,0:0:0:0:
292,292,94858,2,0,L|321:369,1,50,0|0,0:0|2:0,0:0:0:0:
380,284,95058,2,0,L|444:336,1,50,0|0,0:0|2:0,0:0:0:0:
236,180,95258,86,0,L|206:102,1,50,0|0,0:0|2:0,0:0:0:0:
250,291,95458,2,0,L|185:238,1,50,0|0,0:0|2:0,0:0:0:0:
328,372,95658,2,0,L|246:358,1,50,0|0,0:0|2:0,0:0:0:0:
369,200,95858,6,0,L|400:144,1,50,0|0,0:0|2:0,0:0:0:0:
408,40,96058,2,0,B|385:80|385:80|348:88|332:112,1,100
143,200,96458,86,0,L|112:144,1,50,0|0,0:0|2:0,0:0:0:0:
64,256,96658,2,0,B|90:300|90:300|122:328|158:324,1,100
369,200,97058,6,0,L|365:268,1,50,4|0,0:0|2:0,0:0:0:0:
256,192,97258,2,0,L|256:142,1,50,4|0,0:0|2:0,0:0:0:0:
143,200,97458,2,0,L|145:249,1,50,4|0,0:0|2:0,0:0:0:0:
30,192,97658,86,0,P|36:160|48:192,1,50,2|0,0:0|2:0,0:0:0:0:
94,99,97858,2,0,P|124:88|103:114,1,50,2|0,0:0|2:0,0:0:0:0:
206,108,98058,2,0,P|230:129|197:123,1,50,2|0,0:0|2:0,0:0:0:0:
255,209,98258,2,0,P|249:240|237:209,1,50,2|0,0:0|2:0,0:0:0:0:
191,301,98458,2,0,P|160:311|182:285,1,50,2|0,0:0|2:0,0:0:0:0:
143,200,98658,5,2,0:0:0:0:
124,168,98758,1,4,1:0:0:0:
369,200,98958,1,2,0:0:0:0:
388,232,99058,1,4,2:0:0:0:
436,80,99258,86,0,L|519:74,1,50,2|0,0:0|2:0,0:0:0:0:
426,296,99458,2,0,L|509:290,1,50,2|0,0:0|2:0,0:0:0:0:
255,209,99658,2,0,L|338:203,1,50,2|0,0:0|2:0,0:0:0:0:
319,117,99858,2,0,L|402:111,1,50,2|0,0:0|2:0,0:0:0:0:
191,301,100058,2,0,L|274:295,1,50,2|0,0:0|2:0,0:0:0:0:
369,200,100258,5,2,0:0:0:0:
406,197,100358,1,4,1:0:0:0:
143,200,100558,1,2,0:0:0:0:
106,203,100658,1,4,2:0:0:0:
256,76,100858,86,0,L|173:70,1,50,2|0,0:0|2:0,0:0:0:0:
104,76,101058,2,0,L|187:70,1,50,2|0,0:0|2:0,0:0:0:0:
408,308,101258,2,0,L|325:314,1,50,2|0,0:0|2:0,0:0:0:0:
256,308,101458,2,0,L|339:314,1,50,2|0,0:0|2:0,0:0:0:0:
355,191,101658,2,0,L|306:195,1,50,2|0,0:0|2:0,0:0:0:0:
256,76,101858,5,2,0:0:0:0:
256,40,101958,1,4,1:0:0:0:
256,308,102158,1,2,0:0:0:0:
256,344,102258,1,4,2:0:0:0:
206,195,102458,85,6,0:0:0:0:
256,192,102508,12,4,103658,0:1:0:0:
256,192,104058,6,0,L|202:245,1,55.0000016784668,0|0,0:0|2:0,0:0:0:0:
100,348,104258,2,0,P|96:312|104:272,1,55.0000016784668,2|0,0:3|2:0,0:0:0:0:
222,315,104458,1,0,0:0:0:0:
270,262,104558,1,0,0:0:0:0:
256,192,104658,1,2,0:3:0:0:
184,166,104758,1,0,0:0:0:0:
112,140,104858,86,0,P|88:110|88:70,1,55.0000016784668,0|0,0:0|2:0,0:0:0:0:
349,16,105058,2,0,P|356:48|356:80,1,55.0000016784668,2|0,0:3|2:0,0:0:0:0:
256,192,105258,1,0,0:0:0:0:
239,116,105358,1,0,0:0:0:0:
178,67,105458,1,0,0:0:0:0:
101,66,105558,1,0,0:0:0:0:
40,114,105658,6,0,P|57:139|79:155,1,55.0000016784668,0|0,0:0|2:0,0:0:0:0:
407,242,105858,2,0,P|406:278|386:310,1,55.0000016784668,2|0,0:3|2:0,0:0:0:0:
280,240,106058,2,0,L|368:262,1,55.0000016784668,0|0,0:0|2:0,0:0:0:0:
511,186,106258,2,0,L|423:164,1,55.0000016784668,2|0,0:3|2:0,0:0:0:0:
170,367,106458,2,0,P|204:372|252:364,1,55.0000016784668,2|0,0:3|2:0,0:0:0:0:
204,244,106658,2,0,P|210:208|225:186,1,55.0000016784668,0|0,0:0|2:0,0:0:0:0:
307,326,106858,6,0,P|358:327|397:294,1,104.999996795654,0|0,0:0|2:0,0:0:0:0:
333,253,107258,70,0,L|245:277,1,55.0000016784668,0|0,0:0|2:0,0:0:0:0:
436,332,107458,2,0,L|501:395,1,55.0000016784668,0|0,0:0|2:0,0:0:0:0:
407,242,107658,2,0,L|429:154,1,55.0000016784668,2|0,0:3|2:0,0:0:0:0:
280,240,107858,6,0,L|192:264,1,55.0000016784668,0|0,0:0|2:0,0:0:0:0:
397,294,108058,2,0,L|462:357,1,55.0000016784668,0|0,0:0|2:0,0:0:0:0:
420,188,108258,2,0,L|442:100,1,55.0000016784668,2|0,0:3|2:0,0:0:0:0:
333,253,108458,86,0,L|245:277,1,55.0000016784668,0|0,0:0|2:0,0:0:0:0:
436,332,108658,2,0,L|501:395,1,55.0000016784668,0|0,0:0|2:0,0:0:0:0:
407,242,108858,2,0,L|429:154,1,55.0000016784668,2|0,0:3|2:0,0:0:0:0:
280,240,109058,6,0,L|192:264,1,55.0000016784668,0|0,0:0|2:0,0:0:0:0:
397,294,109258,2,0,L|462:357,1,55.0000016784668,0|0,0:0|2:0,0:0:0:0:
420,188,109458,2,0,L|442:100,1,55.0000016784668,2|0,0:3|2:0,0:0:0:0:
227,227,109658,86,0,L|139:251,1,55.0000016784668,0|0,0:0|2:0,0:0:0:0:
436,332,109858,2,0,L|501:395,1,55.0000016784668,0|0,0:0|2:0,0:0:0:0:
433,134,110058,22,0,B|420:80|420:80|380:48,1,104.999996795654,2|0,0:3|2:0,0:0:0:0:
329,180,110458,86,0,P|316:208|276:236,1,59.9999981689454,0|0,0:0|2:0,0:0:0:0:
147,126,110658,2,0,P|145:88|150:56,1,59.9999981689454,2|0,0:3|2:0,0:0:0:0:
295,28,110858,1,0,0:0:0:0:
312,104,110958,1,0,0:0:0:0:
329,180,111058,1,2,0:3:0:0:
402,205,111158,1,0,0:0:0:0:
433,134,111258,86,0,P|437:104|433:74,1,59.9999981689454,0|0,0:0|2:0,0:0:0:0:
37,228,111458,2,0,P|32:256|44:296,1,59.9999981689454,0|0,0:0|2:0,0:0:0:0:
138,338,111658,1,0,0:0:0:0:
119,254,111758,1,2,0:3:0:0:
183,204,111858,1,0,0:0:0:0:
247,154,111958,1,0,0:0:0:0:
329,180,112058,6,0,L|344:248,1,59.9999981689454,0|0,0:0|2:0,0:0:0:0:
330,336,112258,2,0,L|315:268,1,59.9999981689454,2|0,0:3|2:0,0:0:0:0:
184,48,112458,2,0,L|199:116,1,59.9999981689454,0|0,0:0|2:0,0:0:0:0:
183,204,112658,2,0,L|168:136,1,59.9999981689454,2|0,0:3|2:0,0:0:0:0:
88,132,112858,2,0,L|176:124,1,59.9999981689454,0|0,0:0|2:0,0:0:0:0:
329,180,113058,2,0,L|417:172,1,59.9999981689454,2|0,0:3|2:0,0:0:0:0:
215,292,113258,6,0,P|160:296|108:264,1,104.999996795654,0|0,0:0|2:0,0:0:0:0:
183,204,113658,70,0,L|198:136,1,59.9999981689454,0|0,0:0|2:0,0:0:0:0:
272,236,113858,2,0,L|293:302,1,59.9999981689454,0|0,0:0|2:0,0:0:0:0:
492,244,114058,2,0,L|424:229,1,59.9999981689454,2|0,0:3|2:0,0:0:0:0:
195,145,114258,6,0,L|210:77,1,59.9999981689454,0|0,0:0|2:0,0:0:0:0:
280,251,114458,2,0,L|301:317,1,59.9999981689454,0|0,0:0|2:0,0:0:0:0:
433,231,114658,2,0,L|365:216,1,59.9999981689454,2|0,0:3|2:0,0:0:0:0:
183,204,114858,86,0,L|198:136,1,59.9999981689454,0|0,0:0|2:0,0:0:0:0:
288,266,115058,2,0,L|309:332,1,59.9999981689454,0|0,0:0|2:0,0:0:0:0:
374,218,115258,2,0,L|306:203,1,59.9999981689454,2|0,0:3|2:0,0:0:0:0:
195,145,115458,6,0,L|210:77,1,59.9999981689454,0|0,0:0|2:0,0:0:0:0:
296,282,115658,2,0,L|317:348,1,59.9999981689454,0|0,0:0|2:0,0:0:0:0:
315,205,115858,2,0,L|247:190,1,59.9999981689454,2|0,0:3|2:0,0:0:0:0:
207,86,116058,86,0,L|222:18,1,59.9999981689454,0|0,0:0|2:0,0:0:0:0:
305,298,116258,2,0,L|326:364,1,59.9999981689454,0|0,0:0|2:0,0:0:0:0:
256,192,116458,22,0,B|197:179|197:179|152:192,1,104.999996795654,2|0,0:3|2:0,0:0:0:0:
112,224,116858,70,0,B|68:288|92:316|92:316|92:288|120:264,1,150,0|0,0:0|2:0,0:0:0:0:
176,244,117258,2,0,B|184:256|184:256|212:268|224:296|224:296|248:256|236:208,1,150,0|0,0:0|2:0,0:0:0:0:
192,168,117658,2,0,L|180:224,1,50,0|0,0:0|2:0,0:0:0:0:
160,320,117858,21,0,0:0:0:0:
103,264,117958,1,8,0:0:0:0:
46,208,118058,2,8,L|31:95,1,100,8|8,2:0|0:0,0:0:0:0:
208,92,118458,70,0,B|192:168|192:168|204:140|232:120|268:124,1,150,0|0,0:0|2:0,0:0:0:0:
304,292,118858,2,0,B|320:216|320:216|308:244|280:264|244:260,1,150,0|0,0:0|2:0,0:0:0:0:
160,320,119258,2,0,L|172:264,1,50,0|0,0:0|2:0,0:0:0:0:
256,192,119458,21,0,0:0:0:0:
308,148,119558,1,8,0:0:0:0:
360,104,119658,2,8,P|408:84|460:108,1,100,8|8,2:0|0:0,0:0:0:0:
464,264,120058,70,0,B|436:288|400:288|373:269|373:269|384:300|364:336,1,150,0|0,0:0|2:0,0:0:0:0:
408,152,120458,2,0,B|404:180|415:215|415:215|376:188|336:204|315:230,1,150,0|0,0:0|2:0,0:0:0:0:
308,148,120858,2,0,P|288:160|264:196,1,50,0|0,0:0|2:0,0:0:0:0:
304,292,121058,21,0,0:0:0:0:
373,269,121158,1,8,0:0:0:0:
416,215,121258,2,8,P|428:163|412:99,1,100,8|8,2:0|0:0,0:0:0:0:
172,175,121658,70,0,B|206:197|244:180|244:180|265:215|305:219,1,150,0|0,0:0|2:0,0:0:0:0:
360,104,122058,2,0,B|392:140|376:180|356:200|356:200|376:200|404:152,1,150,0|0,0:0|2:0,0:0:0:0:
424,72,122458,2,0,P|405:50|376:36,1,50,0|0,0:0|2:0,0:0:0:0:
308,148,122658,21,0,0:0:0:0:
244,188,122758,1,8,0:0:0:0:
212,120,122858,2,8,L|204:-10,1,100,8|8,2:0|0:0,0:0:0:0:
316,8,123258,70,0,L|312:76,1,50,2|0,0:3|2:0,0:0:0:0:
214,169,123458,2,0,L|210:101,1,50,2|0,0:0|2:0,0:0:0:0:
360,104,123658,2,0,L|356:172,1,50,2|0,0:0|2:0,0:0:0:0:
216,218,123858,2,0,L|212:150,1,50,2|0,0:0|2:0,0:0:0:0:
404,200,124058,2,0,L|400:268,1,50,2|0,0:0|2:0,0:0:0:0:
218,267,124258,5,2,0:0:0:0:
174,244,124358,1,8,0:1:0:0:
357,153,124558,1,2,0:0:0:0:
400,131,124658,1,8,0:1:0:0:
386,330,124858,86,0,P|360:336|304:320,1,55.0000016784668,2|0,0:0|2:0,0:0:0:0:
300,272,125058,2,0,P|326:266|382:282,1,55.0000016784668,2|0,0:0|2:0,0:0:0:0:
262,290,125258,2,0,P|236:296|180:280,1,55.0000016784668,2|0,0:0|2:0,0:0:0:0:
176,232,125458,2,0,P|202:226|258:242,1,55.0000016784668,2|0,0:0|2:0,0:0:0:0:
138,250,125658,2,0,P|112:256|56:240,1,55.0000016784668,2|0,0:0|2:0,0:0:0:0:
357,153,125858,5,2,0:0:0:0:
400,131,125958,1,8,0:1:0:0:
208,22,126158,1,2,0:0:0:0:
165,0,126258,1,8,0:1:0:0:
100,128,126458,86,0,L|108:236,1,59.9999981689454,2|0,0:0|2:0,0:0:0:0:
133,309,126658,2,0,L|141:201,1,59.9999981689454,2|0,0:0|2:0,0:0:0:0:
154,75,126858,2,0,L|180:179,1,59.9999981689454,2|0,0:0|2:0,0:0:0:0:
187,362,127058,2,0,L|213:257,1,59.9999981689454,2|0,0:0|2:0,0:0:0:0:
208,22,127258,2,0,L|252:120,1,59.9999981689454,2|0,0:0|2:0,0:0:0:0:
304,362,127458,5,2,0:0:0:0:
358,309,127558,1,8,0:1:0:0:
208,22,127758,1,2,0:0:0:0:
154,75,127858,1,8,0:1:0:0:
314,225,128058,86,4,P|288:200|252:192,1,69.9999978637696,6|0,0:0|2:0,0:0:0:0:
198,159,128258,2,4,P|224:184|260:192,1,69.9999978637696,6|0,0:0|2:0,0:0:0:0:
360,116,128458,2,4,L|288:164,1,75.0000028610231,6|0,0:0|2:0,0:0:0:0:
152,268,128658,2,4,L|224:220,1,75.0000028610231,6|0,0:0|2:0,0:0:0:0:
287,40,128858,2,4,P|263:75|255:116,1,85.0000016212464,6|2,0:0|2:3,0:0:0:0:
225,344,129058,2,4,P|248:308|256:267,1,85.0000016212464,6|2,0:0|2:3,0:0:0:0:
256,192,129258,22,0,L|256:104,1,75,6|0,3:1|2:0,0:0:0:0:
256,68,129658,38,0,B|264:88|264:88|304:100,2,50
92,56,130008,1,0,0:0:0:0:
88,52,130058,2,0,B|80:32|80:32|36:68|84:104,1,100
256,192,130458,22,0,B|248:212|248:212|208:224,2,50
420,180,130808,1,0,0:0:0:0:
424,176,130858,2,0,B|464:164|464:164|468:208|428:228,1,100
256,316,131258,70,0,L|256:376,2,50
256,168,131608,1,0,0:0:0:0:
256,160,131658,2,0,B|256:80|256:80|256:100,1,100
88,308,132058,22,0,L|56:303,1,25,0|0,0:0|2:0,0:0:0:0:
56,276,132158,2,0,L|30:255,1,25,0|0,0:0|2:0,0:0:0:0:
56,232,132258,2,0,L|44:201,1,25,0|0,0:0|2:0,0:0:0:0:
88,200,132358,2,0,L|93:167,1,25,0|0,0:0|2:0,0:0:0:0:
132,200,132458,70,0,L|200:240,1,50,0|0,0:0|2:0,0:0:0:0:
380,250,132658,2,0,L|336:224,1,50,0|0,0:0|2:0,0:0:0:0:
175,275,132858,6,0,L|124:304,1,32.4999985122681,0|0,0:0|2:0,0:0:0:0:
336,224,133058,2,0,L|399:187,1,64.9999970245363,0|0,0:0|2:0,0:0:0:0:
423,191,133258,1,4,3:0:0:0:
132,200,133458,86,0,L|81:229,1,32.4999985122681,0|0,0:0|2:0,0:0:0:0:
379,165,133658,2,0,L|442:128,1,64.9999970245363,0|0,0:0|2:0,0:0:0:0:
466,132,133858,1,4,3:0:0:0:
89,125,134058,6,0,L|38:154,1,32.4999985122681,0|0,0:0|2:0,0:0:0:0:
422,106,134258,2,0,L|485:69,1,64.9999970245363,0|0,0:0|2:0,0:0:0:0:
509,73,134458,1,4,3:0:0:0:
175,275,134658,86,0,L|146:224,1,32.4999985122681,0|0,0:0|2:0,0:0:0:0:
342,97,134858,2,0,B|336:124|348:156|376:176|404:184|404:184|336:224,1,194.999991073609,4|0,0:3|2:0,0:0:0:0:
422,106,135258,6,0,P|418:69|396:38,1,75.0000028610231,0|0,0:0|2:0,0:0:0:0:
262,88,135458,2,0,P|263:137|288:192,1,85.0000016212464,0|0,0:0|2:0,0:0:0:0:
481,158,135658,2,0,P|453:32|342:97,1,300,4|0,0:0|2:0,0:0:0:0:
403,213,136058,86,0,L|432:256,1,32.4999985122681,0|0,0:0|2:0,0:0:0:0:
130,325,136258,2,0,L|127:226,1,64.9999970245363,0|0,0:0|2:0,0:0:0:0:
175,223,136458,6,0,P|177:263|128:260,1,100,6|0,3:0|2:0,0:0:0:0:
124,168,136658,86,0,P|144:156|184:148,1,34.9999989318848,0|0,0:0|2:0,0:0:0:0:
337,223,136858,2,0,P|373:226|414:204,1,69.9999978637696,0|0,0:0|2:0,0:0:0:0:
422,106,137058,6,0,P|368:116|368:168,1,100,6|0,0:3|2:0,0:0:0:0:
262,88,137258,86,0,P|248:68|208:56,1,37.5000014305115,0|0,0:0|2:0,0:0:0:0:
226,278,137458,2,0,P|196:296|136:288,1,75.0000028610231,0|0,0:0|2:0,0:0:0:0:
124,168,137658,6,0,P|155:129|213:123,1,100,4|0,0:0|2:0,0:0:0:0:
191,189,137858,86,0,L|175:223,1,37.5000014305115,0|0,0:0|2:0,0:0:0:0:
412,358,138058,2,0,B|428:288|428:288|400:200,1,150.000005722046
120,288,138458,2,0,B|80:292|52:280|52:280|12:244|20:192|20:192|32:164|72:136,1,225.000008583069,4|0,0:0|2:0,0:0:0:0:
100,212,138858,2,0,B|120:248|120:288|120:288|164:264|164:264|196:256|240:288,1,194.999991073609,4|0,0:0|2:0,0:0:0:0:
100,364,139258,6,0,P|80:364|48:356,1,32.4999985122681,0|0,0:0|2:0,0:0:0:0:
57,147,139458,2,0,L|52:64,1,64.9999970245363,0|0,0:0|2:0,0:0:0:0:
200,16,139658,1,0,0:0:0:0:
226,278,139858,86,0,P|244:288|272:296,1,32.4999985122681,0|0,0:0|2:0,0:0:0:0:
267,58,140058,2,0,P|301:43|341:39,1,64.9999970245363,0|0,0:0|2:0,0:0:0:0:
450,80,140258,1,0,0:0:0:0:
191,189,140458,6,0,P|171:199|149:227,1,32.4999985122681,0|0,0:0|2:0,0:0:0:0:
261,367,140658,2,0,P|288:350|316:308,1,64.9999970245363,0|0,0:0|2:0,0:0:0:0:
226,278,140858,1,0,0:0:0:0:
302,147,141058,86,0,P|324:164|344:185,1,32.4999985122681,0|0,0:0|2:0,0:0:0:0:
372,320,141258,2,0,P|328:328|296:320,1,64.9999970245363,0|0,0:0|2:0,0:0:0:0:
80,231,141458,2,0,P|47:233|18:246,1,64.9999970245363,0|0,0:0|2:0,0:0:0:0:
276,278,141858,6,0,B|220:278,1,50,0|0,0:0|2:0,0:0:0:0:
268,204,142058,2,0,B|392:204,1,100,0|0,0:0|2:0,0:0:0:0:
284,352,142258,2,0,B|140:352,1,100,0|0,0:0|2:0,0:0:0:0:
328,336,142458,2,0,B|360:276|360:276|392:276|392:276|436:356,1,179.999994506836
456,177,142858,5,0,0:0:0:0:
372,320,143058,1,0,0:0:0:0:
260,130,143258,2,0,L|256:88,1,37.5000014305115,0|0,0:0|2:0,0:0:0:0:
276,278,143458,1,0,0:0:0:0:
80,231,143658,1,0,0:0:0:0:
268,204,143858,6,0,B|296:200|296:200|341:172|337:118|337:118|368:116,1,150.000005722046
64,83,144258,1,0,0:0:0:0:
252,56,144458,1,0,0:0:0:0:
284,352,144658,1,0,0:0:0:0:
362,116,144858,2,0,B|416:116|416:116|448:160|432:200|432:200|400:208|384:236,1,194.999991073609,4|0,0:0|2:0,0:0:0:0:
372,320,145258,2,0,B|360:267|372:220|432:176|472:208|472:208|492:248,1,225.000008583069,4|0,0:0|2:0,0:0:0:0:
460,288,145658,85,0,0:0:0:0:
268,204,145858,1,0,0:0:0:0:
212,364,146058,1,0,0:0:0:0:
296,124,146258,1,0,0:0:0:0:
136,0,146458,1,0,0:0:0:0:
312,272,146658,1,0,0:0:0:0:
324,44,146858,1,0,0:0:0:0:
168,296,147058,6,0,B|140:332|140:332|108:328|108:328|76:296|100:256,1,150.000005722046,2|0,0:2|0:0,0:0:0:0:
146,98,147458,1,0,0:0:0:0:
240,284,147658,2,0,P|240:312|232:332,1,37.5000014305115,0|0,0:0|2:0,0:0:0:0:
156,197,147858,1,0,0:0:0:0:
384,260,148058,2,0,P|416:236|444:184,1,75.0000028610231,4|0,0:0|2:0,0:0:0:0:
296,124,148258,2,0,P|281:163|276:212,1,75.0000028610231,4|0,0:0|2:0,0:0:0:0:
214,352,148458,6,0,P|169:369|134:361,1,75,4|0,3:1|2:0,0:0:0:0:
168,296,148858,70,0,P|168:256|152:192,1,75.0000028610231,0|0,0:0|2:0,0:0:0:0:
72,110,149058,2,0,P|88:152|156:190,1,75.0000028610231,0|0,0:0|2:0,0:0:0:0:
276,195,149258,2,0,B|320:200|352:176|352:176|376:140|364:96,1,150.000005722046
96,308,149658,2,0,P|148:364|227:338,1,150.000005722046
296,124,150058,1,0,0:0:0:0:
384,260,150258,6,0,B|344:272|312:260|312:260|272:284|212:248,1,150.000005722046
347,176,150658,2,0,L|388:148,1,37.5000014305115,0|0,0:0|2:0,0:0:0:0:
168,296,150858,1,0,0:0:0:0:
276,195,151058,1,0,0:0:0:0:
296,124,151158,1,0,0:0:0:0:
268,64,151258,1,0,0:0:0:0:
212,48,151358,1,0,0:0:0:0:
164,68,151458,1,0,0:0:0:0:
140,109,151558,1,0,0:0:0:0:
208,152,151658,85,0,0:0:0:0:
236,129,151758,1,0,0:0:0:0:
257,99,151858,1,0,0:0:0:0:
268,64,151958,1,0,0:0:0:0:
324,80,152058,5,0,0:0:0:0:
344,104,152158,1,0,0:0:0:0:
324,184,152258,85,0,0:0:0:0:
329,214,152358,1,0,0:0:0:0:
272,274,152458,5,0,0:0:0:0:
261,302,152558,1,0,0:0:0:0:
181,325,152658,85,0,0:0:0:0:
157,343,152758,1,0,0:0:0:0:
76,323,152858,6,0,P|52:311|52:275,1,37.5000014305115,4|0,0:0|2:0,0:0:0:0:
248,116,153058,1,0,0:0:0:0:
395,329,153258,2,0,P|376:364|328:384,1,75.0000028610231,6|2,2:0|2:0,0:0:0:0:
261,302,153458,1,0,0:0:0:0:
256,192,153508,12,0,154458,2:0:0:0:
256,192,154658,70,0,P|255:153|216:96,1,75.0000028610231,0|0,0:0|2:0,0:0:0:0:
144,180,154858,2,0,P|148:223|173:268,1,75.0000028610231,0|0,0:0|2:0,0:0:0:0:
368,180,155058,2,0,L|460:152,1,75.0000028610231,0|0,0:0|2:0,0:0:0:0:
360,328,155258,70,0,L|296:348,1,40,0|0,0:0|2:0,0:0:0:0:
372,107,155458,1,0,0:0:0:0:
206,374,155658,1,0,0:0:0:0:
32,168,155858,2,0,P|64:100|152:68,1,160
119,271,156258,2,0,L|101:330,1,40.7499999689102,0|0,0:0|2:0,0:0:0:0:
144,180,156458,1,0,0:0:0:0:
360,328,156658,86,0,B|396:352|396:352|460:332|472:248,1,160
268,93,157058,1,0,0:0:0:0:
364,253,157258,1,0,0:0:0:0:
492,32,157458,1,0,0:0:0:0:
292,168,157658,2,0,L|244:200,1,40,4|0,0:0|2:0,0:0:0:0:
114,83,157858,1,0,0:0:0:0:
368,180,158058,2,0,P|344:109|240:109,1,160,4|0,0:0|0:0,0:0:0:0:
96,320,158458,5,0,0:0:0:0:
292,168,158658,1,0,0:0:0:0:
20,352,158858,1,0,0:0:0:0:
360,328,159058,1,0,0:0:0:0:
224,8,159258,1,0,0:0:0:0:
174,290,159458,1,0,0:0:0:0:
444,192,159658,1,0,0:0:0:0:
96,320,159858,86,0,B|58:336|58:336|40:148,1,160
252,260,160258,1,0,0:0:0:0:
332,76,160458,1,0,0:0:0:0:
360,328,160658,1,0,0:0:0:0:
144,192,160858,2,0,P|100:183|38:197,1,80,4|0,0:0|2:0,0:0:0:0:
161,373,161058,2,0,P|204:368|236:344,1,80,4|0,0:0|2:0,0:0:0:0:
292,168,161258,86,0,L|324:96,1,75,4|0,3:1|2:0,0:0:0:0:
342,53,161658,22,0,L|372:96,1,40,0|0,0:0|2:0,0:0:0:0:
444,192,161858,1,0,0:0:0:0:
322,99,162058,86,0,L|328:144,1,40,0|0,0:0|2:0,0:0:0:0:
360,328,162258,1,0,0:0:0:0:
302,145,162458,6,0,L|264:208,1,40,0|0,0:0|2:0,0:0:0:0:
161,373,162658,1,0,0:0:0:0:
401,133,162858,85,0,0:0:0:0:
74,46,163058,2,0,B|52:52|52:52|44:64|44:64|24:96|32:104|32:104|24:112|24:112|48:144|40:192|40:192|64:164|64:164|72:180|72:180|96:172,1,240,0|0,0:0|2:0,0:0:0:0:
124,168,163458,6,0,L|164:140,1,40,0|0,0:0|2:0,0:0:0:0:
174,290,163658,1,0,0:0:0:0:
99,107,163858,1,0,0:0:0:0:
164,76,163958,1,0,0:0:0:0:
216,112,164058,1,0,0:0:0:0:
220,168,164158,1,0,0:0:0:0:
188,204,164258,1,0,0:0:0:0:
152,224,164358,1,0,0:0:0:0:
105,298,164458,85,0,0:0:0:0:
121,335,164558,1,0,0:0:0:0:
155,357,164658,1,0,0:0:0:0:
196,356,164758,1,0,0:0:0:0:
174,290,164858,5,0,0:0:0:0:
162,256,164958,1,0,0:0:0:0:
219,214,165058,85,0,0:0:0:0:
228,180,165158,1,0,0:0:0:0:
299,177,165258,5,0,0:0:0:0:
325,154,165358,1,0,0:0:0:0:
385,192,165458,85,0,0:0:0:0:
419,188,165558,1,0,0:0:0:0:
446,253,165658,6,0,P|459:246|482:220,1,40,4|0,0:0|2:0,0:0:0:0:
160,20,165858,1,0,0:0:0:0:
105,298,166058,2,0,P|125:338|165:358,1,80,6|0,2:0|2:0,0:0:0:0:
299,177,166258,1,0,0:0:0:0:
256,192,166308,12,0,168058,0:0:0:0:
