osu file format v14

[General]
AudioFilename: cYsmix - Manic 224.mp3
AudioLeadIn: 0
PreviewTime: 52858
Countdown: 0
SampleSet: Soft
StackLeniency: 0.7
Mode: 3
LetterboxInBreaks: 0
SpecialStyle: 0
WidescreenStoryboard: 0

[Editor]
Bookmarks: 46458
DistanceSpacing: 1.6
BeatDivisor: 4
GridSize: 4
TimelineZoom: 2

[Metadata]
Title:Manic
TitleUnicode:Manic
Artist:cYsmix
ArtistUnicode:cYsmix
Creator:Awang411
Version:Manic
Source:
Tags:
BeatmapID:793745
BeatmapSetID:361238

[Difficulty]
HPDrainRate:8.5
CircleSize:4
OverallDifficulty:8.5
ApproachRate:5
SliderMultiplier:1.4
SliderTickRate:1

[Events]
//Background and Video events
0,0,"osu!cysmix-bgtiny.jpg",0,0
//Break Periods
//Storyboard Layer 0 (Background)
//Storyboard Layer 1 (Fail)
//Storyboard Layer 2 (Pass)
//Storyboard Layer 3 (Foreground)
//Storyboard Sound Samples

[TimingPoints]
1258,400,4,2,0,30,1,0
1283,-33.3333333333333,4,2,0,30,0,0
1308,-200,4,2,0,30,0,0
1458,-100,4,2,0,30,0,0
1658,400,4,2,0,30,1,0
8058,-100,4,2,0,20,0,0
11258,-100,4,2,0,40,0,0
11358,-100,4,2,0,20,0,0
14058,-100,4,2,0,50,0,0
14158,-100,4,2,0,20,0,0
20858,-100,4,2,0,30,0,0
27258,-100,4,2,0,35,0,0
40058,-100,4,2,0,25,0,0
52858,-100,4,2,0,30,0,1
78458,-100,4,2,0,30,0,0
132858,-100,4,2,0,30,0,1
168058,-100,4,2,0,30,0,0

[HitObjects]
64,192,1258,5,4,3:0:0:0:
192,192,1258,1,4,0:0:0:0:
448,192,1258,1,0,0:0:0:0:
320,192,1658,1,2,0:0:0:0:
448,192,1658,128,0,1858:0:0:0:0:
64,192,1858,128,0,2058:0:0:0:0:
192,192,2058,1,0,0:0:0:0:
320,192,2058,1,4,3:0:0:0:
448,192,2258,128,0,2458:0:0:0:0:
64,192,2458,1,2,0:0:0:0:
192,192,2458,128,0,2658:0:0:0:0:
448,192,2658,1,0,0:0:0:0:
64,192,2858,1,2,0:0:0:0:
320,192,2858,128,0,3058:0:0:0:0:
192,192,3058,128,0,3258:0:0:0:0:
448,192,3258,1,4,3:0:0:0:
64,192,3258,1,0,0:0:0:0:
320,192,3458,128,0,3658:0:0:0:0:
448,192,3658,1,4,3:0:0:0:
64,192,3658,128,0,3858:0:0:0:0:
192,192,3858,1,0,0:0:0:0:
320,192,4058,1,2,0:0:0:0:
448,192,4058,128,0,4258:0:0:0:0:
192,192,4258,128,0,4458:0:0:0:0:
448,192,4458,1,0,0:0:0:0:
64,192,4458,1,4,3:0:0:0:
320,192,4658,128,0,4858:0:0:0:0:
64,192,4858,1,4,3:0:0:0:
192,192,4858,128,0,5058:0:0:0:0:
448,192,5058,1,0,0:0:0:0:
192,192,5258,1,4,3:0:0:0:
320,192,5258,128,0,5458:0:0:0:0:
64,192,5458,128,0,5658:0:0:0:0:
192,192,5658,1,4,3:0:0:0:
320,192,5658,1,0,0:0:0:0:
448,192,5858,128,0,6058:0:0:0:0:
64,192,6058,1,4,3:0:0:0:
192,192,6058,128,0,6258:0:0:0:0:
320,192,6258,1,0,0:0:0:0:
448,192,6458,128,0,6658:0:0:0:0:
192,192,6458,1,0,0:0:0:0:
64,192,6658,128,0,6858:0:0:0:0:
320,192,6858,1,0,0:0:0:0:
192,192,6858,1,0,0:0:0:0:
448,192,7058,128,0,7258:0:0:0:0:
320,192,7258,1,4,3:0:0:0:
64,192,7258,128,0,7458:0:0:0:0:
192,192,7458,1,0,0:0:0:0:
64,192,7658,1,2,0:0:0:0:
320,192,7658,128,0,7858:0:0:0:0:
192,192,7858,128,0,8058:0:0:0:0:
64,192,8058,1,0,0:0:0:0:
448,192,8058,1,8,0:0:0:0:
64,192,8458,1,0,0:0:0:0:
448,192,8458,1,8,0:0:0:0:
64,192,8858,1,0,0:0:0:0:
448,192,8858,1,8,0:0:0:0:
320,192,9158,1,8,0:0:0:0:
64,192,9258,1,0,0:0:0:0:
448,192,9258,1,8,0:0:0:0:
192,192,9458,1,0,0:0:0:0:
320,192,9458,1,8,0:0:0:0:
64,192,9658,1,0,0:0:0:0:
448,192,9658,1,8,0:0:0:0:
448,192,10058,1,8,0:0:0:0:
64,192,10058,1,0,0:0:0:0:
448,192,10458,1,8,0:0:0:0:
64,192,10458,1,0,0:0:0:0:
192,192,10758,1,8,0:0:0:0:
448,192,10858,1,0,0:0:0:0:
64,192,10858,1,8,0:0:0:0:
320,192,11058,1,0,0:0:0:0:
192,192,11058,1,8,0:0:0:0:
448,192,11258,1,4,0:0:0:0:
64,192,11258,1,0,0:0:0:0:
320,192,11358,1,0,0:0:0:0:
192,192,11458,1,0,0:0:0:0:
64,192,11558,1,0,0:0:0:0:
192,192,11658,1,8,0:0:0:0:
448,192,11658,1,0,0:0:0:0:
320,192,11758,1,0,0:0:0:0:
64,192,11858,1,0,0:0:0:0:
192,192,11958,1,0,0:0:0:0:
448,192,12058,1,0,0:0:0:0:
320,192,12058,1,0,0:0:0:0:
64,192,12158,1,0,0:0:0:0:
192,192,12258,1,0,0:0:0:0:
448,192,12358,1,0,0:0:0:0:
320,192,12358,1,0,0:0:0:0:
192,192,12458,1,8,0:0:0:0:
64,192,12458,1,0,0:0:0:0:
448,192,12558,1,0,0:0:0:0:
64,192,12658,1,8,0:0:0:0:
320,192,12658,1,0,0:0:0:0:
192,192,12758,1,0,0:0:0:0:
448,192,12858,1,0,0:0:0:0:
320,192,12858,1,0,0:0:0:0:
192,192,12908,1,0,0:0:0:0:
64,192,12958,1,0,0:0:0:0:
448,192,13008,1,0,0:0:0:0:
320,192,13058,1,0,0:0:0:0:
192,192,13108,1,0,0:0:0:0:
64,192,13158,1,0,0:0:0:0:
448,192,13208,1,0,0:0:0:0:
192,192,13258,1,0,0:0:0:0:
320,192,13258,1,0,0:0:0:0:
448,192,13658,1,0,0:0:0:0:
320,192,13658,1,0,0:0:0:0:
192,192,13958,1,0,0:0:0:0:
64,192,14058,1,4,0:0:0:0:
448,192,14058,1,0,0:0:0:0:
320,192,14058,1,0,0:0:0:0:
192,192,14108,1,0,0:0:0:0:
320,192,14158,1,0,0:0:0:0:
448,192,14208,1,0,0:0:0:0:
64,192,14258,1,0,0:0:0:0:
192,192,14308,1,0,0:0:0:0:
320,192,14358,1,0,0:0:0:0:
448,192,14408,1,0,0:0:0:0:
64,192,14458,1,2,0:0:0:0:
192,192,14558,1,0,0:0:0:0:
320,192,14658,1,0,0:0:0:0:
448,192,14758,1,0,0:0:0:0:
64,192,14858,1,0,0:0:0:0:
320,192,14958,1,0,0:0:0:0:
192,192,15058,1,0,0:0:0:0:
448,192,15158,1,0,0:0:0:0:
64,192,15258,1,2,0:0:0:0:
192,192,15358,1,0,0:0:0:0:
320,192,15458,1,0,0:0:0:0:
448,192,15558,1,0,0:0:0:0:
64,192,15658,1,0,0:0:0:0:
320,192,15758,1,0,0:0:0:0:
192,192,15858,1,0,0:0:0:0:
448,192,15958,1,0,0:0:0:0:
64,192,16058,1,2,0:0:0:0:
192,192,16158,1,0,0:0:0:0:
320,192,16258,1,0,0:0:0:0:
192,192,16358,1,0,0:0:0:0:
320,192,16458,1,0,0:0:0:0:
448,192,16558,1,0,0:0:0:0:
64,192,16658,1,2,0:0:0:0:
192,192,16758,1,0,0:0:0:0:
320,192,16858,1,0,0:0:0:0:
192,192,16958,1,0,0:0:0:0:
320,192,17058,1,0,0:0:0:0:
448,192,17158,1,0,0:0:0:0:
64,192,17258,1,0,0:0:0:0:
192,192,17358,1,0,0:0:0:0:
320,192,17458,1,0,0:0:0:0:
448,192,17558,1,0,0:0:0:0:
192,192,17658,1,2,0:0:0:0:
64,192,17758,1,0,0:0:0:0:
320,192,17858,1,0,0:0:0:0:
192,192,17958,1,0,0:0:0:0:
320,192,18058,1,0,0:0:0:0:
448,192,18158,1,0,0:0:0:0:
192,192,18258,1,2,0:0:0:0:
64,192,18358,1,0,0:0:0:0:
320,192,18458,1,0,0:0:0:0:
192,192,18558,1,0,0:0:0:0:
320,192,18658,1,0,0:0:0:0:
448,192,18758,1,0,0:0:0:0:
64,192,18858,1,2,0:0:0:0:
192,192,18958,1,0,0:0:0:0:
448,192,19058,1,0,0:0:0:0:
64,192,19158,1,0,0:0:0:0:
320,192,19258,1,0,0:0:0:0:
448,192,19358,1,0,0:0:0:0:
64,192,19458,1,2,0:0:0:0:
192,192,19558,1,0,0:0:0:0:
448,192,19658,1,0,0:0:0:0:
64,192,19758,1,0,0:0:0:0:
320,192,19858,1,0,0:0:0:0:
448,192,19958,1,0,0:0:0:0:
64,192,20058,1,2,0:0:0:0:
320,192,20158,1,0,0:0:0:0:
192,192,20258,1,0,0:0:0:0:
448,192,20358,1,0,0:0:0:0:
192,192,20458,1,0,0:0:0:0:
320,192,20558,1,0,0:0:0:0:
64,192,20658,1,0,0:0:0:0:
320,192,20758,1,0,0:0:0:0:
64,192,20858,128,0,20958:0:0:0:0:
448,192,20958,1,0,0:0:0:0:
64,192,21058,128,0,21158:0:0:0:0:
448,192,21158,1,0,0:0:0:0:
64,192,21258,1,0,0:0:0:0:
192,192,21358,1,0,0:0:0:0:
320,192,21458,1,0,0:0:0:0:
64,192,21558,1,0,0:0:0:0:
448,192,21658,128,0,21758:0:0:0:0:
192,192,21758,1,0,0:0:0:0:
448,192,21858,128,0,21958:0:0:0:0:
192,192,21958,1,0,0:0:0:0:
64,192,22058,1,0,0:0:0:0:
320,192,22158,1,0,0:0:0:0:
192,192,22258,1,0,0:0:0:0:
448,192,22358,1,0,0:0:0:0:
64,192,22458,128,0,22558:0:0:0:0:
320,192,22558,1,0,0:0:0:0:
64,192,22658,128,0,22758:0:0:0:0:
320,192,22758,1,0,0:0:0:0:
64,192,22858,1,0,0:0:0:0:
192,192,22958,1,0,0:0:0:0:
320,192,23058,1,0,0:0:0:0:
192,192,23158,1,0,0:0:0:0:
448,192,23258,128,0,23358:0:0:0:0:
64,192,23358,1,0,0:0:0:0:
448,192,23458,128,0,23558:0:0:0:0:
64,192,23558,1,0,0:0:0:0:
320,192,23658,128,0,24058:0:0:0:0:
192,192,23758,1,0,0:0:0:0:
64,192,23858,1,0,0:0:0:0:
448,192,23958,1,0,0:0:0:0:
64,192,24058,128,0,24158:0:0:0:0:
448,192,24158,1,0,0:0:0:0:
64,192,24258,128,0,24358:0:0:0:0:
448,192,24358,1,0,0:0:0:0:
320,192,24458,1,0,0:0:0:0:
192,192,24558,1,0,0:0:0:0:
448,192,24658,128,0,24758:0:0:0:0:
64,192,24758,1,0,0:0:0:0:
448,192,24858,128,0,24958:0:0:0:0:
64,192,24958,1,0,0:0:0:0:
192,192,25058,1,0,0:0:0:0:
320,192,25158,1,0,0:0:0:0:
64,192,25258,128,0,25358:0:0:0:0:
448,192,25358,1,0,0:0:0:0:
64,192,25458,128,0,25558:0:0:0:0:
320,192,25558,1,0,0:0:0:0:
192,192,25658,1,0,0:0:0:0:
64,192,25758,1,0,0:0:0:0:
448,192,25858,128,0,25958:0:0:0:0:
64,192,25958,1,0,0:0:0:0:
448,192,26058,128,0,26158:0:0:0:0:
192,192,26158,1,0,0:0:0:0:
320,192,26258,1,0,0:0:0:0:
448,192,26358,1,0,0:0:0:0:
64,192,26458,128,0,26558:0:0:0:0:
448,192,26558,1,0,0:0:0:0:
192,192,26658,128,0,26758:0:0:0:0:
64,192,26758,1,0,0:0:0:0:
448,192,26858,128,0,27258:0:0:0:0:
192,192,26958,1,0,0:0:0:0:
64,192,27058,1,0,0:0:0:0:
320,192,27158,1,0,0:0:0:0:
192,192,27258,1,0,0:0:0:0:
64,192,27258,128,0,27358:0:0:0:0:
320,192,27358,1,0,0:0:0:0:
192,192,27458,1,0,0:0:0:0:
64,192,27458,128,0,27558:0:0:0:0:
320,192,27558,1,0,0:0:0:0:
448,192,27658,1,0,0:0:0:0:
192,192,27758,1,0,0:0:0:0:
320,192,27858,1,0,0:0:0:0:
64,192,27958,1,0,0:0:0:0:
320,192,28058,1,0,0:0:0:0:
448,192,28058,128,0,28158:0:0:0:0:
192,192,28158,1,0,0:0:0:0:
320,192,28258,1,0,0:0:0:0:
448,192,28258,128,0,28358:0:0:0:0:
192,192,28358,1,0,0:0:0:0:
64,192,28458,1,0,0:0:0:0:
320,192,28558,1,0,0:0:0:0:
192,192,28658,1,0,0:0:0:0:
448,192,28758,1,0,0:0:0:0:
192,192,28858,1,0,0:0:0:0:
64,192,28858,128,0,28958:0:0:0:0:
320,192,28958,1,0,0:0:0:0:
192,192,29058,1,0,0:0:0:0:
64,192,29058,128,0,29158:0:0:0:0:
320,192,29158,1,0,0:0:0:0:
448,192,29258,1,0,0:0:0:0:
320,192,29358,1,0,0:0:0:0:
192,192,29458,1,0,0:0:0:0:
64,192,29558,1,0,0:0:0:0:
320,192,29658,1,0,0:0:0:0:
448,192,29658,128,0,29758:0:0:0:0:
192,192,29758,1,0,0:0:0:0:
320,192,29858,1,0,0:0:0:0:
448,192,29858,128,0,29958:0:0:0:0:
192,192,29958,1,0,0:0:0:0:
448,192,30058,1,4,3:0:0:0:
64,192,30058,128,0,30458:0:0:0:0:
320,192,30158,1,0,0:0:0:0:
192,192,30258,1,0,0:0:0:0:
448,192,30358,1,0,0:0:0:0:
320,192,30458,1,0,0:0:0:0:
192,192,30458,128,0,30558:0:0:0:0:
448,192,30558,1,0,0:0:0:0:
320,192,30658,1,0,0:0:0:0:
192,192,30658,128,0,30758:0:0:0:0:
448,192,30758,1,0,0:0:0:0:
64,192,30858,1,0,0:0:0:0:
448,192,30958,1,0,0:0:0:0:
192,192,31058,1,4,3:0:0:0:
320,192,31058,128,0,31158:0:0:0:0:
64,192,31158,1,0,0:0:0:0:
192,192,31258,1,4,3:0:0:0:
320,192,31258,128,0,31358:0:0:0:0:
64,192,31358,1,0,0:0:0:0:
448,192,31458,1,0,0:0:0:0:
64,192,31558,1,0,0:0:0:0:
320,192,31658,1,4,3:0:0:0:
192,192,31658,128,0,31758:0:0:0:0:
448,192,31758,1,0,0:0:0:0:
320,192,31858,1,4,3:0:0:0:
192,192,31858,128,0,31958:0:0:0:0:
448,192,31958,1,0,0:0:0:0:
64,192,32058,1,0,0:0:0:0:
448,192,32158,1,0,0:0:0:0:
192,192,32258,1,0,0:0:0:0:
320,192,32258,128,0,32358:0:0:0:0:
64,192,32358,1,0,0:0:0:0:
192,192,32458,1,0,0:0:0:0:
320,192,32458,128,0,32558:0:0:0:0:
64,192,32558,1,0,0:0:0:0:
448,192,32658,1,0,0:0:0:0:
64,192,32758,1,0,0:0:0:0:
320,192,32858,1,4,3:0:0:0:
192,192,32858,128,0,32958:0:0:0:0:
448,192,32958,1,0,0:0:0:0:
192,192,33058,1,0,0:0:0:0:
320,192,33058,128,0,33158:0:0:0:0:
448,192,33158,1,0,0:0:0:0:
64,192,33258,128,0,33658:0:0:0:0:
192,192,33258,1,0,0:0:0:0:
320,192,33358,1,0,0:0:0:0:
448,192,33458,1,0,0:0:0:0:
192,192,33558,1,0,0:0:0:0:
320,192,33658,1,0,0:0:0:0:
448,192,33658,128,0,33758:0:0:0:0:
64,192,33758,1,0,0:0:0:0:
320,192,33858,1,0,0:0:0:0:
448,192,33858,128,0,33958:0:0:0:0:
64,192,33958,1,0,0:0:0:0:
320,192,34058,1,0,0:0:0:0:
192,192,34158,1,0,0:0:0:0:
448,192,34258,1,0,0:0:0:0:
320,192,34358,1,0,0:0:0:0:
192,192,34458,1,0,0:0:0:0:
64,192,34458,128,0,34558:0:0:0:0:
448,192,34558,1,0,0:0:0:0:
192,192,34658,1,0,0:0:0:0:
64,192,34658,128,0,34758:0:0:0:0:
448,192,34758,1,0,0:0:0:0:
192,192,34858,1,0,0:0:0:0:
320,192,34958,1,0,0:0:0:0:
64,192,35058,1,0,0:0:0:0:
192,192,35158,1,0,0:0:0:0:
320,192,35258,1,4,3:0:0:0:
448,192,35258,128,0,35358:0:0:0:0:
64,192,35358,1,0,0:0:0:0:
320,192,35458,1,4,3:0:0:0:
448,192,35458,128,0,35558:0:0:0:0:
64,192,35558,1,0,0:0:0:0:
320,192,35658,1,0,0:0:0:0:
192,192,35758,1,0,0:0:0:0:
448,192,35858,1,0,0:0:0:0:
320,192,35958,1,0,0:0:0:0:
192,192,36058,1,0,0:0:0:0:
64,192,36058,128,0,36158:0:0:0:0:
448,192,36158,1,0,0:0:0:0:
192,192,36258,1,0,0:0:0:0:
64,192,36258,128,0,36358:0:0:0:0:
448,192,36358,1,0,0:0:0:0:
64,192,36458,1,4,3:0:0:0:
320,192,36458,128,0,36858:0:0:0:0:
192,192,36558,1,0,0:0:0:0:
448,192,36658,1,0,0:0:0:0:
192,192,36758,1,0,0:0:0:0:
64,192,36858,1,0,0:0:0:0:
448,192,36858,128,0,36958:0:0:0:0:
192,192,36958,1,0,0:0:0:0:
64,192,37058,1,0,0:0:0:0:
448,192,37058,128,0,37158:0:0:0:0:
192,192,37158,1,0,0:0:0:0:
320,192,37258,1,0,0:0:0:0:
192,192,37358,1,0,0:0:0:0:
448,192,37458,1,4,3:0:0:0:
64,192,37458,128,0,37558:0:0:0:0:
320,192,37558,1,0,0:0:0:0:
448,192,37658,1,4,3:0:0:0:
64,192,37658,128,0,37758:0:0:0:0:
320,192,37758,1,0,0:0:0:0:
192,192,37858,1,0,0:0:0:0:
320,192,37958,1,0,0:0:0:0:
64,192,38058,1,4,3:0:0:0:
448,192,38058,128,0,38158:0:0:0:0:
192,192,38158,1,0,0:0:0:0:
64,192,38258,1,4,3:0:0:0:
448,192,38258,128,0,38358:0:0:0:0:
192,192,38358,1,0,0:0:0:0:
320,192,38458,1,0,0:0:0:0:
192,192,38558,1,0,0:0:0:0:
448,192,38658,1,0,0:0:0:0:
64,192,38658,128,0,38758:0:0:0:0:
320,192,38758,1,0,0:0:0:0:
448,192,38858,1,0,0:0:0:0:
64,192,38858,128,0,38958:0:0:0:0:
320,192,38958,1,0,0:0:0:0:
192,192,39058,1,0,0:0:0:0:
320,192,39158,1,0,0:0:0:0:
64,192,39258,1,0,0:0:0:0:
448,192,39258,128,0,39358:0:0:0:0:
192,192,39358,1,0,0:0:0:0:
448,192,39458,1,0,0:0:0:0:
320,192,39458,128,0,39558:0:0:0:0:
192,192,39558,1,0,0:0:0:0:
448,192,39658,1,0,0:0:0:0:
64,192,39658,128,0,40058:0:0:0:0:
320,192,39758,1,0,0:0:0:0:
192,192,39858,1,0,0:0:0:0:
448,192,39958,1,0,0:0:0:0:
320,192,40058,1,8,0:0:0:0:
192,192,40058,1,0,0:0:0:0:
192,192,40458,1,0,0:0:0:0:
320,192,40458,1,8,0:0:0:0:
192,192,40858,1,0,0:0:0:0:
320,192,40858,1,8,0:0:0:0:
448,192,41158,1,8,0:0:0:0:
320,192,41258,1,8,0:0:0:0:
192,192,41258,1,0,0:0:0:0:
64,192,41458,1,0,0:0:0:0:
448,192,41458,1,8,0:0:0:0:
192,192,41658,1,0,0:0:0:0:
320,192,41658,1,8,0:0:0:0:
192,192,42058,1,0,0:0:0:0:
320,192,42058,1,8,0:0:0:0:
192,192,42458,1,0,0:0:0:0:
320,192,42458,1,8,0:0:0:0:
64,192,42758,1,8,0:0:0:0:
192,192,42858,1,8,0:0:0:0:
320,192,42858,1,0,0:0:0:0:
64,192,43058,1,8,0:0:0:0:
448,192,43058,1,0,0:0:0:0:
64,192,43258,1,8,0:0:0:0:
320,192,43258,1,0,0:0:0:0:
64,192,43658,1,8,0:0:0:0:
320,192,43658,1,0,0:0:0:0:
64,192,44058,1,8,0:0:0:0:
320,192,44058,1,0,0:0:0:0:
192,192,44358,1,8,0:0:0:0:
64,192,44458,1,8,0:0:0:0:
320,192,44458,1,0,0:0:0:0:
448,192,44658,1,0,0:0:0:0:
192,192,44658,1,8,0:0:0:0:
64,192,44858,1,8,0:0:0:0:
320,192,44858,1,0,0:0:0:0:
64,192,45258,1,8,0:0:0:0:
320,192,45258,1,0,0:0:0:0:
64,192,45658,1,8,0:0:0:0:
320,192,45658,1,0,0:0:0:0:
448,192,45958,1,8,0:0:0:0:
320,192,46058,1,8,0:0:0:0:
64,192,46058,1,0,0:0:0:0:
448,192,46258,1,8,0:0:0:0:
192,192,46258,1,0,0:0:0:0:
64,192,46458,1,0,0:0:0:0:
320,192,46458,1,0,0:0:0:0:
64,192,46658,1,0,0:0:0:0:
448,192,46658,1,0,0:0:0:0:
64,192,46858,1,0,0:0:0:0:
320,192,46858,1,0,0:0:0:0:
64,192,47058,1,0,0:0:0:0:
192,192,47058,1,0,0:0:0:0:
448,192,47258,1,0,0:0:0:0:
320,192,47258,1,0,0:0:0:0:
448,192,47458,1,0,0:0:0:0:
192,192,47458,1,0,0:0:0:0:
320,192,47558,1,0,0:0:0:0:
448,192,47658,1,0,0:0:0:0:
64,192,47658,1,0,0:0:0:0:
192,192,47758,1,0,0:0:0:0:
448,192,47858,1,0,0:0:0:0:
320,192,47858,1,0,0:0:0:0:
192,192,48058,1,0,0:0:0:0:
64,192,48058,1,0,0:0:0:0:
192,192,48258,1,0,0:0:0:0:
320,192,48258,1,0,0:0:0:0:
192,192,48458,1,0,0:0:0:0:
448,192,48458,1,0,0:0:0:0:
192,192,48658,1,0,0:0:0:0:
64,192,48658,1,0,0:0:0:0:
320,192,48858,1,0,0:0:0:0:
448,192,48858,1,0,0:0:0:0:
320,192,49058,1,0,0:0:0:0:
64,192,49058,1,0,0:0:0:0:
448,192,49158,1,0,0:0:0:0:
320,192,49258,1,0,0:0:0:0:
192,192,49258,1,0,0:0:0:0:
64,192,49358,1,0,0:0:0:0:
320,192,49458,1,0,0:0:0:0:
448,192,49458,1,0,0:0:0:0:
64,192,49658,1,0,0:0:0:0:
192,192,49658,1,0,0:0:0:0:
64,192,49858,1,0,0:0:0:0:
448,192,49858,1,0,0:0:0:0:
320,192,50058,1,0,0:0:0:0:
192,192,50058,1,0,0:0:0:0:
320,192,50258,1,0,0:0:0:0:
64,192,50258,1,0,0:0:0:0:
192,192,50458,1,0,0:0:0:0:
448,192,50458,1,0,0:0:0:0:
192,192,50658,1,0,0:0:0:0:
320,192,50658,1,0,0:0:0:0:
64,192,50758,1,0,0:0:0:0:
448,192,50858,1,0,0:0:0:0:
320,192,50858,1,0,0:0:0:0:
192,192,50958,1,0,0:0:0:0:
448,192,51058,1,0,0:0:0:0:
64,192,51058,1,0,0:0:0:0:
192,192,51258,1,0,0:0:0:0:
320,192,51258,1,0,0:0:0:0:
64,192,51458,1,0,0:0:0:0:
320,192,51458,1,0,0:0:0:0:
448,192,51658,1,0,0:0:0:0:
192,192,51658,1,0,0:0:0:0:
448,192,51858,1,0,0:0:0:0:
64,192,51858,1,0,0:0:0:0:
192,192,52058,1,0,0:0:0:0:
320,192,52058,1,0,0:0:0:0:
192,192,52258,1,0,0:0:0:0:
448,192,52258,1,0,0:0:0:0:
320,192,52358,1,0,0:0:0:0:
448,192,52458,1,0,0:0:0:0:
64,192,52458,1,0,0:0:0:0:
192,192,52458,1,0,0:0:0:0:
192,192,52858,1,0,0:0:0:0:
448,192,52858,1,0,0:0:0:0:
192,192,53058,1,0,0:0:0:0:
448,192,53258,1,0,0:0:0:0:
64,192,53258,1,0,0:0:0:0:
320,192,53458,1,0,0:0:0:0:
320,192,53658,1,0,0:0:0:0:
192,192,53658,1,0,0:0:0:0:
448,192,53858,1,0,0:0:0:0:
64,192,54058,1,0,0:0:0:0:
320,192,54058,1,0,0:0:0:0:
64,192,54258,1,0,0:0:0:0:
192,192,54458,1,0,0:0:0:0:
320,192,54458,1,0,0:0:0:0:
448,192,54658,1,0,0:0:0:0:
448,192,54858,1,0,0:0:0:0:
64,192,54858,1,0,0:0:0:0:
192,192,55058,1,0,0:0:0:0:
320,192,55258,1,0,0:0:0:0:
448,192,55258,128,0,55658:0:0:0:0:
64,192,55458,1,0,0:0:0:0:
192,192,55658,1,0,0:0:0:0:
320,192,55658,128,0,56058:0:0:0:0:
64,192,55858,1,0,0:0:0:0:
448,192,56058,1,0,0:0:0:0:
192,192,56058,1,0,0:0:0:0:
448,192,56258,1,0,0:0:0:0:
64,192,56458,1,0,0:0:0:0:
192,192,56458,1,0,0:0:0:0:
320,192,56658,1,0,0:0:0:0:
320,192,56858,1,0,0:0:0:0:
64,192,56858,1,0,0:0:0:0:
448,192,57058,1,0,0:0:0:0:
192,192,57258,1,0,0:0:0:0:
64,192,57258,1,0,0:0:0:0:
192,192,57458,1,0,0:0:0:0:
448,192,57658,1,0,0:0:0:0:
320,192,57658,1,0,0:0:0:0:
64,192,57858,1,0,0:0:0:0:
64,192,58058,1,0,0:0:0:0:
448,192,58058,1,0,0:0:0:0:
320,192,58258,1,0,0:0:0:0:
448,192,58458,1,0,0:0:0:0:
192,192,58458,1,0,0:0:0:0:
192,192,58658,1,0,0:0:0:0:
64,192,58858,1,0,0:0:0:0:
192,192,58858,1,0,0:0:0:0:
320,192,59058,1,0,0:0:0:0:
448,192,59258,1,0,0:0:0:0:
64,192,59258,1,0,0:0:0:0:
448,192,59458,1,0,0:0:0:0:
64,192,59658,1,0,0:0:0:0:
320,192,59658,1,0,0:0:0:0:
192,192,59858,1,0,0:0:0:0:
192,192,60058,1,0,0:0:0:0:
448,192,60058,1,0,0:0:0:0:
64,192,60258,1,0,0:0:0:0:
320,192,60458,1,0,0:0:0:0:
448,192,60458,1,0,0:0:0:0:
320,192,60658,1,0,0:0:0:0:
192,192,60858,1,0,0:0:0:0:
448,192,60858,1,0,0:0:0:0:
64,192,61058,1,0,0:0:0:0:
64,192,61258,1,0,0:0:0:0:
320,192,61258,1,0,0:0:0:0:
448,192,61458,1,0,0:0:0:0:
192,192,61658,1,0,0:0:0:0:
64,192,61658,128,0,62058:0:0:0:0:
448,192,61858,1,0,0:0:0:0:
192,192,62058,128,0,62458:0:0:0:0:
320,192,62058,1,0,0:0:0:0:
448,192,62258,1,0,0:0:0:0:
64,192,62458,1,0,0:0:0:0:
320,192,62458,1,0,0:0:0:0:
64,192,62658,1,0,0:0:0:0:
192,192,62858,1,0,0:0:0:0:
320,192,62858,1,0,0:0:0:0:
448,192,63058,1,0,0:0:0:0:
448,192,63258,1,0,0:0:0:0:
192,192,63258,1,0,0:0:0:0:
64,192,63458,1,0,0:0:0:0:
192,192,63658,1,0,0:0:0:0:
320,192,63658,1,0,0:0:0:0:
192,192,63858,1,0,0:0:0:0:
64,192,64058,1,0,0:0:0:0:
448,192,64058,1,0,0:0:0:0:
320,192,64258,1,0,0:0:0:0:
320,192,64458,1,0,0:0:0:0:
64,192,64458,1,0,0:0:0:0:
448,192,64658,1,0,0:0:0:0:
192,192,65058,1,0,0:0:0:0:
64,192,65058,128,0,65658:0:0:0:0:
448,192,65658,1,0,0:0:0:0:
320,192,65658,1,0,0:0:0:0:
320,192,65858,1,0,0:0:0:0:
192,192,66058,1,0,0:0:0:0:
64,192,66058,1,0,0:0:0:0:
448,192,66258,1,0,0:0:0:0:
192,192,66458,1,0,0:0:0:0:
448,192,66458,1,0,0:0:0:0:
320,192,66658,1,0,0:0:0:0:
448,192,66858,1,0,0:0:0:0:
64,192,66858,1,0,0:0:0:0:
64,192,67058,1,0,0:0:0:0:
320,192,67258,1,0,0:0:0:0:
448,192,67258,1,0,0:0:0:0:
192,192,67458,1,0,0:0:0:0:
192,192,67658,1,0,0:0:0:0:
448,192,67658,1,0,0:0:0:0:
64,192,67858,1,0,0:0:0:0:
320,192,68058,1,0,0:0:0:0:
448,192,68058,128,0,68458:0:0:0:0:
192,192,68258,1,0,0:0:0:0:
64,192,68458,128,0,68858:0:0:0:0:
320,192,68458,1,0,0:0:0:0:
448,192,68658,1,0,0:0:0:0:
192,192,68858,1,0,0:0:0:0:
320,192,68858,1,0,0:0:0:0:
192,192,69058,1,0,0:0:0:0:
448,192,69258,1,0,0:0:0:0:
320,192,69258,1,0,0:0:0:0:
64,192,69458,1,0,0:0:0:0:
64,192,69658,1,0,0:0:0:0:
320,192,69658,1,0,0:0:0:0:
192,192,69858,1,0,0:0:0:0:
448,192,70058,1,0,0:0:0:0:
64,192,70058,1,0,0:0:0:0:
320,192,70258,1,0,0:0:0:0:
320,192,70458,1,0,0:0:0:0:
64,192,70458,1,0,0:0:0:0:
192,192,70658,1,0,0:0:0:0:
448,192,70858,1,0,0:0:0:0:
64,192,70858,1,0,0:0:0:0:
448,192,71058,1,0,0:0:0:0:
192,192,71258,1,0,0:0:0:0:
320,192,71258,1,0,0:0:0:0:
192,192,71458,1,0,0:0:0:0:
192,192,71658,1,0,0:0:0:0:
448,192,71658,128,0,72058:0:0:0:0:
320,192,72058,1,0,0:0:0:0:
64,192,72058,1,0,0:0:0:0:
64,192,72258,1,0,0:0:0:0:
320,192,72458,1,0,0:0:0:0:
192,192,72458,1,0,0:0:0:0:
448,192,72658,1,0,0:0:0:0:
448,192,72858,1,0,0:0:0:0:
64,192,72858,1,0,0:0:0:0:
320,192,73058,1,0,0:0:0:0:
192,192,73258,1,0,0:0:0:0:
448,192,73258,1,0,0:0:0:0:
192,192,73458,1,0,0:0:0:0:
448,192,73658,1,0,0:0:0:0:
64,192,73658,1,0,0:0:0:0:
320,192,73858,1,0,0:0:0:0:
320,192,74058,1,0,0:0:0:0:
192,192,74058,1,0,0:0:0:0:
448,192,74258,1,0,0:0:0:0:
64,192,74358,1,0,0:0:0:0:
448,192,74458,1,0,0:0:0:0:
192,192,74458,1,0,0:0:0:0:
320,192,74558,1,0,0:0:0:0:
64,192,74658,1,0,0:0:0:0:
448,192,74758,1,0,0:0:0:0:
192,192,74858,1,0,0:0:0:0:
320,192,74858,1,0,0:0:0:0:
64,192,74958,1,0,0:0:0:0:
448,192,75058,1,0,0:0:0:0:
192,192,75158,1,0,0:0:0:0:
320,192,75258,1,0,0:0:0:0:
448,192,75258,1,0,0:0:0:0:
192,192,75358,1,0,0:0:0:0:
64,192,75458,1,0,0:0:0:0:
448,192,75558,1,0,0:0:0:0:
192,192,75658,1,0,0:0:0:0:
320,192,75658,1,0,0:0:0:0:
64,192,75758,1,0,0:0:0:0:
448,192,75858,1,0,0:0:0:0:
320,192,75958,1,0,0:0:0:0:
64,192,76058,1,0,0:0:0:0:
192,192,76058,1,0,0:0:0:0:
320,192,76258,1,0,0:0:0:0:
448,192,76458,1,0,0:0:0:0:
64,192,76458,1,0,0:0:0:0:
192,192,76658,128,0,77858:0:0:0:0:
448,192,76858,1,0,0:0:0:0:
320,192,76858,1,0,0:0:0:0:
64,192,77058,1,0,0:0:0:0:
64,192,77258,1,0,0:0:0:0:
448,192,77258,1,0,0:0:0:0:
320,192,77858,1,0,0:0:0:0:
192,192,78058,1,0,0:0:0:0:
64,192,78058,1,0,0:0:0:0:
448,192,78058,1,0,0:0:0:0:
320,192,78258,1,0,0:0:0:0:
64,192,78458,1,0,0:0:0:0:
192,192,78458,1,0,0:0:0:0:
64,192,78858,1,0,0:0:0:0:
192,192,78858,1,0,0:0:0:0:
64,192,79258,1,0,0:0:0:0:
192,192,79258,1,0,0:0:0:0:
448,192,79558,1,0,0:0:0:0:
192,192,79658,1,0,0:0:0:0:
64,192,79658,1,0,0:0:0:0:
448,192,79858,1,0,0:0:0:0:
192,192,80058,1,0,0:0:0:0:
64,192,80058,1,0,0:0:0:0:
192,192,80358,1,0,0:0:0:0:
64,192,80358,1,0,0:0:0:0:
448,192,80458,1,0,0:0:0:0:
192,192,80858,1,0,0:0:0:0:
64,192,80858,1,0,0:0:0:0:
448,192,81158,1,0,0:0:0:0:
192,192,81258,1,0,0:0:0:0:
64,192,81258,1,0,0:0:0:0:
320,192,81358,1,0,0:0:0:0:
448,192,81458,1,0,0:0:0:0:
64,192,81558,1,0,0:0:0:0:
320,192,81658,1,0,0:0:0:0:
448,192,81658,1,0,0:0:0:0:
320,192,82058,1,0,0:0:0:0:
448,192,82058,1,0,0:0:0:0:
320,192,82458,1,0,0:0:0:0:
448,192,82458,1,0,0:0:0:0:
64,192,82758,1,0,0:0:0:0:
320,192,82858,1,0,0:0:0:0:
448,192,82858,1,0,0:0:0:0:
64,192,83058,1,0,0:0:0:0:
320,192,83258,1,0,0:0:0:0:
448,192,83258,1,0,0:0:0:0:
448,192,83558,1,0,0:0:0:0:
320,192,83558,1,0,0:0:0:0:
64,192,83658,1,0,0:0:0:0:
448,192,84058,1,0,0:0:0:0:
320,192,84058,1,0,0:0:0:0:
64,192,84358,1,0,0:0:0:0:
448,192,84458,1,0,0:0:0:0:
320,192,84458,1,0,0:0:0:0:
192,192,84558,1,0,0:0:0:0:
64,192,84658,1,0,0:0:0:0:
448,192,84758,1,0,0:0:0:0:
192,192,84858,1,0,0:0:0:0:
64,192,84858,1,0,0:0:0:0:
64,192,85258,1,0,0:0:0:0:
192,192,85258,1,0,0:0:0:0:
64,192,85658,1,0,0:0:0:0:
192,192,85658,1,0,0:0:0:0:
448,192,85958,1,0,0:0:0:0:
192,192,86058,1,0,0:0:0:0:
64,192,86058,1,0,0:0:0:0:
448,192,86258,1,0,0:0:0:0:
64,192,86458,1,0,0:0:0:0:
192,192,86458,1,0,0:0:0:0:
64,192,86758,1,0,0:0:0:0:
192,192,86758,1,0,0:0:0:0:
448,192,86858,1,0,0:0:0:0:
192,192,87258,1,0,0:0:0:0:
64,192,87258,1,0,0:0:0:0:
320,192,87558,1,0,0:0:0:0:
64,192,87658,1,0,0:0:0:0:
192,192,87658,1,0,0:0:0:0:
448,192,87758,1,0,0:0:0:0:
64,192,87858,1,0,0:0:0:0:
192,192,87958,1,0,0:0:0:0:
320,192,88058,1,0,0:0:0:0:
448,192,88058,1,0,0:0:0:0:
64,192,88158,1,0,0:0:0:0:
192,192,88258,1,0,0:0:0:0:
320,192,88358,1,0,0:0:0:0:
448,192,88458,1,0,0:0:0:0:
64,192,88458,1,0,0:0:0:0:
320,192,88558,1,0,0:0:0:0:
192,192,88658,1,0,0:0:0:0:
64,192,88758,1,0,0:0:0:0:
448,192,88858,1,0,0:0:0:0:
320,192,88858,1,0,0:0:0:0:
192,192,88958,1,0,0:0:0:0:
64,192,89058,1,0,0:0:0:0:
320,192,89158,1,0,0:0:0:0:
192,192,89258,1,0,0:0:0:0:
448,192,89258,1,0,0:0:0:0:
64,192,89358,1,0,0:0:0:0:
320,192,89458,1,0,0:0:0:0:
192,192,89558,1,0,0:0:0:0:
320,192,89658,1,0,0:0:0:0:
448,192,89658,1,0,0:0:0:0:
448,192,89958,1,0,0:0:0:0:
320,192,89958,1,0,0:0:0:0:
64,192,90058,1,0,0:0:0:0:
448,192,90458,1,0,0:0:0:0:
320,192,90458,1,0,0:0:0:0:
192,192,90758,1,0,0:0:0:0:
448,192,90858,1,0,0:0:0:0:
320,192,90858,1,0,0:0:0:0:
64,192,90958,1,0,0:0:0:0:
448,192,91058,1,0,0:0:0:0:
320,192,91158,1,0,0:0:0:0:
192,192,91258,1,0,0:0:0:0:
64,192,91258,1,0,0:0:0:0:
448,192,91458,1,0,0:0:0:0:
64,192,91658,1,0,0:0:0:0:
192,192,91658,1,0,0:0:0:0:
64,192,92058,1,0,0:0:0:0:
192,192,92058,1,0,0:0:0:0:
448,192,92258,1,0,0:0:0:0:
320,192,92358,1,0,0:0:0:0:
64,192,92458,1,0,0:0:0:0:
192,192,92458,1,0,0:0:0:0:
320,192,92658,1,0,0:0:0:0:
192,192,92858,1,0,0:0:0:0:
448,192,92858,1,0,0:0:0:0:
320,192,93158,1,0,0:0:0:0:
64,192,93158,1,0,0:0:0:0:
192,192,93258,1,0,0:0:0:0:
320,192,93458,1,0,0:0:0:0:
448,192,93658,1,0,0:0:0:0:
192,192,93658,1,0,0:0:0:0:
320,192,93858,1,0,0:0:0:0:
64,192,93958,1,0,0:0:0:0:
448,192,94058,1,0,0:0:0:0:
192,192,94058,1,0,0:0:0:0:
320,192,94158,1,0,0:0:0:0:
192,192,94258,1,0,0:0:0:0:
64,192,94358,1,0,0:0:0:0:
448,192,94458,1,0,0:0:0:0:
320,192,94458,1,0,0:0:0:0:
192,192,94658,1,0,0:0:0:0:
320,192,94858,1,0,0:0:0:0:
448,192,94858,1,0,0:0:0:0:
320,192,95258,1,0,0:0:0:0:
448,192,95258,1,0,0:0:0:0:
64,192,95458,1,0,0:0:0:0:
192,192,95558,1,0,0:0:0:0:
320,192,95658,1,0,0:0:0:0:
448,192,95658,1,0,0:0:0:0:
192,192,95858,1,0,0:0:0:0:
320,192,96058,1,0,0:0:0:0:
64,192,96058,1,0,0:0:0:0:
192,192,96358,1,0,0:0:0:0:
448,192,96358,1,0,0:0:0:0:
320,192,96458,1,0,0:0:0:0:
192,192,96658,1,0,0:0:0:0:
64,192,96858,1,0,0:0:0:0:
320,192,96858,1,0,0:0:0:0:
448,192,97058,1,0,0:0:0:0:
192,192,97158,1,0,0:0:0:0:
64,192,97258,1,0,0:0:0:0:
320,192,97258,1,0,0:0:0:0:
448,192,97358,1,0,0:0:0:0:
320,192,97458,1,0,0:0:0:0:
192,192,97558,1,0,0:0:0:0:
64,192,97658,1,0,0:0:0:0:
448,192,97658,1,0,0:0:0:0:
320,192,97758,1,0,0:0:0:0:
64,192,97858,1,0,0:0:0:0:
192,192,97858,1,0,0:0:0:0:
448,192,97958,1,0,0:0:0:0:
192,192,98058,1,0,0:0:0:0:
64,192,98058,1,0,0:0:0:0:
320,192,98158,1,0,0:0:0:0:
192,192,98258,1,0,0:0:0:0:
448,192,98258,1,0,0:0:0:0:
64,192,98358,1,0,0:0:0:0:
320,192,98458,1,0,0:0:0:0:
448,192,98458,1,0,0:0:0:0:
192,192,98558,1,0,0:0:0:0:
320,192,98658,1,0,0:0:0:0:
448,192,98658,1,0,0:0:0:0:
64,192,98758,1,0,0:0:0:0:
192,192,98758,1,0,0:0:0:0:
448,192,98858,1,0,0:0:0:0:
320,192,98958,1,0,0:0:0:0:
192,192,98958,1,0,0:0:0:0:
448,192,99058,1,0,0:0:0:0:
64,192,99058,1,0,0:0:0:0:
192,192,99158,1,0,0:0:0:0:
64,192,99258,1,0,0:0:0:0:
448,192,99258,1,0,0:0:0:0:
320,192,99358,1,0,0:0:0:0:
192,192,99458,1,0,0:0:0:0:
448,192,99458,1,0,0:0:0:0:
64,192,99558,1,0,0:0:0:0:
448,192,99658,1,0,0:0:0:0:
320,192,99658,1,0,0:0:0:0:
192,192,99758,1,0,0:0:0:0:
448,192,99858,1,0,0:0:0:0:
64,192,99858,1,0,0:0:0:0:
192,192,99958,1,0,0:0:0:0:
320,192,100058,1,0,0:0:0:0:
448,192,100058,1,0,0:0:0:0:
192,192,100158,1,0,0:0:0:0:
320,192,100258,1,0,0:0:0:0:
64,192,100258,1,0,0:0:0:0:
448,192,100358,1,0,0:0:0:0:
192,192,100358,1,0,0:0:0:0:
320,192,100458,1,0,0:0:0:0:
192,192,100558,1,0,0:0:0:0:
64,192,100558,1,0,0:0:0:0:
320,192,100658,1,0,0:0:0:0:
448,192,100658,1,0,0:0:0:0:
192,192,100758,1,0,0:0:0:0:
320,192,100858,1,0,0:0:0:0:
64,192,100858,1,0,0:0:0:0:
448,192,100958,1,0,0:0:0:0:
64,192,101058,1,0,0:0:0:0:
192,192,101058,1,0,0:0:0:0:
320,192,101158,1,0,0:0:0:0:
64,192,101258,1,0,0:0:0:0:
192,192,101258,1,0,0:0:0:0:
448,192,101358,1,0,0:0:0:0:
320,192,101458,1,0,0:0:0:0:
64,192,101458,1,0,0:0:0:0:
192,192,101558,1,0,0:0:0:0:
448,192,101658,1,0,0:0:0:0:
64,192,101658,1,0,0:0:0:0:
320,192,101758,1,0,0:0:0:0:
64,192,101858,1,0,0:0:0:0:
448,192,101858,1,0,0:0:0:0:
192,192,101958,1,0,0:0:0:0:
320,192,101958,1,0,0:0:0:0:
64,192,102058,1,0,0:0:0:0:
320,192,102158,1,0,0:0:0:0:
448,192,102158,1,0,0:0:0:0:
64,192,102258,1,0,0:0:0:0:
192,192,102258,1,0,0:0:0:0:
448,192,102358,1,0,0:0:0:0:
64,192,102458,1,0,0:0:0:0:
320,192,102458,1,0,0:0:0:0:
448,192,102558,1,0,0:0:0:0:
320,192,102658,1,0,0:0:0:0:
192,192,102658,1,0,0:0:0:0:
64,192,102758,1,0,0:0:0:0:
448,192,102858,1,0,0:0:0:0:
320,192,102858,1,0,0:0:0:0:
192,192,102958,1,0,0:0:0:0:
448,192,103058,1,0,0:0:0:0:
320,192,103058,1,0,0:0:0:0:
64,192,103158,1,0,0:0:0:0:
192,192,103258,1,0,0:0:0:0:
448,192,103258,1,0,0:0:0:0:
320,192,103358,1,0,0:0:0:0:
448,192,103458,1,0,0:0:0:0:
64,192,103458,1,0,0:0:0:0:
192,192,103558,1,0,0:0:0:0:
64,192,103658,1,0,0:0:0:0:
320,192,103658,128,0,104058:0:0:0:0:
448,192,103658,1,0,0:0:0:0:
192,192,103758,1,0,0:0:0:0:
64,192,103858,1,0,0:0:0:0:
448,192,103958,1,0,0:0:0:0:
192,192,104058,1,0,0:0:0:0:
64,192,104058,128,0,104158:0:0:0:0:
448,192,104158,1,0,0:0:0:0:
192,192,104258,1,0,0:0:0:0:
64,192,104258,128,0,104358:0:0:0:0:
448,192,104358,1,0,0:0:0:0:
320,192,104458,1,0,0:0:0:0:
192,192,104558,1,0,0:0:0:0:
320,192,104658,1,0,0:0:0:0:
64,192,104758,1,0,0:0:0:0:
320,192,104858,1,0,0:0:0:0:
448,192,104858,128,0,104958:0:0:0:0:
192,192,104958,1,0,0:0:0:0:
320,192,105058,1,0,0:0:0:0:
448,192,105058,128,0,105158:0:0:0:0:
192,192,105158,1,0,0:0:0:0:
64,192,105258,1,0,0:0:0:0:
320,192,105358,1,0,0:0:0:0:
192,192,105458,1,0,0:0:0:0:
448,192,105558,1,0,0:0:0:0:
192,192,105658,1,0,0:0:0:0:
64,192,105658,128,0,105758:0:0:0:0:
320,192,105758,1,0,0:0:0:0:
192,192,105858,1,0,0:0:0:0:
64,192,105858,128,0,105958:0:0:0:0:
320,192,105958,1,0,0:0:0:0:
448,192,106058,1,0,0:0:0:0:
320,192,106158,1,0,0:0:0:0:
192,192,106258,1,0,0:0:0:0:
64,192,106358,1,0,0:0:0:0:
320,192,106458,1,0,0:0:0:0:
448,192,106458,128,0,106558:0:0:0:0:
192,192,106558,1,0,0:0:0:0:
320,192,106658,1,0,0:0:0:0:
448,192,106658,128,0,106758:0:0:0:0:
192,192,106758,1,0,0:0:0:0:
448,192,106858,1,0,0:0:0:0:
64,192,106858,128,0,107258:0:0:0:0:
192,192,106958,1,0,0:0:0:0:
320,192,107058,1,0,0:0:0:0:
448,192,107158,1,0,0:0:0:0:
320,192,107258,1,0,0:0:0:0:
192,192,107258,128,0,107358:0:0:0:0:
448,192,107358,1,0,0:0:0:0:
320,192,107458,1,0,0:0:0:0:
192,192,107458,128,0,107558:0:0:0:0:
448,192,107558,1,0,0:0:0:0:
64,192,107658,1,0,0:0:0:0:
448,192,107758,1,0,0:0:0:0:
192,192,107858,1,0,0:0:0:0:
320,192,107858,128,0,107958:0:0:0:0:
64,192,107958,1,0,0:0:0:0:
192,192,108058,1,0,0:0:0:0:
320,192,108058,128,0,108158:0:0:0:0:
64,192,108158,1,0,0:0:0:0:
448,192,108258,1,0,0:0:0:0:
64,192,108358,1,0,0:0:0:0:
320,192,108458,1,0,0:0:0:0:
192,192,108458,128,0,108558:0:0:0:0:
448,192,108558,1,0,0:0:0:0:
320,192,108658,1,0,0:0:0:0:
192,192,108658,128,0,108758:0:0:0:0:
448,192,108758,1,0,0:0:0:0:
64,192,108858,1,0,0:0:0:0:
448,192,108958,1,0,0:0:0:0:
192,192,109058,1,0,0:0:0:0:
320,192,109058,128,0,109158:0:0:0:0:
64,192,109158,1,0,0:0:0:0:
192,192,109258,1,0,0:0:0:0:
320,192,109258,128,0,109358:0:0:0:0:
64,192,109358,1,0,0:0:0:0:
448,192,109458,1,0,0:0:0:0:
64,192,109558,1,0,0:0:0:0:
192,192,109658,1,0,0:0:0:0:
320,192,109658,128,0,109758:0:0:0:0:
448,192,109758,1,0,0:0:0:0:
192,192,109858,128,0,109958:0:0:0:0:
64,192,109958,1,0,0:0:0:0:
448,192,110058,128,0,110458:0:0:0:0:
320,192,110058,1,0,0:0:0:0:
192,192,110158,1,0,0:0:0:0:
64,192,110258,1,0,0:0:0:0:
320,192,110358,1,0,0:0:0:0:
192,192,110458,1,0,0:0:0:0:
64,192,110458,128,0,110558:0:0:0:0:
320,192,110558,1,0,0:0:0:0:
192,192,110658,1,0,0:0:0:0:
64,192,110658,128,0,110758:0:0:0:0:
320,192,110758,1,0,0:0:0:0:
448,192,110858,1,0,0:0:0:0:
192,192,110958,1,0,0:0:0:0:
320,192,111058,1,0,0:0:0:0:
64,192,111158,1,0,0:0:0:0:
320,192,111258,1,0,0:0:0:0:
448,192,111258,128,0,111358:0:0:0:0:
192,192,111358,1,0,0:0:0:0:
320,192,111458,1,0,0:0:0:0:
448,192,111458,128,0,111558:0:0:0:0:
192,192,111558,1,0,0:0:0:0:
64,192,111658,1,0,0:0:0:0:
448,192,111758,1,0,0:0:0:0:
192,192,111858,1,0,0:0:0:0:
320,192,111958,1,0,0:0:0:0:
192,192,112058,1,0,0:0:0:0:
64,192,112058,128,0,112158:0:0:0:0:
448,192,112158,1,0,0:0:0:0:
192,192,112258,1,0,0:0:0:0:
64,192,112258,128,0,112358:0:0:0:0:
448,192,112358,1,0,0:0:0:0:
320,192,112458,1,0,0:0:0:0:
192,192,112558,1,0,0:0:0:0:
448,192,112658,1,0,0:0:0:0:
64,192,112758,1,0,0:0:0:0:
320,192,112858,1,0,0:0:0:0:
448,192,112858,128,0,112958:0:0:0:0:
192,192,112958,1,0,0:0:0:0:
320,192,113058,1,0,0:0:0:0:
448,192,113058,128,0,113158:0:0:0:0:
64,192,113158,1,0,0:0:0:0:
448,192,113258,1,0,0:0:0:0:
192,192,113258,128,0,113658:0:0:0:0:
320,192,113358,1,0,0:0:0:0:
64,192,113458,1,0,0:0:0:0:
320,192,113558,1,0,0:0:0:0:
64,192,113658,1,0,0:0:0:0:
448,192,113658,128,0,113758:0:0:0:0:
192,192,113758,1,0,0:0:0:0:
64,192,113858,1,0,0:0:0:0:
448,192,113858,128,0,113958:0:0:0:0:
192,192,113958,1,0,0:0:0:0:
320,192,114058,1,0,0:0:0:0:
192,192,114158,1,0,0:0:0:0:
448,192,114258,1,0,0:0:0:0:
64,192,114258,128,0,114358:0:0:0:0:
320,192,114358,1,0,0:0:0:0:
448,192,114458,1,0,0:0:0:0:
64,192,114458,128,0,114558:0:0:0:0:
320,192,114558,1,0,0:0:0:0:
192,192,114658,1,0,0:0:0:0:
64,192,114758,1,0,0:0:0:0:
320,192,114858,1,0,0:0:0:0:
192,192,114858,128,0,114958:0:0:0:0:
448,192,114958,1,0,0:0:0:0:
320,192,115058,1,0,0:0:0:0:
192,192,115058,128,0,115158:0:0:0:0:
448,192,115158,1,0,0:0:0:0:
64,192,115258,1,0,0:0:0:0:
448,192,115358,1,0,0:0:0:0:
192,192,115458,1,0,0:0:0:0:
320,192,115458,128,0,115558:0:0:0:0:
64,192,115558,1,0,0:0:0:0:
192,192,115658,1,0,0:0:0:0:
320,192,115658,128,0,115758:0:0:0:0:
64,192,115758,1,0,0:0:0:0:
448,192,115858,1,0,0:0:0:0:
64,192,115958,1,0,0:0:0:0:
320,192,116058,1,0,0:0:0:0:
448,192,116058,128,0,116158:0:0:0:0:
64,192,116158,1,0,0:0:0:0:
192,192,116258,1,0,0:0:0:0:
320,192,116258,128,0,116358:0:0:0:0:
448,192,116358,1,0,0:0:0:0:
64,192,116458,1,0,0:0:0:0:
192,192,116458,128,0,116858:0:0:0:0:
320,192,116558,1,0,0:0:0:0:
448,192,116658,1,0,0:0:0:0:
64,192,116758,1,0,0:0:0:0:
448,192,116858,1,0,0:0:0:0:
320,192,116858,1,0,0:0:0:0:
192,192,117258,1,0,0:0:0:0:
448,192,117258,1,0,0:0:0:0:
192,192,117658,1,0,0:0:0:0:
448,192,117658,1,0,0:0:0:0:
320,192,117958,1,0,0:0:0:0:
448,192,118058,1,0,0:0:0:0:
192,192,118058,1,0,0:0:0:0:
64,192,118258,1,0,0:0:0:0:
320,192,118258,1,0,0:0:0:0:
192,192,118458,1,0,0:0:0:0:
448,192,118458,1,0,0:0:0:0:
192,192,118858,1,0,0:0:0:0:
448,192,118858,1,0,0:0:0:0:
192,192,119258,1,0,0:0:0:0:
448,192,119258,1,0,0:0:0:0:
64,192,119558,1,0,0:0:0:0:
192,192,119658,1,0,0:0:0:0:
448,192,119658,1,0,0:0:0:0:
64,192,119858,1,0,0:0:0:0:
320,192,119858,1,0,0:0:0:0:
448,192,120058,1,0,0:0:0:0:
64,192,120058,1,0,0:0:0:0:
64,192,120458,1,0,0:0:0:0:
448,192,120458,1,0,0:0:0:0:
64,192,120858,1,0,0:0:0:0:
448,192,120858,1,0,0:0:0:0:
320,192,121158,1,0,0:0:0:0:
448,192,121258,1,0,0:0:0:0:
64,192,121258,1,0,0:0:0:0:
192,192,121458,1,0,0:0:0:0:
320,192,121458,1,0,0:0:0:0:
64,192,121658,1,0,0:0:0:0:
448,192,121658,1,0,0:0:0:0:
64,192,122058,1,0,0:0:0:0:
448,192,122058,1,0,0:0:0:0:
64,192,122458,1,0,0:0:0:0:
448,192,122458,1,0,0:0:0:0:
192,192,122758,1,0,0:0:0:0:
64,192,122858,1,0,0:0:0:0:
448,192,122858,1,0,0:0:0:0:
192,192,123058,1,0,0:0:0:0:
320,192,123058,1,0,0:0:0:0:
448,192,123258,1,0,0:0:0:0:
64,192,123258,1,0,0:0:0:0:
64,192,123458,1,0,0:0:0:0:
320,192,123458,1,0,0:0:0:0:
192,192,123658,1,0,0:0:0:0:
448,192,123658,1,0,0:0:0:0:
192,192,123858,1,0,0:0:0:0:
64,192,123858,1,0,0:0:0:0:
320,192,124058,1,0,0:0:0:0:
448,192,124058,1,0,0:0:0:0:
320,192,124258,1,0,0:0:0:0:
192,192,124258,1,0,0:0:0:0:
448,192,124358,1,0,0:0:0:0:
64,192,124458,1,0,0:0:0:0:
192,192,124458,1,0,0:0:0:0:
320,192,124558,1,0,0:0:0:0:
448,192,124658,1,0,0:0:0:0:
64,192,124658,1,0,0:0:0:0:
192,192,124858,1,0,0:0:0:0:
448,192,124858,1,0,0:0:0:0:
192,192,125058,1,0,0:0:0:0:
320,192,125058,1,0,0:0:0:0:
448,192,125258,1,0,0:0:0:0:
64,192,125258,1,0,0:0:0:0:
448,192,125458,1,0,0:0:0:0:
192,192,125458,1,0,0:0:0:0:
64,192,125658,1,0,0:0:0:0:
320,192,125658,1,0,0:0:0:0:
64,192,125858,1,0,0:0:0:0:
448,192,125858,1,0,0:0:0:0:
192,192,125958,1,0,0:0:0:0:
320,192,126058,1,0,0:0:0:0:
448,192,126058,1,0,0:0:0:0:
192,192,126158,1,0,0:0:0:0:
320,192,126258,1,0,0:0:0:0:
64,192,126258,1,0,0:0:0:0:
448,192,126458,1,0,0:0:0:0:
64,192,126458,1,0,0:0:0:0:
448,192,126658,1,0,0:0:0:0:
192,192,126658,1,0,0:0:0:0:
192,192,126858,1,0,0:0:0:0:
320,192,126858,1,0,0:0:0:0:
320,192,127058,1,0,0:0:0:0:
64,192,127058,1,0,0:0:0:0:
64,192,127258,1,0,0:0:0:0:
448,192,127258,1,0,0:0:0:0:
448,192,127458,1,0,0:0:0:0:
320,192,127458,1,0,0:0:0:0:
192,192,127558,1,0,0:0:0:0:
320,192,127658,1,0,0:0:0:0:
64,192,127658,1,0,0:0:0:0:
448,192,127758,1,0,0:0:0:0:
64,192,127858,1,0,0:0:0:0:
192,192,127858,1,0,0:0:0:0:
448,192,128058,1,0,0:0:0:0:
192,192,128058,1,0,0:0:0:0:
448,192,128258,1,0,0:0:0:0:
64,192,128258,1,0,0:0:0:0:
64,192,128458,1,0,0:0:0:0:
192,192,128458,1,0,0:0:0:0:
448,192,128658,1,0,0:0:0:0:
192,192,128658,1,0,0:0:0:0:
448,192,128858,1,0,0:0:0:0:
320,192,128858,1,0,0:0:0:0:
320,192,129058,1,0,0:0:0:0:
64,192,129058,1,0,0:0:0:0:
448,192,129158,1,0,0:0:0:0:
192,192,129258,1,0,0:0:0:0:
64,192,129258,1,0,0:0:0:0:
320,192,129258,1,0,0:0:0:0:
64,192,129658,1,0,0:0:0:0:
320,192,129658,1,0,0:0:0:0:
448,192,129758,1,0,0:0:0:0:
320,192,129858,1,0,0:0:0:0:
192,192,130058,128,0,130258:0:0:0:0:
448,192,130258,128,0,130458:0:0:0:0:
64,192,130458,1,0,0:0:0:0:
192,192,130458,1,0,0:0:0:0:
448,192,130558,1,0,0:0:0:0:
320,192,130658,1,0,0:0:0:0:
448,192,130858,128,0,131058:0:0:0:0:
192,192,131058,128,0,131258:0:0:0:0:
64,192,131258,1,0,0:0:0:0:
320,192,131258,1,0,0:0:0:0:
448,192,131358,1,0,0:0:0:0:
192,192,131458,1,0,0:0:0:0:
320,192,131658,128,0,131858:0:0:0:0:
448,192,131858,128,0,132058:0:0:0:0:
64,192,132058,1,0,0:0:0:0:
320,192,132158,1,0,0:0:0:0:
192,192,132258,1,0,0:0:0:0:
448,192,132358,1,0,0:0:0:0:
64,192,132458,1,0,0:0:0:0:
64,192,132658,1,0,0:0:0:0:
320,192,132858,1,0,0:0:0:0:
448,192,132858,1,0,0:0:0:0:
448,192,133058,1,0,0:0:0:0:
64,192,133258,1,0,0:0:0:0:
192,192,133258,1,0,0:0:0:0:
320,192,133458,1,0,0:0:0:0:
320,192,133658,1,0,0:0:0:0:
64,192,133658,1,0,0:0:0:0:
448,192,133858,1,0,0:0:0:0:
192,192,134058,1,0,0:0:0:0:
320,192,134058,1,0,0:0:0:0:
192,192,134258,1,0,0:0:0:0:
448,192,134458,1,0,0:0:0:0:
320,192,134458,1,0,0:0:0:0:
64,192,134658,1,0,0:0:0:0:
64,192,134858,1,0,0:0:0:0:
192,192,134858,1,0,0:0:0:0:
320,192,135058,1,0,0:0:0:0:
64,192,135258,1,0,0:0:0:0:
448,192,135258,1,0,0:0:0:0:
448,192,135458,1,0,0:0:0:0:
192,192,135658,1,0,0:0:0:0:
448,192,135658,1,0,0:0:0:0:
64,192,135858,1,0,0:0:0:0:
320,192,136058,1,0,0:0:0:0:
192,192,136058,1,0,0:0:0:0:
192,192,136258,1,0,0:0:0:0:
448,192,136458,1,0,0:0:0:0:
64,192,136458,1,0,0:0:0:0:
320,192,136658,1,0,0:0:0:0:
320,192,136858,1,0,0:0:0:0:
64,192,136858,1,0,0:0:0:0:
448,192,137058,1,0,0:0:0:0:
64,192,137258,1,0,0:0:0:0:
192,192,137258,1,0,0:0:0:0:
64,192,137458,1,0,0:0:0:0:
320,192,137658,1,0,0:0:0:0:
192,192,137658,1,0,0:0:0:0:
448,192,137858,1,0,0:0:0:0:
448,192,138058,1,0,0:0:0:0:
64,192,138058,1,0,0:0:0:0:
320,192,138258,1,0,0:0:0:0:
448,192,138458,128,0,138858:0:0:0:0:
192,192,138458,1,0,0:0:0:0:
64,192,138658,1,0,0:0:0:0:
192,192,138858,128,0,139258:0:0:0:0:
320,192,138858,1,0,0:0:0:0:
64,192,139058,1,0,0:0:0:0:
448,192,139258,1,0,0:0:0:0:
320,192,139258,1,0,0:0:0:0:
448,192,139458,1,0,0:0:0:0:
320,192,139658,1,0,0:0:0:0:
192,192,139658,1,0,0:0:0:0:
64,192,139858,1,0,0:0:0:0:
64,192,140058,1,0,0:0:0:0:
320,192,140058,1,0,0:0:0:0:
192,192,140258,1,0,0:0:0:0:
448,192,140458,1,0,0:0:0:0:
320,192,140458,1,0,0:0:0:0:
320,192,140658,1,0,0:0:0:0:
64,192,140858,1,0,0:0:0:0:
448,192,140858,1,0,0:0:0:0:
192,192,141058,1,0,0:0:0:0:
192,192,141258,1,0,0:0:0:0:
448,192,141258,1,0,0:0:0:0:
64,192,141458,1,0,0:0:0:0:
320,192,141858,1,0,0:0:0:0:
448,192,141858,128,0,142458:0:0:0:0:
64,192,142458,1,0,0:0:0:0:
192,192,142458,1,0,0:0:0:0:
64,192,142658,1,0,0:0:0:0:
448,192,142858,1,0,0:0:0:0:
192,192,142858,1,0,0:0:0:0:
320,192,143058,1,0,0:0:0:0:
320,192,143258,1,0,0:0:0:0:
64,192,143258,1,0,0:0:0:0:
448,192,143458,1,0,0:0:0:0:
192,192,143658,1,0,0:0:0:0:
64,192,143658,1,0,0:0:0:0:
192,192,143858,1,0,0:0:0:0:
320,192,144058,1,0,0:0:0:0:
64,192,144058,1,0,0:0:0:0:
448,192,144258,1,0,0:0:0:0:
448,192,144458,1,0,0:0:0:0:
192,192,144458,1,0,0:0:0:0:
64,192,144658,1,0,0:0:0:0:
320,192,144858,128,0,145258:0:0:0:0:
448,192,144858,1,0,0:0:0:0:
64,192,145058,1,0,0:0:0:0:
192,192,145258,128,0,145658:0:0:0:0:
448,192,145258,1,0,0:0:0:0:
64,192,145458,1,0,0:0:0:0:
448,192,145658,1,0,0:0:0:0:
320,192,145658,1,0,0:0:0:0:
448,192,145858,1,0,0:0:0:0:
320,192,146058,1,0,0:0:0:0:
192,192,146058,1,0,0:0:0:0:
64,192,146258,1,0,0:0:0:0:
64,192,146458,1,0,0:0:0:0:
448,192,146458,1,0,0:0:0:0:
192,192,146658,1,0,0:0:0:0:
320,192,146858,1,0,0:0:0:0:
448,192,146858,1,0,0:0:0:0:
320,192,147058,1,0,0:0:0:0:
64,192,147258,1,0,0:0:0:0:
448,192,147258,1,0,0:0:0:0:
192,192,147458,1,0,0:0:0:0:
192,192,147658,1,0,0:0:0:0:
320,192,147658,1,0,0:0:0:0:
448,192,147858,1,0,0:0:0:0:
192,192,148058,1,0,0:0:0:0:
64,192,148058,1,0,0:0:0:0:
64,192,148258,1,0,0:0:0:0:
64,192,148458,1,0,0:0:0:0:
448,192,148458,128,0,148858:0:0:0:0:
320,192,148858,1,0,0:0:0:0:
64,192,148858,1,0,0:0:0:0:
64,192,149058,1,0,0:0:0:0:
448,192,149258,1,0,0:0:0:0:
320,192,149258,1,0,0:0:0:0:
192,192,149458,1,0,0:0:0:0:
192,192,149658,1,0,0:0:0:0:
448,192,149658,1,0,0:0:0:0:
64,192,149858,1,0,0:0:0:0:
320,192,150058,1,0,0:0:0:0:
192,192,150058,1,0,0:0:0:0:
320,192,150258,1,0,0:0:0:0:
64,192,150458,1,0,0:0:0:0:
192,192,150458,1,0,0:0:0:0:
448,192,150658,1,0,0:0:0:0:
448,192,150858,1,0,0:0:0:0:
320,192,150858,1,0,0:0:0:0:
192,192,151058,1,0,0:0:0:0:
64,192,151158,1,0,0:0:0:0:
320,192,151258,1,0,0:0:0:0:
448,192,151258,1,0,0:0:0:0:
192,192,151358,1,0,0:0:0:0:
64,192,151458,1,0,0:0:0:0:
320,192,151558,1,0,0:0:0:0:
448,192,151658,1,0,0:0:0:0:
64,192,151658,1,0,0:0:0:0:
192,192,151758,1,0,0:0:0:0:
320,192,151858,1,0,0:0:0:0:
192,192,151958,1,0,0:0:0:0:
448,192,152058,1,0,0:0:0:0:
64,192,152058,1,0,0:0:0:0:
320,192,152158,1,0,0:0:0:0:
192,192,152258,1,0,0:0:0:0:
64,192,152358,1,0,0:0:0:0:
448,192,152458,1,0,0:0:0:0:
192,192,152458,1,0,0:0:0:0:
320,192,152558,1,0,0:0:0:0:
64,192,152658,1,0,0:0:0:0:
320,192,152758,1,0,0:0:0:0:
192,192,152858,1,0,0:0:0:0:
448,192,152858,1,0,0:0:0:0:
320,192,153058,1,0,0:0:0:0:
64,192,153258,1,0,0:0:0:0:
448,192,153258,1,0,0:0:0:0:
192,192,153458,128,0,154658:0:0:0:0:
448,192,153658,1,0,0:0:0:0:
64,192,153658,1,0,0:0:0:0:
320,192,153858,1,0,0:0:0:0:
320,192,154058,1,0,0:0:0:0:
64,192,154058,1,0,0:0:0:0:
64,192,154658,128,0,155258:0:0:0:0:
448,192,155258,1,0,0:0:0:0:
320,192,155258,1,0,0:0:0:0:
320,192,155458,1,0,0:0:0:0:
64,192,155658,1,0,0:0:0:0:
448,192,155658,1,0,0:0:0:0:
192,192,155858,1,0,0:0:0:0:
192,192,156058,1,0,0:0:0:0:
320,192,156058,1,0,0:0:0:0:
64,192,156258,1,0,0:0:0:0:
192,192,156458,1,0,0:0:0:0:
448,192,156458,1,0,0:0:0:0:
448,192,156658,1,0,0:0:0:0:
320,192,156858,1,0,0:0:0:0:
192,192,156858,1,0,0:0:0:0:
64,192,157058,1,0,0:0:0:0:
64,192,157258,1,0,0:0:0:0:
448,192,157258,1,0,0:0:0:0:
192,192,157458,1,0,0:0:0:0:
448,192,157658,128,0,158058:0:0:0:0:
320,192,157658,1,0,0:0:0:0:
64,192,157858,1,0,0:0:0:0:
192,192,158058,128,0,158458:0:0:0:0:
320,192,158058,1,0,0:0:0:0:
64,192,158258,1,0,0:0:0:0:
448,192,158458,1,0,0:0:0:0:
320,192,158458,1,0,0:0:0:0:
448,192,158658,1,0,0:0:0:0:
64,192,158858,1,0,0:0:0:0:
192,192,158858,1,0,0:0:0:0:
320,192,159058,1,0,0:0:0:0:
320,192,159258,1,0,0:0:0:0:
448,192,159258,1,0,0:0:0:0:
192,192,159458,1,0,0:0:0:0:
448,192,159658,1,0,0:0:0:0:
64,192,159658,1,0,0:0:0:0:
64,192,159858,1,0,0:0:0:0:
448,192,160058,1,0,0:0:0:0:
320,192,160058,1,0,0:0:0:0:
192,192,160258,1,0,0:0:0:0:
192,192,160458,1,0,0:0:0:0:
64,192,160458,1,0,0:0:0:0:
320,192,160658,1,0,0:0:0:0:
448,192,160858,1,0,0:0:0:0:
448,192,161058,1,0,0:0:0:0:
448,192,161258,1,0,0:0:0:0:
192,192,161258,1,0,0:0:0:0:
64,192,161658,1,0,0:0:0:0:
64,192,161858,1,0,0:0:0:0:
64,192,162058,1,0,0:0:0:0:
192,192,162258,1,0,0:0:0:0:
192,192,162458,1,0,0:0:0:0:
192,192,162658,1,0,0:0:0:0:
320,192,162858,1,0,0:0:0:0:
320,192,163058,1,0,0:0:0:0:
320,192,163258,1,0,0:0:0:0:
448,192,163458,1,0,0:0:0:0:
448,192,163658,1,0,0:0:0:0:
448,192,163858,1,0,0:0:0:0:
192,192,163958,1,0,0:0:0:0:
320,192,164058,1,0,0:0:0:0:
64,192,164158,1,0,0:0:0:0:
320,192,164258,1,0,0:0:0:0:
448,192,164358,1,0,0:0:0:0:
192,192,164458,1,0,0:0:0:0:
320,192,164558,1,0,0:0:0:0:
64,192,164658,1,0,0:0:0:0:
192,192,164758,1,0,0:0:0:0:
448,192,164858,1,0,0:0:0:0:
320,192,164958,1,0,0:0:0:0:
192,192,165058,1,0,0:0:0:0:
64,192,165158,1,0,0:0:0:0:
320,192,165258,1,0,0:0:0:0:
192,192,165358,1,0,0:0:0:0:
448,192,165458,1,0,0:0:0:0:
320,192,165558,1,0,0:0:0:0:
192,192,165658,1,0,0:0:0:0:
64,192,165758,1,0,0:0:0:0:
320,192,165858,1,0,0:0:0:0:
192,192,165958,1,0,0:0:0:0:
448,192,166058,1,0,0:0:0:0:
320,192,166158,1,0,0:0:0:0:
192,192,166258,1,0,0:0:0:0:
64,192,166358,1,0,0:0:0:0:
320,192,166458,1,0,0:0:0:0:
448,192,166558,1,0,0:0:0:0:
64,192,166658,1,0,0:0:0:0:
192,192,166758,1,0,0:0:0:0:
448,192,166858,1,0,0:0:0:0:
64,192,166958,1,0,0:0:0:0:
320,192,167058,1,0,0:0:0:0:
448,192,167158,1,0,0:0:0:0:
192,192,167258,1,0,0:0:0:0:
320,192,167358,1,0,0:0:0:0:
64,192,167458,1,0,0:0:0:0:
320,192,167558,1,0,0:0:0:0:
192,192,167658,1,0,0:0:0:0:
448,192,167758,1,0,0:0:0:0:
