osu file format v14

[General]
AudioFilename: cYsmix - House With Legs 224.mp3
AudioLeadIn: 0
PreviewTime: 46932
Countdown: 0
SampleSet: Normal
StackLeniency: 0.7
Mode: 0
LetterboxInBreaks: 0
WidescreenStoryboard: 0

[Editor]
Bookmarks: 76932,84432
DistanceSpacing: 1.1
BeatDivisor: 4
GridSize: 4
TimelineZoom: 1.5

[Metadata]
Title:House With Legs
TitleUnicode:House With Legs
Artist:cYsmix
ArtistUnicode:cYsmix
Creator:alacat
Version:Insane
Source:osu!
Tags:beatmapping contest
BeatmapID:793357
BeatmapSetID:360680

[Difficulty]
HPDrainRate:7
CircleSize:4
OverallDifficulty:7
ApproachRate:8
SliderMultiplier:1.8
SliderTickRate:1

[Events]
//Background and Video events
0,0,"osu!cysmix-bgtiny.jpg",0,0
//Break Periods
2,77131,83682
//Storyboard Layer 0 (Background)
//Storyboard Layer 1 (Fail)
//Storyboard Layer 2 (Pass)
//Storyboard Layer 3 (Foreground)
//Storyboard Sound Samples

[TimingPoints]
1932,468.75,4,1,0,50,1,0
9314,-100,4,2,0,20,0,0
9432,-100,4,1,0,50,0,0
13182,-100,4,1,0,60,0,0
15057,-100,4,1,0,70,0,0
16932,-100,4,1,0,50,0,0
31932,-100,4,1,0,60,0,0
45994,-100,4,1,0,40,0,0
46463,-100,4,1,0,60,0,0
46814,-100,4,2,0,20,0,0
46932,-100,4,1,0,80,0,1
57713,-83.3333333333333,4,1,0,80,0,1
57947,-100,4,1,0,80,0,1
76463,-166.666666666667,4,1,0,80,0,0
76932,-166.666666666667,4,2,0,20,0,0
84432,-100,4,1,0,50,0,0
91814,-100,4,2,0,20,0,0
91932,-125,4,1,0,50,0,0
95682,-100,4,1,0,60,0,0
99432,-100,4,1,0,70,0,0
103767,-83.3333333333333,4,1,0,70,0,0
103885,-100,4,1,0,70,0,0
111267,-83.3333333333333,4,1,0,70,0,0
111385,-100,4,1,0,70,0,0
113963,-100,4,1,0,50,0,0
114432,-100,4,1,0,80,0,1
125213,-83.3333333333333,4,1,0,80,0,1
125447,-100,4,1,0,80,0,1
144432,-100,4,1,0,60,0,0
157557,-100,4,1,0,50,0,0
159314,-100,4,1,0,40,0,0

[HitObjects]
128,168,1932,5,0,0:0:0:0:
108,272,2400,1,8,0:0:0:0:
215,291,2869,1,0,0:0:0:0:
234,184,3338,1,8,0:0:0:0:
296,252,3572,5,0,0:0:0:0:
296,252,3689,1,0,0:0:0:0:
296,252,3807,1,0,0:0:0:0:
260,100,4275,1,8,0:0:0:0:
412,152,4744,1,0,0:0:0:0:
322,168,4978,2,0,L|234:184,1,90,8|8,0:0|0:0,0:0:0:0:
212,212,5330,2,0,L|123:196,1,90,8|8,0:0|0:0,0:0:0:0:
88,188,5682,5,0,0:0:0:0:
127,51,6150,1,8,0:0:0:0:
265,91,6619,1,0,0:0:0:0:
225,230,7088,1,8,0:0:0:0:
296,176,7322,5,0,0:0:0:0:
296,176,7439,1,0,0:0:0:0:
296,176,7557,1,0,0:0:0:0:
352,328,8025,1,8,0:0:0:0:
456,204,8494,1,0,0:0:0:0:
368,240,8728,1,2,1:2:0:0:
296,176,8963,2,0,P|232:180|248:232,1,135,8|0,0:0|0:0,0:0:0:0:
272,260,9432,6,0,L|92:240,1,180,4|4,0:3|0:3,0:0:0:0:
40,112,10135,1,2,0:0:0:0:
40,112,10369,2,0,L|218:131,1,180,4|4,0:3|0:3,0:0:0:0:
401,106,11072,5,0,0:0:0:0:
401,106,11189,1,0,0:0:0:0:
401,106,11307,2,0,P|316:122|288:204,1,180,4|4,0:3|0:3,0:0:0:0:
190,353,12010,1,2,0:0:0:0:
190,353,12244,2,0,P|173:268|92:239,1,180,4|4,0:3|0:3,0:0:0:0:
36,320,12947,1,0,0:0:0:0:
224,196,13182,6,0,P|204:180|184:172,3,45,8|0|0|0,0:0|0:0|0:0|0:0,0:0:0:0:
156,136,13650,2,0,P|131:131|109:133,3,45,8|0|2|0,0:0|0:0|0:0|0:0,0:0:0:0:
64,116,14119,5,8,0:0:0:0:
88,72,14236,1,0,0:0:0:0:
132,48,14353,1,0,0:0:0:0:
180,48,14471,1,0,0:0:0:0:
224,72,14588,2,0,P|242:85|256:102,3,45,8|0|0|0,0:0|0:0|0:0|0:0,0:0:0:0:
272,148,15057,5,12,0:0:0:0:
388,44,15291,1,2,0:0:0:0:
388,44,15525,1,2,0:0:0:0:
368,240,15760,2,0,L|364:284,1,45,8|0,0:0|0:0,0:0:0:0:
324,324,15994,2,0,B|300:188|300:188|288:232,1,180,4|8,0:0|0:0,0:0:0:0:
116,336,16932,6,0,P|96:276|96:204,1,135,2|2,0:0|0:0,0:0:0:0:
128,168,17400,2,0,L|220:176,1,90,8|2,0:0|0:0,0:0:0:0:
368,240,17869,1,2,0:0:0:0:
368,240,17986,2,0,L|276:248,1,90,0|2,0:0|0:0,0:0:0:0:
256,292,18338,1,8,0:0:0:0:
488,112,18807,6,0,P|504:180|492:252,1,135,2|2,0:0|0:0,0:0:0:0:
460,280,19275,1,8,0:0:0:0:
368,240,19510,1,2,0:0:0:0:
224,364,19744,2,0,L|208:228,1,135,2|2,0:0|0:0,0:0:0:0:
176,192,20213,2,0,L|168:236,1,45,8|2,0:0|0:0,0:0:0:0:
368,240,20682,6,0,L|393:107,1,135,2|2,0:0|0:0,0:0:0:0:
404,60,21150,1,8,0:0:0:0:
280,132,21385,1,2,0:0:0:0:
280,132,21502,1,0,0:0:0:0:
280,132,21619,2,0,L|288:180,1,45,2|0,0:0|0:0,0:0:0:0:
472,160,21971,2,0,L|479:115,1,45,2|8,0:0|0:0,0:0:0:0:
264,48,22557,6,0,L|128:68,1,135,2|2,0:0|0:0,0:0:0:0:
84,48,23025,2,0,P|68:96|68:144,1,90,8|2,0:0|0:0,0:0:0:0:
168,280,23494,1,2,0:0:0:0:
179,250,23611,1,0,0:0:0:0:
183,218,23728,1,8,0:0:0:0:
179,186,23846,1,0,0:0:0:0:
163,158,23963,1,8,0:0:0:0:
80,292,24197,2,0,L|92:340,1,45,2|0,0:0|2:0,0:0:0:0:
124,368,24432,6,0,P|188:372|248:336,1,135,2|2,0:0|0:0,0:0:0:0:
256,288,24900,1,8,0:0:0:0:
336,348,25135,1,2,0:0:0:0:
404,172,25369,1,2,0:0:0:0:
404,172,25486,2,0,L|420:261,1,90,0|2,0:0|0:0,0:0:0:0:
428,308,25838,1,8,0:0:0:0:
183,218,26307,6,0,L|206:85,1,135,2|2,0:0|0:0,0:0:0:0:
212,36,26775,1,8,0:0:0:0:
120,76,27010,1,2,0:0:0:0:
280,180,27244,2,0,L|303:47,1,135,2|2,0:0|0:0,0:0:0:0:
344,20,27713,2,0,L|352:64,1,45,8|2,0:0|0:0,0:0:0:0:
400,284,28182,6,0,P|336:300|268:284,1,135,2|2,0:0|0:0,0:0:0:0:
240,244,28650,1,8,0:0:0:0:
160,304,28885,1,2,0:0:0:0:
160,304,29002,1,0,0:0:0:0:
160,304,29119,2,0,L|148:348,1,45,2|0,0:0|0:0,0:0:0:0:
60,216,29471,2,0,L|72:260,1,45,2|8,0:0|0:0,0:0:0:0:
272,64,30057,6,0,L|248:196,1,135,2|2,0:0|0:0,0:0:0:0:
240,244,30525,1,8,0:0:0:0:
148,208,30760,1,2,0:0:0:0:
260,336,30994,1,2,0:0:0:0:
308,328,31111,1,0,0:0:0:0:
356,320,31228,1,8,0:0:0:0:
404,312,31346,1,0,0:0:0:0:
448,332,31463,2,0,P|500:308|492:240,1,135,8|0,0:0|0:0,0:0:0:0:
448,216,31932,5,2,0:0:0:0:
350,234,32166,1,0,0:0:0:0:
350,234,32283,1,2,0:0:0:0:
350,234,32400,1,8,0:0:0:0:
293,152,32635,1,2,0:0:0:0:
383,12,32869,1,2,0:0:0:0:
382,11,32986,2,0,P|402:52|412:96,1,90,0|2,0:0|0:0,0:0:0:0:
392,141,33338,1,8,0:0:0:0:
252,240,33572,5,0,0:0:0:0:
252,240,33689,1,0,0:0:0:0:
252,240,33807,2,0,P|184:232|112:240,1,135,2|2,0:0|0:0,0:0:0:0:
84,276,34275,1,8,0:0:0:0:
28,196,34510,1,2,0:0:0:0:
28,196,34627,1,0,0:0:0:0:
28,196,34744,2,0,L|44:56,1,135,2|2,0:0|0:0,0:0:0:0:
80,28,35213,2,0,L|84:72,2,45,8|2|0,0:0|0:0|0:0,0:0:0:0:
168,128,35682,6,0,P|236:140|300:124,1,135,2|2,0:0|0:0,0:0:0:0:
324,84,36150,1,8,0:0:0:0:
448,32,36385,1,2,0:0:0:0:
452,48,36502,1,0,0:0:0:0:
456,64,36619,1,2,0:0:0:0:
460,80,36736,2,0,L|448:172,1,90,0|2,0:0|0:0,0:0:0:0:
472,212,37088,1,8,0:0:0:0:
400,280,37322,5,0,0:0:0:0:
400,280,37439,1,0,0:0:0:0:
400,280,37557,1,2,0:0:0:0:
352,192,37791,2,0,L|360:144,2,45,0|2|8,0:0|0:0|0:0,0:0:0:0:
280,260,38260,1,2,0:0:0:0:
192,216,38494,1,2,0:0:0:0:
192,216,38611,2,0,P|144:224|104:248,1,90,0|2,0:0|0:0,0:0:0:0:
92,292,38963,1,8,0:0:0:0:
260,148,39197,2,0,L|252:104,1,45,2|0,0:0|2:0,0:0:0:0:
240,56,39432,6,0,P|308:68|376:68,1,135,2|2,0:0|0:0,0:0:0:0:
416,40,39900,1,8,0:0:0:0:
452,132,40135,1,2,0:0:0:0:
336,300,40369,1,2,0:0:0:0:
336,300,40486,2,0,L|352:212,1,90,0|2,0:0|0:0,0:0:0:0:
360,164,40838,1,8,0:0:0:0:
440,224,41072,5,0,0:0:0:0:
440,224,41189,1,0,0:0:0:0:
440,224,41307,2,0,P|460:288|448:356,1,135,2|2,0:0|0:0,0:0:0:0:
408,384,41775,2,0,L|316:384,1,90,8|2,0:0|0:0,0:0:0:0:
92,292,42244,2,0,B|144:292|144:292|176:300|176:300|228:300,1,135,2|2,0:0|0:0,0:0:0:0:
264,268,42713,2,0,L|308:268,2,45,8|2|0,0:0|0:0|0:0,0:0:0:0:
32,356,43182,6,0,P|8:292|32:228,1,135,2|2,0:0|0:0,0:0:0:0:
68,204,43650,1,8,0:0:0:0:
160,296,43885,1,2,0:0:0:0:
160,296,44002,1,0,0:0:0:0:
160,296,44119,2,0,L|172:252,1,45,2|0,0:0|0:0,0:0:0:0:
80,160,44471,2,0,L|68:204,1,45,2|8,0:0|0:0,0:0:0:0:
100,356,44822,5,0,0:0:0:0:
100,356,44939,1,0,0:0:0:0:
100,356,45057,2,0,L|236:340,1,135,2|2,0:0|0:0,0:0:0:0:
272,308,45525,2,0,P|284:264|280:220,1,90,8|2,0:0|0:0,0:0:0:0:
126,151,45994,2,0,L|216:140,1,90,0|2,0:0|1:2,0:0:0:0:
362,51,46463,2,0,P|303:68|316:128,1,135,8|0,0:0|0:0,0:0:0:0:
360,156,46932,6,0,L|450:145,1,90,2|0,0:0|0:0,0:0:0:0:
500,140,47283,1,2,0:0:0:0:
500,140,47400,2,0,P|488:188|488:232,1,90,8|2,0:0|0:0,0:0:0:0:
384,380,47869,1,0,0:0:0:0:
464,300,48103,1,2,0:0:0:0:
424,272,48221,1,0,0:0:0:0:
376,264,48338,1,8,0:0:0:0:
328,280,48455,1,0,0:0:0:0:
292,316,48572,1,0,0:0:0:0:
244,328,48689,1,0,0:0:0:0:
196,312,48807,5,2,0:0:0:0:
236,180,49041,2,0,L|244:224,2,45,0|2|8,0:0|0:0|0:0,0:0:0:0:
68,60,49510,2,0,L|56:152,1,90,2|0,0:0|0:0,0:0:0:0:
156,228,49978,1,2,0:0:0:0:
140,180,50096,1,0,0:0:0:0:
156,132,50213,1,8,0:0:0:0:
192,96,50330,1,0,0:0:0:0:
240,84,50447,1,0,0:0:0:0:
288,100,50564,1,0,0:0:0:0:
320,136,50682,5,2,0:0:0:0:
265,304,50916,1,0,0:0:0:0:
265,304,51033,1,0,0:0:0:0:
265,304,51150,2,0,P|257:260|264:216,1,90,8|0,0:0|0:0,0:0:0:0:
420,148,51619,1,0,0:0:0:0:
364,228,51853,1,2,0:0:0:0:
220,124,52088,1,8,0:0:0:0:
380,52,52322,1,2,0:0:0:0:
240,212,52557,6,0,P|192:208|156:188,1,90,2|0,0:0|0:0,0:0:0:0:
292,32,53025,1,8,0:0:0:0:
296,60,53142,1,0,0:0:0:0:
300,88,53260,1,0,0:0:0:0:
304,116,53377,1,0,0:0:0:0:
308,144,53494,2,0,L|352:156,2,45,2|0|2,0:0|0:0|0:0,0:0:0:0:
200,36,53963,1,8,0:0:0:0:
240,212,54197,1,2,0:0:0:0:
112,72,54432,6,0,B|52:72|52:72|24:84,1,90,2|0,0:0|0:0,0:0:0:0:
152,224,54900,2,0,B|212:224|212:224|240:212,1,90,8|2,0:0|0:0,0:0:0:0:
308,144,55369,1,2,0:0:0:0:
212,120,55603,1,0,0:0:0:0:
336,240,55838,1,8,0:0:0:0:
465,106,56072,6,0,P|379:92|308:144,1,180,2|2,0:0|0:0,0:0:0:0:
268,308,56775,1,8,0:0:0:0:
180,264,57010,1,0,0:0:0:0:
180,264,57127,1,0,0:0:0:0:
180,264,57244,2,0,P|132:264|88:276,1,90,2|0,0:0|0:0,0:0:0:0:
24,212,57713,6,0,L|17:181,3,26.9999991760254,8|0|0|0,0:0|0:0|0:0|0:0,0:0:0:0:
12,160,57947,2,0,L|20:112,1,45,2|0,0:0|0:0,0:0:0:0:
28,68,58182,5,2,0:0:0:0:
108,128,58416,2,0,L|100:176,2,45,0|0|8,0:0|0:0|0:0,0:0:0:0:
128,32,58885,1,0,0:0:0:0:
191,174,59119,2,0,L|180:264,1,90,2|0,0:0|0:0,0:0:0:0:
264,380,59588,1,8,0:0:0:0:
280,356,59705,1,0,0:0:0:0:
288,332,59822,1,0,0:0:0:0:
288,304,59939,1,0,0:0:0:0:
280,280,60057,6,0,L|416:300,1,135,2|2,0:0|0:0,0:0:0:0:
452,332,60525,2,0,P|476:292|484:248,1,90,8|2,0:0|0:0,0:0:0:0:
412,180,60994,1,2,0:0:0:0:
220,168,61228,1,0,0:0:0:0:
220,168,61346,1,0,0:0:0:0:
220,168,61463,2,0,P|204:92|276:108,1,180,8|0,0:0|0:0,0:0:0:0:
128,192,62166,6,0,P|79:188|41:174,1,90,2|8,0:0|0:0,0:0:0:0:
102,94,62635,1,2,0:0:0:0:
204,256,62869,2,0,P|160:277|120:285,1,90,2|0,0:0|0:0,0:0:0:0:
200,124,63338,2,0,P|244:132|283:153,1,90,8|2,0:0|0:0,0:0:0:0:
328,240,63807,5,2,0:0:0:0:
220,343,64041,1,0,0:0:0:0:
220,343,64158,1,0,0:0:0:0:
220,343,64275,2,0,P|204:295|204:255,1,90,8|0,0:0|0:0,0:0:0:0:
304,156,64744,2,0,L|296:200,3,45,2|0|0|0,0:0|0:0|0:0|0:0,0:0:0:0:
328,240,65213,2,0,L|420:232,1,90,8|2,0:0|0:0,0:0:0:0:
476,152,65682,6,0,P|464:108|468:64,1,90,2|0,0:0|0:0,0:0:0:0:
496,24,66033,1,2,0:0:0:0:
496,24,66150,2,0,L|406:31,1,90,8|2,0:0|0:0,0:0:0:0:
212,64,66619,1,2,0:0:0:0:
378,104,66853,1,0,0:0:0:0:
308,37,67088,1,8,0:0:0:0:
301,62,67205,1,0,0:0:0:0:
294,88,67322,1,0,0:0:0:0:
184,152,67557,6,0,P|104:116|12:124,2,180,2|8|2,0:0|0:0|0:0,0:0:0:0:
256,312,68728,1,2,0:0:0:0:
308,212,68963,1,8,0:0:0:0:
308,212,69080,2,0,L|400:200,1,90,2|2,0:0|0:0,0:0:0:0:
448,192,69432,5,0,0:0:0:0:
500,340,69666,2,0,P|460:320|416:312,1,90,2|8,0:0|0:0,0:0:0:0:
336,372,70135,1,2,0:0:0:0:
271,223,70369,2,0,L|256:312,1,90,2|0,0:0|0:0,0:0:0:0:
360,192,70838,2,0,P|372:144|368:100,1,90,8|2,0:0|0:0,0:0:0:0:
204,28,71307,6,0,P|192:76|196:120,1,90,2|0,0:0|0:0,0:0:0:0:
220,156,71658,1,2,0:0:0:0:
220,156,71775,1,8,0:0:0:0:
288,84,72010,1,2,0:0:0:0:
384,228,72244,1,2,0:0:0:0:
432,216,72361,1,0,0:0:0:0:
468,184,72478,1,0,0:0:0:0:
488,140,72596,1,0,0:0:0:0:
492,92,72713,2,0,P|488:72|476:44,2,45,8|0|2,0:0|0:0|0:0,0:0:0:0:
256,192,73182,12,0,75057,0:0:0:0:
128,336,75525,5,8,0:0:0:0:
220,372,75760,1,0,0:0:0:0:
220,372,75877,1,0,0:0:0:0:
220,372,75994,1,4,0:0:0:0:
204,265,76463,6,0,L|220:372,1,107.999996704102,4|0,0:0|0:0,0:0:0:0:
204,220,84432,6,0,L|68:240,1,135,2|2,0:0|0:0,0:0:0:0:
28,212,84900,1,8,0:0:0:0:
100,144,85135,1,2,0:0:0:0:
148,320,85369,1,2,0:0:0:0:
148,320,85486,2,0,L|236:304,1,90,0|2,0:0|0:0,0:0:0:0:
284,296,85838,1,8,0:0:0:0:
372,340,86072,5,0,0:0:0:0:
372,340,86189,1,0,0:0:0:0:
372,340,86307,2,0,P|400:288|408:212,1,135,2|2,0:0|0:0,0:0:0:0:
388,168,86775,2,0,L|400:76,1,90,8|2,0:0|0:0,0:0:0:0:
484,132,87244,1,2,0:0:0:0:
484,132,87361,1,0,0:0:0:0:
308,108,87596,1,2,0:0:0:0:
308,108,87713,2,0,L|264:120,1,45,8|0,0:0|0:0,0:0:0:0:
104,192,88064,5,8,0:0:0:0:
104,192,88182,2,0,B|196:204|196:204|228:236,1,135,2|2,0:0|0:0,0:0:0:0:
244,280,88650,2,0,L|152:292,1,90,8|2,0:0|0:0,0:0:0:0:
12,184,89119,1,2,0:0:0:0:
12,184,89236,1,0,0:0:0:0:
124,40,89471,1,2,0:0:0:0:
124,40,89588,2,0,P|136:84|136:128,1,90,8|0,0:0|0:0,0:0:0:0:
128,164,89939,1,0,0:0:0:0:
104,192,90057,5,2,0:0:0:0:
332,304,90408,1,2,0:0:0:0:
332,304,90525,2,0,L|424:292,1,90,8|2,0:0|0:0,0:0:0:0:
264,232,90994,2,0,L|216:228,1,45,2|0,0:0|0:0,0:0:0:0:
96,344,91346,1,0,0:0:0:0:
96,344,91463,2,0,P|112:288|48:272,1,135,8|0,0:0|0:0,0:0:0:0:
16,304,91932,6,0,L|32:160,2,144,2|8|2,0:0|0:0|0:0,0:0:0:0:
256,192,93338,1,8,0:0:0:0:
208,36,93807,6,0,P|164:92|160:164,1,144,2|8,0:0|0:0,0:0:0:0:
304,348,94744,2,0,P|348:292|352:220,1,144,2|8,0:0|0:0,0:0:0:0:
228,64,95682,6,0,L|272:72,3,45,2|0|0|0,0:0|0:0|0:0|0:0,0:0:0:0:
312,100,96150,2,0,L|356:92,3,45,8|0|2|0,0:0|0:0|0:0|0:0,0:0:0:0:
392,60,96619,5,2,0:0:0:0:
440,64,96736,1,0,0:0:0:0:
480,96,96853,1,0,0:0:0:0:
496,144,96971,1,2,0:0:0:0:
484,192,97088,2,0,L|472:240,3,45,8|0|0|0,0:0|0:0|0:0|0:0,0:0:0:0:
492,280,97557,5,6,0:0:0:0:
404,152,97791,1,8,0:0:0:0:
404,152,98025,1,8,0:0:0:0:
368,356,98260,2,0,L|376:312,1,45,2|0,0:0|0:0,0:0:0:0:
384,264,98494,2,0,B|248:288|248:288|288:308,1,180,4|8,0:0|0:0,0:0:0:0:
484,328,99432,5,2,0:0:0:0:
492,280,99549,1,0,0:0:0:0:
500,232,99666,1,0,0:0:0:0:
456,144,99900,1,8,0:0:0:0:
264,204,100135,1,2,0:0:0:0:
312,220,100252,1,0,0:0:0:0:
360,236,100369,2,0,L|404:228,1,45,2|0,0:0|0:0,0:0:0:0:
292,60,100721,2,0,L|284:104,1,45,2|8,0:0|0:0,0:0:0:0:
184,260,101072,5,0,0:0:0:0:
184,260,101189,1,0,0:0:0:0:
184,260,101307,2,0,L|172:168,1,90,2|0,0:0|0:0,0:0:0:0:
40,88,101775,2,0,L|48:20,2,67.5,8|0|0,0:0|0:0|0:0,0:0:0:0:
49,135,102244,2,0,P|105:171|172:170,1,135,2|2,0:0|0:0,0:0:0:0:
205,134,102713,2,0,L|249:142,1,45,8|2,0:0|0:0,0:0:0:0:
504,312,103182,6,0,P|444:284|372:292,1,135,2|2,0:0|0:0,0:0:0:0:
336,316,103650,1,8,0:0:0:0:
308,356,103767,2,0,L|312:388,2,26.9999991760254,2|0|0,0:0|0:0|0:0,0:0:0:0:
220,304,104002,1,2,0:0:0:0:
204,282,104119,2,0,L|208:234,1,45
236,198,104353,2,0,L|232:150,1,45,0|0,0:0|0:0,0:0:0:0:
228,102,104588,1,8,0:0:0:0:
116,246,104822,5,0,0:0:0:0:
116,246,104939,1,0,0:0:0:0:
116,246,105057,1,0,0:0:0:0:
148,66,105291,1,2,0:0:0:0:
204,282,105525,1,8,0:0:0:0:
72,28,105760,1,2,0:0:0:0:
236,198,105994,2,0,B|308:198|368:158|368:158|356:198,1,180,0|8,0:0|0:0,0:0:0:0:
296,318,106932,5,2,0:0:0:0:
296,318,107049,1,0,0:0:0:0:
296,318,107166,1,0,0:0:0:0:
388,354,107400,1,8,0:0:0:0:
204,282,107635,1,2,0:0:0:0:
156,286,107752,1,0,0:0:0:0:
108,290,107869,1,2,0:0:0:0:
60,294,107986,1,0,0:0:0:0:
100,156,108221,1,2,0:0:0:0:
148,160,108338,1,8,0:0:0:0:
20,204,108572,5,0,0:0:0:0:
20,204,108689,1,0,0:0:0:0:
20,204,108807,2,0,B|8:160|8:160|16:116,1,90,2|0,0:0|0:0,0:0:0:0:
220,56,109275,2,0,L|288:48,2,67.5,8|0|0,0:0|0:0|0:0,0:0:0:0:
179,27,109744,2,0,B|79:11|79:11|83:47,1,135,2|2,0:0|0:0,0:0:0:0:
107,87,110213,2,0,L|103:133,1,45,8|2,0:0|0:0,0:0:0:0:
8,312,110682,6,0,P|68:284|140:292,1,135,2|2,0:0|0:0,0:0:0:0:
176,316,111150,1,8,0:0:0:0:
204,356,111267,2,0,L|200:388,2,26.9999991760254,2|0|0,0:0|0:0|0:0,0:0:0:0:
292,304,111502,1,2,0:0:0:0:
308,282,111619,2,0,L|304:234,1,45
272,200,111853,2,0,L|276:152,1,45,0|0,0:0|0:0,0:0:0:0:
284,104,112088,1,8,0:0:0:0:
148,280,112322,5,0,0:0:0:0:
148,280,112439,1,0,0:0:0:0:
148,280,112557,1,0,0:0:0:0:
272,200,112791,1,2,0:0:0:0:
72,224,113025,1,8,0:0:0:0:
296,152,113260,1,2,0:0:0:0:
0,164,113494,1,0,0:0:0:0:
316,104,113728,1,0,0:0:0:0:
112,16,113963,6,0,L|120:64,1,45,8|0,2:0|0:0,0:0:0:0:
192,136,114197,2,0,L|184:184,1,45,8|8,2:0|0:0,0:0:0:0:
87,313,114432,6,0,P|87:268|80:224,1,90,2|0,0:0|0:0,0:0:0:0:
44,188,114783,1,2,0:0:0:0:
0,164,114900,2,0,L|12:72,1,90,8|2,0:0|0:0,0:0:0:0:
212,32,115369,1,0,0:0:0:0:
112,16,115603,1,2,0:0:0:0:
96,64,115721,1,0,0:0:0:0:
112,112,115838,1,8,0:0:0:0:
148,148,115955,1,0,0:0:0:0:
196,160,116072,1,0,0:0:0:0:
244,148,116189,1,0,0:0:0:0:
276,108,116307,5,2,0:0:0:0:
408,176,116541,1,0,0:0:0:0:
420,224,116658,1,2,0:0:0:0:
432,272,116775,1,8,0:0:0:0:
464,92,117010,2,0,P|420:80|372:80,1,90,2|0,0:0|0:0,0:0:0:0:
155,244,117478,1,2,0:0:0:0:
135,197,117596,1,0,0:0:0:0:
148,148,117713,1,8,0:0:0:0:
181,109,117830,1,0,0:0:0:0:
228,94,117947,1,0,0:0:0:0:
276,108,118064,1,0,0:0:0:0:
312,144,118182,5,2,0:0:0:0:
196,336,118416,1,0,0:0:0:0:
196,336,118533,1,0,0:0:0:0:
196,336,118650,2,0,L|100:324,1,90,8|0,0:0|0:0,0:0:0:0:
232,192,119119,1,0,0:0:0:0:
284,276,119353,1,2,0:0:0:0:
135,197,119588,1,8,0:0:0:0:
276,108,119822,1,2,0:0:0:0:
444,264,120057,6,0,P|465:224|467:180,1,90,2|0,0:0|0:0,0:0:0:0:
372,40,120525,1,8,0:0:0:0:
360,64,120642,1,0,0:0:0:0:
356,92,120760,1,0,0:0:0:0:
360,120,120877,1,0,0:0:0:0:
372,144,120994,5,2,0:0:0:0:
364,192,121111,1,0,0:0:0:0:
352,240,121228,1,2,0:0:0:0:
232,192,121463,1,8,0:0:0:0:
452,88,121697,1,2,0:0:0:0:
276,28,121932,6,0,B|245:24|245:24|188:40,1,90,2|0,0:0|0:0,0:0:0:0:
152,72,122283,1,0,0:0:0:0:
136,120,122400,2,0,L|148:212,1,90,8|2,0:0|0:0,0:0:0:0:
160,308,122869,1,2,0:0:0:0:
232,192,123103,1,0,0:0:0:0:
64,220,123338,1,8,0:0:0:0:
248,332,123572,6,0,B|318:318|318:318|347:300|347:300|422:285,1,180,2|2,0:0|0:0,0:0:0:0:
452,380,124275,1,8,0:0:0:0:
272,232,124510,1,0,0:0:0:0:
272,232,124627,1,0,0:0:0:0:
272,232,124744,2,0,P|272:184|284:140,1,90,2|0,0:0|0:0,0:0:0:0:
224,40,125213,6,0,L|193:33,3,26.9999991760254,8|0|0|0,0:0|0:0|0:0|0:0,0:0:0:0:
172,28,125447,2,0,L|124:36,1,45,2|0,0:0|0:0,0:0:0:0:
100,76,125682,5,2,0:0:0:0:
16,24,125916,1,0,0:0:0:0:
16,24,126033,1,0,0:0:0:0:
16,24,126150,1,8,0:0:0:0:
16,124,126385,1,0,0:0:0:0:
188,120,126619,2,0,L|177:210,1,90,2|0,0:0|0:0,0:0:0:0:
120,348,127088,1,8,0:0:0:0:
116,320,127205,1,0,0:0:0:0:
112,292,127322,1,0,0:0:0:0:
108,264,127439,1,0,0:0:0:0:
104,236,127557,6,0,L|240:256,1,135,2|2,0:0|0:0,0:0:0:0:
284,236,128025,2,0,P|329:223|373:228,1,90,8|2,0:0|0:0,0:0:0:0:
436,300,128494,1,2,0:0:0:0:
396,136,128728,1,0,0:0:0:0:
396,136,128846,1,0,0:0:0:0:
396,136,128963,2,0,B|448:136|488:160|488:160|504:120|480:76,1,180,8|0,0:0|0:0,0:0:0:0:
256,64,129666,6,0,P|241:106|237:151,1,90,2|8,0:0|0:0,0:0:0:0:
284,236,130135,1,2,0:0:0:0:
156,84,130369,2,0,P|112:63|72:55,1,90,2|0,0:0|0:0,0:0:0:0:
200,265,130838,2,0,P|244:257|284:236,1,90,8|2,0:0|0:0,0:0:0:0:
312,140,131307,5,2,0:0:0:0:
120,208,131541,1,0,0:0:0:0:
120,208,131658,1,0,0:0:0:0:
120,208,131775,2,0,P|104:256|104:296,1,90,8|0,0:0|0:0,0:0:0:0:
204,136,132244,2,0,L|196:92,3,45,2|0|0|0,0:0|0:0|0:0|0:0,0:0:0:0:
220,48,132713,2,0,P|264:36|312:40,1,90,8|2,0:0|0:0,0:0:0:0:
327,236,133182,6,0,L|312:148,1,90,2|0,0:0|0:0,0:0:0:0:
432,92,133650,2,0,L|416:180,1,90,8|2,0:0|0:0,0:0:0:0:
228,212,134119,1,2,0:0:0:0:
304,112,134353,1,0,0:0:0:0:
416,304,134588,1,8,0:0:0:0:
368,312,134705,1,0,0:0:0:0:
320,320,134822,1,0,0:0:0:0:
156,264,135057,6,0,P|238:228|327:236,2,180,2|8|2,0:0|0:0|0:0,0:0:0:0:
140,364,136228,1,2,0:0:0:0:
40,196,136463,1,8,0:0:0:0:
40,196,136580,2,0,L|56:288,1,90,2|2,0:0|0:0,0:0:0:0:
40,332,136932,5,0,0:0:0:0:
128,168,137166,2,0,P|168:148|212:140,1,90,2|8,0:0|0:0,0:0:0:0:
292,200,137635,1,2,0:0:0:0:
240,48,137869,2,0,P|284:53|325:70,1,90,2|0,0:0|0:0,0:0:0:0:
300,288,138338,2,0,P|289:244|292:200,1,90,8|2,0:0|0:0,0:0:0:0:
416,24,138807,6,0,P|428:72|424:116,1,90,2|0,0:0|0:0,0:0:0:0:
400,152,139158,1,2,0:0:0:0:
400,152,139275,1,8,0:0:0:0:
312,104,139510,1,2,0:0:0:0:
216,252,139744,1,2,0:0:0:0:
172,276,139861,1,0,0:0:0:0:
124,276,139978,1,0,0:0:0:0:
80,256,140096,1,0,0:0:0:0:
56,212,140213,2,0,L|64:168,2,45,8|0|2,0:0|0:0|0:0,0:0:0:0:
256,192,140682,12,0,142557,0:0:0:0:
444,248,143025,5,8,0:0:0:0:
372,316,143260,1,0,0:0:0:0:
372,316,143377,1,0,0:0:0:0:
372,316,143494,2,0,P|304:308|236:308,1,135,2|0,0:0|0:0,0:0:0:0:
200,340,143963,2,0,L|220:204,1,135,8|0,0:0|0:0,0:0:0:0:
228,156,144432,5,0,0:0:0:0:
136,192,144666,1,2,0:0:0:0:
86,38,144900,2,0,P|68:79|64:124,1,90,8|2,0:0|0:0,0:0:0:0:
216,252,145369,2,0,P|264:252|304:264,1,90,2|0,0:0|0:0,0:0:0:0:
433,330,145838,2,0,P|410:291|400:248,1,90,8|2,0:0|0:0,0:0:0:0:
452,164,146307,5,2,0:0:0:0:
412,76,146541,1,0,0:0:0:0:
412,76,146658,1,0,0:0:0:0:
412,76,146775,2,0,P|364:60|324:60,1,90,8|0,0:0|0:0,0:0:0:0:
196,160,147244,2,0,L|204:204,3,45,2|0|0|0,0:0|0:0|0:0|0:0,0:0:0:0:
216,252,147713,2,0,P|258:236|303:235,1,90,8|2,0:0|0:0,0:0:0:0:
244,352,148182,6,0,P|201:336|156:335,1,90,2|0,0:0|0:0,0:0:0:0:
64,376,148650,1,8,0:0:0:0:
48,216,148885,1,2,0:0:0:0:
0,300,149119,1,2,0:0:0:0:
144,232,149353,1,0,0:0:0:0:
48,84,149588,1,8,0:0:0:0:
34,130,149705,1,0,0:0:0:0:
21,177,149822,1,0,0:0:0:0:
216,284,150057,6,0,B|248:196|196:196|228:108,2,180,2|8|2,0:0|0:0|0:0,0:0:0:0:
124,316,151228,1,2,0:0:0:0:
312,164,151463,1,8,0:0:0:0:
312,164,151580,2,0,P|360:180|392:208,1,90,2|2,0:0|0:0,0:0:0:0:
404,252,151932,5,0,0:0:0:0:
225,371,152166,2,0,P|213:328|216:284,1,90,2|8,0:0|0:0,0:0:0:0:
161,120,152635,1,2,0:0:0:0:
161,120,152869,2,0,P|163:164|152:208,1,90,2|0,0:0|0:0,0:0:0:0:
80,276,153338,1,8,0:0:0:0:
52,180,153572,1,2,0:0:0:0:
132,28,153807,6,0,L|268:48,1,135,2|2,0:0|0:0,0:0:0:0:
300,80,154275,2,0,L|392:64,1,90,8|2,0:0|0:0,0:0:0:0:
332,180,154744,1,2,0:0:0:0:
281,171,154861,1,0,0:0:0:0:
232,162,154978,1,0,0:0:0:0:
183,153,155096,1,0,0:0:0:0:
136,144,155213,2,0,L|148:192,2,45,8|0|2,0:0|0:0|0:0,0:0:0:0:
256,192,155682,12,2,157557,0:0:0:0:
416,196,158025,5,8,0:0:0:0:
336,140,158260,1,0,0:0:0:0:
336,140,158377,1,0,0:0:0:0:
336,140,158494,2,0,L|288:148,1,45,0|2,0:0|0:0,0:0:0:0:
208,92,158846,1,2,0:0:0:0:
208,92,158963,1,8,0:0:0:0:
208,92,159080,2,0,L|116:108,1,90,2|0,0:0|0:0,0:0:0:0:
