osu file format v14

[General]
AudioFilename: audio.mp3
AudioLeadIn: 0
PreviewTime: 90892
Countdown: 0
SampleSet: Soft
StackLeniency: 0.7
Mode: 3
LetterboxInBreaks: 0
SpecialStyle: 0
WidescreenStoryboard: 0

[Editor]
DistanceSpacing: 1
BeatDivisor: 16
GridSize: 8
TimelineZoom: 1.5

[Metadata]
Title:Breeze
TitleUnicode:Breeze
Artist:cYsmix
ArtistUnicode:cYsmix
Creator:Lenfried-
Version:Hard
Source:osu!
Tags:osu featured artist
BeatmapID:1342111
BeatmapSetID:632221

[Difficulty]
HPDrainRate:8
CircleSize:7
OverallDifficulty:7
ApproachRate:5
SliderMultiplier:1.4
SliderTickRate:1

[Events]
//Background and Video events
0,0,"bg.jpg",0,0
//Break Periods
//Storyboard Layer 0 (Background)
//Storyboard Layer 1 (Fail)
//Storyboard Layer 2 (Pass)
//Storyboard Layer 3 (Foreground)
//Storyboard Sound Samples

[TimingPoints]
35,428.571428571429,4,2,1,30,1,0
37749,-100,4,2,1,40,0,0
42892,-499.999999999999,4,2,1,30,0,0
48035,-100,4,2,1,35,0,0
61749,-100,4,2,1,30,0,0
66892,-100,4,2,1,25,0,0
70320,-100,4,2,1,30,0,0
76320,-125,4,2,1,30,0,0
77177,-125,4,2,1,35,0,0
80606,-111.111111111111,4,2,1,35,0,0
83606,-100,4,2,1,30,0,0
84035,-100,4,2,1,35,0,0
90892,-100,4,2,1,35,0,1
102892,-100,4,2,1,40,0,0

[HitObjects]
109,192,1320,5,0,0:0:0:0:
402,192,1320,1,0,0:0:0:0:
256,192,1320,1,12,0:0:0:0:
475,192,1749,128,2,2177:0:0:0:0:
36,192,1749,1,0,0:0:0:0:
329,192,1749,1,8,0:0:0:0:
109,192,1856,1,0,0:0:0:0:
256,192,1963,1,0,0:0:0:0:
182,192,2070,1,0,0:0:0:0:
329,192,2177,1,8,0:0:0:0:
109,192,2177,1,0,0:0:0:0:
329,192,2392,1,0,0:0:0:0:
256,192,2499,1,0,0:0:0:0:
182,192,2606,1,0,0:0:0:0:
36,192,2606,1,8,0:0:0:0:
402,192,2713,1,0,0:0:0:0:
182,192,2820,1,0,0:0:0:0:
256,192,2927,1,0,0:0:0:0:
329,192,3035,1,0,0:0:0:0:
109,192,3035,1,8,0:0:0:0:
475,192,3249,1,0,0:0:0:0:
329,192,3356,1,0,0:0:0:0:
36,192,3463,1,0,0:0:0:0:
182,192,3463,1,8,0:0:0:0:
256,192,3570,1,0,0:0:0:0:
402,192,3677,1,0,0:0:0:0:
256,192,3785,1,0,0:0:0:0:
109,192,3892,1,0,0:0:0:0:
329,192,3892,1,8,0:0:0:0:
182,192,4106,1,0,0:0:0:0:
109,192,4213,1,0,0:0:0:0:
36,192,4320,1,0,0:0:0:0:
329,192,4320,1,8,0:0:0:0:
475,192,4427,1,0,0:0:0:0:
256,192,4535,1,0,0:0:0:0:
329,192,4642,1,0,0:0:0:0:
182,192,4749,1,8,0:0:0:0:
402,192,4749,1,0,0:0:0:0:
109,192,4963,1,0,0:0:0:0:
182,192,5070,1,0,0:0:0:0:
475,192,5177,1,8,0:0:0:0:
256,192,5177,1,0,0:0:0:0:
109,192,5285,1,0,0:0:0:0:
256,192,5392,1,0,0:0:0:0:
402,192,5499,1,0,0:0:0:0:
36,192,5606,1,0,0:0:0:0:
182,192,5606,1,8,0:0:0:0:
256,192,5820,1,0,0:0:0:0:
329,192,5927,1,0,0:0:0:0:
402,192,6035,1,8,0:0:0:0:
182,192,6035,1,0,0:0:0:0:
36,192,6142,1,0,0:0:0:0:
256,192,6249,1,0,0:0:0:0:
109,192,6356,1,0,0:0:0:0:
475,192,6463,1,8,0:0:0:0:
329,192,6463,1,0,0:0:0:0:
182,192,6677,1,0,0:0:0:0:
256,192,6785,1,0,0:0:0:0:
475,192,6892,1,0,0:0:0:0:
329,192,6892,1,8,0:0:0:0:
109,192,6999,1,0,0:0:0:0:
402,192,7106,1,0,0:0:0:0:
256,192,7213,1,0,0:0:0:0:
109,192,7320,1,8,0:0:0:0:
402,192,7320,1,0,0:0:0:0:
182,192,7535,1,0,0:0:0:0:
109,192,7642,1,0,0:0:0:0:
36,192,7749,1,0,0:0:0:0:
402,192,7749,1,8,0:0:0:0:
182,192,7856,1,0,0:0:0:0:
329,192,7963,1,0,0:0:0:0:
109,192,8070,1,0,0:0:0:0:
256,192,8177,1,0,0:0:0:0:
402,192,8177,1,8,0:0:0:0:
182,192,8392,1,0,0:0:0:0:
256,192,8499,1,0,0:0:0:0:
36,192,8606,1,0,0:0:0:0:
475,192,8606,1,0,0:0:0:0:
329,192,8606,1,8,0:0:0:0:
182,192,8713,1,0,0:0:0:0:
402,192,8820,1,0,0:0:0:0:
256,192,8927,1,0,0:0:0:0:
109,192,9035,1,0,0:0:0:0:
329,192,9035,1,8,0:0:0:0:
182,192,9249,1,0,0:0:0:0:
256,192,9356,1,0,0:0:0:0:
329,192,9463,1,0,0:0:0:0:
475,192,9463,1,8,0:0:0:0:
109,192,9570,1,0,0:0:0:0:
256,192,9677,1,0,0:0:0:0:
402,192,9785,1,0,0:0:0:0:
36,192,9892,1,0,0:0:0:0:
182,192,9892,1,8,0:0:0:0:
329,192,10106,1,0,0:0:0:0:
256,192,10213,1,0,0:0:0:0:
182,192,10320,1,0,0:0:0:0:
475,192,10320,1,8,0:0:0:0:
36,192,10427,1,0,0:0:0:0:
329,192,10535,1,0,0:0:0:0:
182,192,10642,1,0,0:0:0:0:
329,192,10749,1,0,0:0:0:0:
475,192,10749,1,8,0:0:0:0:
182,192,10963,1,0,0:0:0:0:
109,192,11070,1,0,0:0:0:0:
256,192,11177,1,8,0:0:0:0:
36,192,11177,1,0,0:0:0:0:
329,192,11285,1,0,0:0:0:0:
402,192,11392,1,0,0:0:0:0:
182,192,11499,1,0,0:0:0:0:
402,192,11606,1,8,0:0:0:0:
256,192,11606,1,0,0:0:0:0:
109,192,11820,1,0,0:0:0:0:
256,192,11927,1,0,0:0:0:0:
36,192,12035,1,0,0:0:0:0:
402,192,12035,1,8,0:0:0:0:
182,192,12142,1,0,0:0:0:0:
329,192,12249,1,0,0:0:0:0:
256,192,12356,1,0,0:0:0:0:
36,192,12463,1,0,0:0:0:0:
182,192,12463,1,8,0:0:0:0:
182,192,12677,1,0,0:0:0:0:
256,192,12785,1,0,0:0:0:0:
329,192,12892,1,8,0:0:0:0:
475,192,12892,1,0,0:0:0:0:
109,192,12999,1,0,0:0:0:0:
402,192,13106,1,0,0:0:0:0:
329,192,13213,1,0,0:0:0:0:
256,192,13320,1,0,0:0:0:0:
109,192,13320,1,8,0:0:0:0:
182,192,13535,1,0,0:0:0:0:
329,192,13642,1,0,0:0:0:0:
256,192,13749,128,2,14606:0:0:0:0:
475,192,13963,128,2,14606:0:0:0:0:
36,192,14177,128,2,14606:0:0:0:0:
402,192,14606,128,0,14856:0:0:0:0:
109,192,14606,128,2,14856:0:0:0:0:
256,192,14927,128,2,15177:0:0:0:0:
182,192,15249,128,2,15463:0:0:0:0:
329,192,15249,128,0,15463:0:0:0:0:
36,192,15463,1,0,0:0:0:0:
256,192,15463,128,10,17177:0:0:0:0:
475,192,15463,1,0,0:0:0:0:
402,192,15677,1,0,0:0:0:0:
109,192,15785,1,0,0:0:0:0:
475,192,15892,1,0,0:0:0:0:
329,192,15892,1,8,0:0:0:0:
182,192,16106,1,0,0:0:0:0:
36,192,16213,1,0,0:0:0:0:
475,192,16320,1,0,0:0:0:0:
329,192,16320,1,8,0:0:0:0:
109,192,16535,1,0,0:0:0:0:
402,192,16749,1,8,0:0:0:0:
475,192,16963,1,0,0:0:0:0:
329,192,17070,1,0,0:0:0:0:
182,192,17177,1,0,0:0:0:0:
36,192,17177,128,10,17392:0:0:0:0:
402,192,17392,1,0,0:0:0:0:
329,192,17499,1,0,0:0:0:0:
109,192,17606,1,0,0:0:0:0:
256,192,17606,1,8,0:0:0:0:
182,192,17820,128,2,18035:0:0:0:0:
329,192,18035,128,10,18142:0:0:0:0:
475,192,18035,1,0,0:0:0:0:
36,192,18249,128,2,18463:0:0:0:0:
182,192,18463,1,8,0:0:0:0:
402,192,18463,1,0,0:0:0:0:
329,192,18570,1,0,0:0:0:0:
256,192,18677,1,0,0:0:0:0:
402,192,18785,1,0,0:0:0:0:
36,192,18892,128,2,19106:0:0:0:0:
182,192,18892,1,8,0:0:0:0:
256,192,19106,1,0,0:0:0:0:
109,192,19213,1,0,0:0:0:0:
475,192,19320,1,0,0:0:0:0:
329,192,19320,1,8,0:0:0:0:
256,192,19535,128,2,19749:0:0:0:0:
182,192,19749,1,0,0:0:0:0:
402,192,19749,128,10,19856:0:0:0:0:
109,192,19963,128,2,20177:0:0:0:0:
36,192,20177,1,8,0:0:0:0:
256,192,20177,1,0,0:0:0:0:
402,192,20285,1,0,0:0:0:0:
182,192,20392,1,0,0:0:0:0:
329,192,20499,1,0,0:0:0:0:
475,192,20606,1,8,0:0:0:0:
109,192,20606,128,2,20820:0:0:0:0:
256,192,20820,1,0,0:0:0:0:
182,192,20927,1,0,0:0:0:0:
402,192,21035,1,8,0:0:0:0:
329,192,21035,128,2,21249:0:0:0:0:
182,192,21249,1,0,0:0:0:0:
109,192,21356,1,0,0:0:0:0:
36,192,21463,1,0,0:0:0:0:
329,192,21463,1,2,0:0:0:0:
475,192,21570,128,10,21892:0:0:0:0:
109,192,21892,1,0,0:0:0:0:
36,192,21892,1,0,0:0:0:0:
329,192,21892,1,12,0:0:0:0:
182,192,22106,1,0,0:0:0:0:
329,192,22106,1,12,0:0:0:0:
475,192,22106,1,0,0:0:0:0:
36,192,22320,1,8,0:0:0:0:
182,192,22320,128,2,22535:0:0:0:0:
256,192,22535,1,0,0:0:0:0:
109,192,22642,1,0,0:0:0:0:
329,192,22749,1,0,0:0:0:0:
475,192,22749,1,8,0:0:0:0:
329,192,22963,128,2,23177:0:0:0:0:
36,192,22963,128,0,23177:0:0:0:0:
182,192,22963,1,0,0:0:0:0:
475,192,23177,128,10,23285:0:0:0:0:
256,192,23177,1,0,0:0:0:0:
182,192,23392,128,2,23606:0:0:0:0:
329,192,23606,128,10,23820:0:0:0:0:
36,192,23606,1,0,0:0:0:0:
182,192,23820,1,0,0:0:0:0:
402,192,23927,1,0,0:0:0:0:
256,192,24035,128,10,24249:0:0:0:0:
109,192,24035,1,0,0:0:0:0:
402,192,24249,1,0,0:0:0:0:
329,192,24356,1,0,0:0:0:0:
36,192,24463,1,8,0:0:0:0:
256,192,24463,1,0,0:0:0:0:
182,192,24677,128,2,24892:0:0:0:0:
402,192,24892,128,10,24999:0:0:0:0:
256,192,24892,1,0,0:0:0:0:
109,192,25106,128,2,25320:0:0:0:0:
475,192,25320,1,0,0:0:0:0:
329,192,25320,1,8,0:0:0:0:
182,192,25427,1,0,0:0:0:0:
402,192,25535,1,0,0:0:0:0:
256,192,25642,1,0,0:0:0:0:
36,192,25749,1,8,0:0:0:0:
109,192,25749,128,2,25963:0:0:0:0:
329,192,25963,1,0,0:0:0:0:
256,192,26070,1,0,0:0:0:0:
182,192,26177,1,0,0:0:0:0:
402,192,26177,1,8,0:0:0:0:
329,192,26392,128,2,26606:0:0:0:0:
36,192,26606,128,2,26713:0:0:0:0:
475,192,26606,1,8,0:0:0:0:
182,192,26820,128,2,27035:0:0:0:0:
329,192,27035,1,8,0:0:0:0:
475,192,27035,1,0,0:0:0:0:
256,192,27249,1,0,0:0:0:0:
402,192,27356,1,0,0:0:0:0:
109,192,27463,128,10,27677:0:0:0:0:
402,192,27677,1,0,0:0:0:0:
256,192,27785,1,0,0:0:0:0:
109,192,27892,1,0,0:0:0:0:
475,192,27972,1,0,0:0:0:0:
329,192,28052,1,0,0:0:0:0:
182,192,28133,1,0,0:0:0:0:
36,192,28213,1,0,0:0:0:0:
475,192,28320,128,0,28749:0:0:0:0:
329,192,28320,1,0,0:0:0:0:
256,192,28427,1,0,0:0:0:0:
182,192,28535,1,0,0:0:0:0:
109,192,28642,1,0,0:0:0:0:
36,192,28749,1,0,0:0:0:0:
402,192,28856,1,0,0:0:0:0:
329,192,28963,1,0,0:0:0:0:
256,192,29070,1,0,0:0:0:0:
36,192,29177,1,0,0:0:0:0:
475,192,29177,1,0,0:0:0:0:
182,192,29177,1,8,0:0:0:0:
36,192,29606,1,0,0:0:0:0:
475,192,29606,1,8,0:0:0:0:
256,192,29606,1,0,0:0:0:0:
109,192,29820,1,0,0:0:0:0:
402,192,29820,1,0,0:0:0:0:
256,192,30035,1,0,0:0:0:0:
109,192,30035,1,0,0:0:0:0:
402,192,30035,1,8,0:0:0:0:
329,192,30249,1,0,0:0:0:0:
475,192,30249,1,0,0:0:0:0:
256,192,30356,1,0,0:0:0:0:
402,192,30463,1,0,0:0:0:0:
36,192,30463,1,0,0:0:0:0:
182,192,30463,1,8,0:0:0:0:
256,192,30570,1,0,0:0:0:0:
109,192,30677,1,0,0:0:0:0:
329,192,30677,1,0,0:0:0:0:
182,192,30785,1,0,0:0:0:0:
36,192,30892,1,0,0:0:0:0:
475,192,30892,1,8,0:0:0:0:
256,192,30892,1,0,0:0:0:0:
182,192,31320,1,0,0:0:0:0:
329,192,31320,1,8,0:0:0:0:
475,192,31320,1,0,0:0:0:0:
329,192,31535,1,0,0:0:0:0:
109,192,31535,1,0,0:0:0:0:
36,192,31749,1,0,0:0:0:0:
256,192,31749,1,8,0:0:0:0:
402,192,31749,1,0,0:0:0:0:
182,192,31963,1,0,0:0:0:0:
475,192,31963,1,0,0:0:0:0:
256,192,32070,1,0,0:0:0:0:
36,192,32177,1,0,0:0:0:0:
329,192,32177,1,8,0:0:0:0:
475,192,32177,1,0,0:0:0:0:
256,192,32285,1,0,0:0:0:0:
402,192,32392,1,0,0:0:0:0:
182,192,32392,1,0,0:0:0:0:
329,192,32499,1,0,0:0:0:0:
109,192,32606,1,0,0:0:0:0:
256,192,32606,1,8,0:0:0:0:
475,192,32606,1,0,0:0:0:0:
475,192,33035,1,0,0:0:0:0:
329,192,33035,1,8,0:0:0:0:
36,192,33035,1,0,0:0:0:0:
329,192,33249,1,0,0:0:0:0:
182,192,33249,1,0,0:0:0:0:
109,192,33463,1,0,0:0:0:0:
256,192,33463,1,8,0:0:0:0:
475,192,33463,1,0,0:0:0:0:
402,192,33677,1,0,0:0:0:0:
182,192,33677,1,0,0:0:0:0:
256,192,33785,1,0,0:0:0:0:
36,192,33892,1,0,0:0:0:0:
109,192,33892,1,0,0:0:0:0:
329,192,33892,1,8,0:0:0:0:
182,192,33999,1,0,0:0:0:0:
256,192,34106,1,0,0:0:0:0:
475,192,34106,1,0,0:0:0:0:
402,192,34213,1,0,0:0:0:0:
329,192,34320,1,8,0:0:0:0:
182,192,34320,1,0,0:0:0:0:
36,192,34320,1,0,0:0:0:0:
36,192,34749,1,0,0:0:0:0:
475,192,34749,1,8,0:0:0:0:
256,192,34749,1,0,0:0:0:0:
402,192,34963,1,0,0:0:0:0:
182,192,34963,1,0,0:0:0:0:
402,192,35177,1,8,0:0:0:0:
256,192,35177,1,0,0:0:0:0:
109,192,35177,1,0,0:0:0:0:
475,192,35392,1,0,0:0:0:0:
329,192,35392,1,0,0:0:0:0:
256,192,35499,1,0,0:0:0:0:
182,192,35606,1,8,0:0:0:0:
109,192,35606,1,0,0:0:0:0:
36,192,35606,1,0,0:0:0:0:
402,192,35713,1,0,0:0:0:0:
256,192,35820,1,0,0:0:0:0:
109,192,35820,1,0,0:0:0:0:
329,192,35927,1,0,0:0:0:0:
182,192,36035,1,8,0:0:0:0:
475,192,36035,1,0,0:0:0:0:
402,192,36035,1,0,0:0:0:0:
475,192,36463,1,0,0:0:0:0:
256,192,36463,1,8,0:0:0:0:
36,192,36463,1,0,0:0:0:0:
402,192,36677,1,0,0:0:0:0:
182,192,36677,1,0,0:0:0:0:
329,192,36892,1,8,0:0:0:0:
36,192,36892,1,0,0:0:0:0:
182,192,36892,1,0,0:0:0:0:
256,192,37106,1,0,0:0:0:0:
475,192,37106,1,0,0:0:0:0:
182,192,37213,1,0,0:0:0:0:
109,192,37320,1,0,0:0:0:0:
36,192,37320,1,0,0:0:0:0:
329,192,37320,1,8,0:0:0:0:
256,192,37427,1,0,0:0:0:0:
182,192,37535,1,0,0:0:0:0:
402,192,37535,1,0,0:0:0:0:
109,192,37642,1,0,0:0:0:0:
329,192,37749,1,0,0:0:0:0:
475,192,37749,1,8,0:0:0:0:
36,192,37749,128,2,38927:0:0:0:0:
109,192,38177,1,0,0:0:0:0:
402,192,38177,1,8,0:0:0:0:
182,192,38392,1,0,0:0:0:0:
329,192,38392,1,0,0:0:0:0:
256,192,38606,1,8,0:0:0:0:
475,192,38606,1,0,0:0:0:0:
256,192,38820,1,0,0:0:0:0:
475,192,38927,128,2,39249:0:0:0:0:
329,192,39035,1,8,0:0:0:0:
182,192,39035,1,0,0:0:0:0:
36,192,39142,1,0,0:0:0:0:
329,192,39249,128,2,39463:0:0:0:0:
109,192,39249,1,0,0:0:0:0:
182,192,39356,1,0,0:0:0:0:
256,192,39463,128,10,40320:0:0:0:0:
475,192,39463,128,0,42249:0:0:0:0:
402,192,40106,1,2,0:0:0:0:
36,192,40213,1,2,0:0:0:0:
182,192,40320,128,2,40749:0:0:0:0:
329,192,40749,128,2,41177:0:0:0:0:
256,192,41177,128,2,42249:0:0:0:0:
36,192,41177,128,0,42249:0:0:0:0:
329,192,42249,1,8,0:0:0:0:
182,192,42249,1,0,0:0:0:0:
36,192,42463,1,0,0:0:0:0:
475,192,42463,1,12,0:0:0:0:
256,192,42463,1,0,0:0:0:0:
256,192,42892,128,2,49749:0:0:0:0:
36,192,49749,5,0,0:0:0:0:
329,192,49749,1,8,0:0:0:0:
182,192,49856,1,0,0:0:0:0:
402,192,49963,1,0,0:0:0:0:
109,192,50070,1,0,0:0:0:0:
329,192,50177,128,10,50606:0:0:0:0:
182,192,50285,1,0,0:0:0:0:
109,192,50392,1,0,0:0:0:0:
36,192,50499,1,0,0:0:0:0:
475,192,50606,128,10,51035:0:0:0:0:
109,192,50713,1,0,0:0:0:0:
329,192,50820,1,0,0:0:0:0:
182,192,50927,1,0,0:0:0:0:
36,192,51035,128,10,51463:0:0:0:0:
256,192,51142,1,0,0:0:0:0:
402,192,51249,1,0,0:0:0:0:
182,192,51356,1,0,0:0:0:0:
402,192,51463,128,10,52320:0:0:0:0:
256,192,51570,1,0,0:0:0:0:
109,192,51677,1,0,0:0:0:0:
329,192,51785,1,0,0:0:0:0:
182,192,51892,1,8,0:0:0:0:
36,192,51999,1,0,0:0:0:0:
256,192,52106,1,0,0:0:0:0:
109,192,52213,1,0,0:0:0:0:
329,192,52320,1,8,0:0:0:0:
182,192,52427,1,0,0:0:0:0:
36,192,52535,128,2,52749:0:0:0:0:
402,192,52642,1,0,0:0:0:0:
256,192,52749,128,10,52963:0:0:0:0:
109,192,52856,1,0,0:0:0:0:
475,192,52963,128,2,53177:0:0:0:0:
329,192,53070,1,0,0:0:0:0:
36,192,53177,128,10,53820:0:0:0:0:
256,192,53285,1,0,0:0:0:0:
109,192,53392,1,0,0:0:0:0:
329,192,53499,1,0,0:0:0:0:
475,192,53606,1,8,0:0:0:0:
182,192,53713,1,0,0:0:0:0:
329,192,53820,1,0,0:0:0:0:
109,192,53927,1,0,0:0:0:0:
402,192,54035,128,10,54249:0:0:0:0:
36,192,54142,1,0,0:0:0:0:
256,192,54249,128,2,54463:0:0:0:0:
475,192,54356,1,0,0:0:0:0:
109,192,54463,128,10,54677:0:0:0:0:
329,192,54570,1,0,0:0:0:0:
475,192,54677,128,2,54892:0:0:0:0:
36,192,54785,1,0,0:0:0:0:
182,192,54892,128,10,55749:0:0:0:0:
402,192,54999,1,0,0:0:0:0:
36,192,55106,1,0,0:0:0:0:
329,192,55213,1,0,0:0:0:0:
109,192,55320,1,8,0:0:0:0:
402,192,55427,1,0,0:0:0:0:
256,192,55535,1,0,0:0:0:0:
475,192,55642,1,0,0:0:0:0:
36,192,55749,128,10,55963:0:0:0:0:
329,192,55856,1,0,0:0:0:0:
182,192,55963,128,2,56177:0:0:0:0:
475,192,56070,1,0,0:0:0:0:
402,192,56177,128,10,56392:0:0:0:0:
36,192,56285,1,0,0:0:0:0:
329,192,56392,128,2,57249:0:0:0:0:
182,192,56499,1,0,0:0:0:0:
36,192,56606,1,8,0:0:0:0:
475,192,56713,1,0,0:0:0:0:
182,192,56820,1,0,0:0:0:0:
402,192,56927,1,0,0:0:0:0:
109,192,57035,1,8,0:0:0:0:
256,192,57142,1,0,0:0:0:0:
36,192,57249,1,0,0:0:0:0:
475,192,57356,1,0,0:0:0:0:
36,192,57463,128,10,57892:0:0:0:0:
256,192,57570,1,0,0:0:0:0:
475,192,57677,1,0,0:0:0:0:
329,192,57785,1,0,0:0:0:0:
182,192,57892,128,10,58320:0:0:0:0:
402,192,57999,1,0,0:0:0:0:
36,192,58106,1,0,0:0:0:0:
256,192,58213,1,0,0:0:0:0:
402,192,58320,128,10,59177:0:0:0:0:
36,192,58427,1,0,0:0:0:0:
182,192,58535,1,0,0:0:0:0:
329,192,58642,1,0,0:0:0:0:
109,192,58749,1,8,0:0:0:0:
475,192,58856,1,0,0:0:0:0:
109,192,58963,1,0,0:0:0:0:
256,192,59070,1,0,0:0:0:0:
36,192,59177,128,10,60035:0:0:0:0:
329,192,59285,1,0,0:0:0:0:
475,192,59392,1,0,0:0:0:0:
109,192,59499,1,0,0:0:0:0:
256,192,59606,1,8,0:0:0:0:
402,192,59713,1,0,0:0:0:0:
182,192,59820,1,0,0:0:0:0:
329,192,59927,1,0,0:0:0:0:
402,192,60035,128,10,60892:0:0:0:0:
182,192,60142,1,0,0:0:0:0:
475,192,60249,1,0,0:0:0:0:
36,192,60356,1,0,0:0:0:0:
256,192,60463,1,8,0:0:0:0:
109,192,60570,1,0,0:0:0:0:
329,192,60677,1,0,0:0:0:0:
182,192,60785,1,0,0:0:0:0:
36,192,60892,128,10,61642:0:0:0:0:
329,192,60999,1,0,0:0:0:0:
182,192,61106,1,0,0:0:0:0:
475,192,61213,1,0,0:0:0:0:
256,192,61320,1,8,0:0:0:0:
109,192,61427,1,0,0:0:0:0:
402,192,61535,1,0,0:0:0:0:
182,192,61642,1,0,0:0:0:0:
475,192,61749,128,10,62606:0:0:0:0:
329,192,61749,128,0,61856:0:0:0:0:
182,192,61856,128,2,61963:0:0:0:0:
329,192,61963,128,2,62070:0:0:0:0:
109,192,62070,128,2,62177:0:0:0:0:
256,192,62177,128,10,62285:0:0:0:0:
36,192,62285,128,2,62392:0:0:0:0:
182,192,62392,128,2,62499:0:0:0:0:
329,192,62499,128,2,62606:0:0:0:0:
109,192,62606,128,10,62713:0:0:0:0:
36,192,62606,128,0,63463:0:0:0:0:
256,192,62713,128,2,62820:0:0:0:0:
402,192,62820,128,2,62927:0:0:0:0:
329,192,62927,128,2,63035:0:0:0:0:
256,192,63035,128,10,63142:0:0:0:0:
182,192,63142,128,2,63249:0:0:0:0:
329,192,63249,128,2,63356:0:0:0:0:
109,192,63356,128,2,63463:0:0:0:0:
256,192,63463,128,10,66892:0:0:0:0:
475,192,63463,128,2,63570:0:0:0:0:
329,192,63570,128,2,63677:0:0:0:0:
182,192,63677,128,2,63785:0:0:0:0:
36,192,63785,128,2,63892:0:0:0:0:
402,192,63892,128,2,63999:0:0:0:0:
109,192,63999,128,2,64106:0:0:0:0:
475,192,64106,128,2,64213:0:0:0:0:
182,192,64213,128,2,64320:0:0:0:0:
329,192,64320,128,2,64427:0:0:0:0:
36,192,64427,128,2,64535:0:0:0:0:
475,192,64535,128,2,64642:0:0:0:0:
109,192,64642,128,2,64749:0:0:0:0:
402,192,64749,128,2,64856:0:0:0:0:
182,192,64856,128,2,64963:0:0:0:0:
329,192,64963,128,2,65070:0:0:0:0:
475,192,65070,128,2,65177:0:0:0:0:
36,192,65177,128,2,65285:0:0:0:0:
182,192,65285,128,2,65392:0:0:0:0:
329,192,65392,128,2,65499:0:0:0:0:
475,192,65499,128,2,65606:0:0:0:0:
109,192,65606,128,2,65713:0:0:0:0:
402,192,65713,128,2,65820:0:0:0:0:
182,192,65820,128,2,65927:0:0:0:0:
475,192,65927,128,2,66035:0:0:0:0:
36,192,66035,128,2,66142:0:0:0:0:
329,192,66142,128,2,66249:0:0:0:0:
182,192,66249,128,2,66356:0:0:0:0:
475,192,66356,128,2,66463:0:0:0:0:
109,192,66463,128,2,66570:0:0:0:0:
402,192,66570,128,2,66677:0:0:0:0:
36,192,66677,128,2,66785:0:0:0:0:
182,192,66785,128,2,66892:0:0:0:0:
475,192,66892,128,2,68606:0:0:0:0:
402,192,66999,1,2,0:0:0:0:
329,192,67106,1,2,0:0:0:0:
256,192,67213,1,2,0:0:0:0:
402,192,67320,128,2,68606:0:0:0:0:
329,192,67427,1,2,0:0:0:0:
256,192,67535,1,2,0:0:0:0:
182,192,67642,1,2,0:0:0:0:
329,192,67749,128,2,68606:0:0:0:0:
256,192,67856,1,2,0:0:0:0:
182,192,67963,1,2,0:0:0:0:
109,192,68070,1,2,0:0:0:0:
256,192,68177,1,2,0:0:0:0:
182,192,68285,1,2,0:0:0:0:
109,192,68392,1,2,0:0:0:0:
36,192,68499,1,2,0:0:0:0:
256,192,68606,128,2,69035:0:0:0:0:
329,192,68713,1,2,0:0:0:0:
402,192,68820,1,2,0:0:0:0:
475,192,68927,1,2,0:0:0:0:
182,192,69035,128,2,69463:0:0:0:0:
256,192,69142,1,2,0:0:0:0:
329,192,69249,1,2,0:0:0:0:
402,192,69356,1,2,0:0:0:0:
109,192,69463,128,2,69892:0:0:0:0:
182,192,69570,1,2,0:0:0:0:
256,192,69677,1,2,0:0:0:0:
329,192,69785,1,2,0:0:0:0:
36,192,69892,128,2,70320:0:0:0:0:
109,192,69999,1,2,0:0:0:0:
182,192,70106,1,2,0:0:0:0:
256,192,70213,1,2,0:0:0:0:
475,192,70320,1,0,0:0:0:0:
402,192,70320,1,8,0:0:0:0:
329,192,70320,128,2,70427:0:0:0:0:
256,192,70427,128,2,70535:0:0:0:0:
182,192,70535,128,2,70642:0:0:0:0:
109,192,70642,128,2,70749:0:0:0:0:
36,192,70749,1,0,0:0:0:0:
475,192,70749,1,8,0:0:0:0:
402,192,70749,128,2,70856:0:0:0:0:
329,192,70856,128,2,70963:0:0:0:0:
256,192,70963,128,2,71070:0:0:0:0:
182,192,71070,128,2,71177:0:0:0:0:
36,192,71177,1,0,0:0:0:0:
109,192,71177,1,8,0:0:0:0:
475,192,71177,128,2,71285:0:0:0:0:
402,192,71285,128,2,71392:0:0:0:0:
329,192,71392,128,2,71499:0:0:0:0:
256,192,71499,128,2,71606:0:0:0:0:
109,192,71606,1,8,0:0:0:0:
36,192,71606,1,0,0:0:0:15:
182,192,71606,128,2,71820:0:0:0:0:
329,192,71820,128,2,72035:0:0:0:0:
475,192,72035,1,0,0:0:0:0:
402,192,72035,1,8,0:0:0:0:
182,192,72035,128,2,72142:0:0:0:0:
256,192,72142,128,2,72249:0:0:0:0:
329,192,72249,128,2,72356:0:0:0:0:
402,192,72356,128,2,72463:0:0:0:0:
475,192,72463,1,8,0:0:0:0:
36,192,72463,1,0,0:0:0:0:
109,192,72463,128,2,72570:0:0:0:0:
182,192,72570,128,2,72677:0:0:0:0:
256,192,72677,128,2,72785:0:0:0:0:
329,192,72785,128,2,72892:0:0:0:0:
402,192,72892,1,0,0:0:0:0:
475,192,72892,1,8,0:0:0:0:
36,192,72892,128,2,72999:0:0:0:0:
109,192,72999,128,2,73106:0:0:0:0:
182,192,73106,128,2,73213:0:0:0:0:
256,192,73213,128,2,73320:0:0:0:0:
475,192,73320,1,0,0:0:0:15:
402,192,73320,1,8,0:0:0:0:
329,192,73320,128,2,73535:0:0:0:0:
182,192,73535,128,2,73749:0:0:0:0:
36,192,73749,1,0,0:0:0:0:
329,192,73749,1,0,0:0:0:0:
109,192,73749,1,8,0:0:0:0:
256,192,73856,1,0,0:0:0:0:
182,192,73963,1,0,0:0:0:0:
475,192,73963,1,0,0:0:0:0:
402,192,74070,1,0,0:0:0:0:
36,192,74177,1,8,0:0:0:0:
329,192,74177,1,0,0:0:0:0:
109,192,74177,1,0,0:0:0:0:
182,192,74285,1,0,0:0:0:0:
256,192,74392,1,0,0:0:0:0:
402,192,74392,1,0,0:0:0:0:
36,192,74499,1,0,0:0:0:0:
182,192,74606,1,0,0:0:0:0:
475,192,74606,1,0,0:0:0:0:
329,192,74606,1,8,0:0:0:0:
109,192,74713,1,0,0:0:0:0:
256,192,74820,1,0,0:0:0:0:
402,192,74820,1,0,0:0:0:0:
182,192,74927,1,0,0:0:0:0:
36,192,75035,1,8,0:0:0:0:
109,192,75035,1,0,0:0:0:0:
329,192,75035,1,0,0:0:0:0:
256,192,75142,1,0,0:0:0:0:
182,192,75249,1,0,0:0:0:0:
36,192,75249,1,0,0:0:0:0:
256,192,75356,1,0,0:0:0:0:
109,192,75463,1,0,0:0:0:0:
402,192,75463,1,8,0:0:0:0:
475,192,75463,128,0,76320:0:0:0:0:
329,192,75570,1,0,0:0:0:0:
256,192,75677,1,0,0:0:0:0:
182,192,75785,1,0,0:0:0:0:
402,192,75892,128,0,76320:0:0:0:0:
329,192,75892,1,8,0:0:0:0:
36,192,75892,1,0,0:0:0:0:
109,192,75999,1,0,0:0:0:0:
182,192,76106,1,0,0:0:0:0:
256,192,76213,1,0,0:0:0:0:
329,192,76320,1,12,0:0:0:0:
109,192,76320,1,0,0:0:0:0:
36,192,76320,1,0,0:0:0:0:
256,192,77177,1,8,0:0:0:0:
402,192,77392,1,0,0:0:0:0:
109,192,77499,1,0,0:0:0:0:
256,192,77606,1,8,0:0:0:0:
329,192,77820,1,0,0:0:0:0:
475,192,77927,1,0,0:0:0:0:
256,192,78035,1,8,0:0:0:0:
182,192,78249,1,0,0:0:0:0:
36,192,78356,1,0,0:0:0:0:
256,192,78463,1,8,0:0:0:0:
402,192,78892,1,8,0:0:0:0:
182,192,78892,1,0,0:0:0:0:
329,192,79106,1,0,0:0:0:0:
109,192,79213,1,0,0:0:0:0:
256,192,79320,1,8,0:0:0:0:
36,192,79535,1,0,0:0:0:0:
475,192,79642,1,0,0:0:0:0:
109,192,79749,1,8,0:0:0:0:
329,192,79749,1,0,0:0:0:0:
182,192,79963,1,0,0:0:0:0:
402,192,80070,1,0,0:0:0:0:
256,192,80177,1,8,0:0:0:0:
475,192,80606,1,8,0:0:0:0:
329,192,80606,1,0,0:0:0:0:
182,192,80820,1,0,0:0:0:0:
36,192,80927,1,0,0:0:0:0:
256,192,81035,1,8,0:0:0:0:
329,192,81249,1,0,0:0:0:0:
475,192,81356,1,0,0:0:0:0:
36,192,81463,1,8,0:0:0:0:
182,192,81463,1,0,0:0:0:0:
402,192,81677,1,0,0:0:0:0:
109,192,81785,1,0,0:0:0:0:
256,192,81892,1,8,0:0:0:0:
329,192,82320,1,8,0:0:0:0:
475,192,82320,1,0,0:0:0:0:
182,192,82535,1,0,0:0:0:0:
36,192,82535,1,0,0:0:0:0:
256,192,82749,1,8,0:0:0:0:
475,192,82963,1,0,0:0:0:0:
402,192,82963,1,0,0:0:0:0:
36,192,83177,1,8,0:0:0:0:
109,192,83177,1,0,0:0:0:0:
329,192,83392,1,0,0:0:0:0:
182,192,83499,1,0,0:0:0:0:
256,192,83606,1,12,0:0:0:0:
36,192,83606,1,0,0:0:0:0:
475,192,83606,1,0,0:0:0:0:
36,192,83820,1,0,0:0:0:0:
256,192,83820,1,12,0:0:0:0:
475,192,83820,1,0,0:0:0:0:
256,192,84035,1,8,0:0:0:0:
109,192,84035,1,0,0:0:0:0:
402,192,84035,1,0,0:0:0:0:
182,192,84249,1,0,0:0:0:0:
256,192,84356,1,0,0:0:0:0:
329,192,84463,1,0,0:0:0:0:
475,192,84463,1,8,0:0:0:0:
109,192,84463,1,0,0:0:0:0:
182,192,84677,1,0,0:0:0:0:
109,192,84785,1,0,0:0:0:0:
36,192,84892,1,0,0:0:0:0:
402,192,84892,1,8,0:0:0:0:
256,192,84892,1,0,0:0:0:0:
182,192,85106,1,0,0:0:0:0:
256,192,85213,1,0,0:0:0:0:
329,192,85320,1,0,0:0:0:0:
36,192,85320,1,0,0:0:0:0:
475,192,85320,1,8,0:0:0:0:
182,192,85427,1,0,0:0:0:0:
329,192,85535,1,0,0:0:0:0:
256,192,85642,1,0,0:0:0:0:
182,192,85749,1,0,0:0:0:0:
475,192,85749,1,0,0:0:0:0:
402,192,85749,1,8,0:0:0:0:
109,192,85963,1,0,0:0:0:0:
256,192,86070,1,0,0:0:0:0:
182,192,86177,1,0,0:0:0:0:
402,192,86177,1,0,0:0:0:0:
36,192,86177,1,8,0:0:0:0:
329,192,86392,1,0,0:0:0:0:
256,192,86499,1,0,0:0:0:0:
182,192,86606,1,8,0:0:0:0:
36,192,86606,1,0,0:0:0:0:
475,192,86606,1,0,0:0:0:0:
256,192,86820,1,0,0:0:0:0:
182,192,86927,1,0,0:0:0:0:
109,192,87035,1,0,0:0:0:0:
36,192,87035,1,0,0:0:0:0:
329,192,87035,1,8,0:0:0:0:
256,192,87142,1,0,0:0:0:0:
402,192,87249,1,0,0:0:0:0:
256,192,87356,1,0,0:0:0:0:
182,192,87463,1,8,0:0:0:0:
329,192,87463,1,0,0:0:0:0:
36,192,87463,1,0,0:0:0:0:
256,192,87677,1,0,0:0:0:0:
329,192,87785,1,0,0:0:0:0:
402,192,87892,1,8,0:0:0:0:
182,192,87892,1,0,0:0:0:0:
475,192,87892,1,0,0:0:0:0:
109,192,88106,1,0,0:0:0:0:
256,192,88213,1,0,0:0:0:0:
36,192,88320,1,0,0:0:0:0:
475,192,88320,1,0,0:0:0:0:
182,192,88320,1,8,0:0:0:0:
329,192,88535,1,0,0:0:0:0:
182,192,88642,1,0,0:0:0:0:
475,192,88749,1,0,0:0:0:0:
329,192,88749,1,8,0:0:0:0:
36,192,88749,1,0,0:0:0:0:
182,192,88856,1,0,0:0:0:0:
256,192,88963,1,0,0:0:0:0:
329,192,89070,1,0,0:0:0:0:
256,192,89177,128,10,90035:0:0:0:0:
402,192,89177,128,0,90035:0:0:0:0:
109,192,89177,128,0,90035:0:0:0:0:
329,192,90035,128,2,90356:0:0:0:0:
182,192,90035,128,0,90356:0:0:0:0:
36,192,90356,128,0,90677:0:0:0:0:
475,192,90356,128,0,90677:0:0:0:0:
256,192,90356,128,2,90677:0:0:0:0:
109,192,90677,128,0,90892:0:0:0:0:
402,192,90677,128,2,90892:0:0:0:0:
256,192,90892,1,0,0:0:0:0:
182,192,90892,1,8,0:0:0:0:
475,192,90892,128,0,91320:0:0:0:0:
402,192,90999,128,0,91320:0:0:0:0:
329,192,91106,128,0,91320:0:0:0:0:
256,192,91213,128,0,91320:0:0:0:0:
36,192,91320,1,0,0:0:0:0:
109,192,91320,1,8,0:0:0:0:
182,192,91320,1,0,0:0:0:0:
36,192,91535,128,0,91749:0:0:0:0:
182,192,91642,128,0,91749:0:0:0:0:
475,192,91749,1,0,0:0:0:0:
402,192,91749,1,8,0:0:0:0:
329,192,91749,1,0,0:0:0:0:
256,192,91963,1,0,0:0:0:0:
36,192,91963,1,0,0:0:0:0:
182,192,92070,1,0,0:0:0:0:
109,192,92177,1,8,0:0:0:0:
475,192,92177,1,0,0:0:0:0:
402,192,92177,1,0,0:0:0:0:
329,192,92285,1,0,0:0:0:0:
256,192,92392,1,0,0:0:0:0:
109,192,92392,1,0,0:0:0:0:
329,192,92499,1,0,0:0:0:0:
475,192,92606,1,0,0:0:0:0:
402,192,92606,1,8,0:0:0:0:
36,192,92606,128,0,93035:0:0:0:0:
109,192,92713,128,0,93035:0:0:0:0:
182,192,92820,128,0,93035:0:0:0:0:
256,192,92927,128,0,93035:0:0:0:0:
475,192,93035,1,0,0:0:0:0:
402,192,93035,1,0,0:0:0:0:
329,192,93035,1,8,0:0:0:0:
182,192,93249,128,0,93463:0:0:0:0:
109,192,93356,128,0,93463:0:0:0:0:
329,192,93463,1,8,0:0:0:0:
475,192,93463,1,0,0:0:0:0:
36,192,93463,1,0,0:0:0:0:
256,192,93677,128,0,93892:0:0:0:0:
182,192,93785,128,0,93892:0:0:0:0:
36,192,93892,1,0,0:0:0:0:
109,192,93892,1,8,0:0:0:0:
475,192,93892,128,0,94320:0:0:0:0:
402,192,93999,128,0,94320:0:0:0:0:
329,192,94106,128,0,94320:0:0:0:0:
256,192,94213,128,0,94320:0:0:0:0:
36,192,94320,1,8,0:0:0:0:
109,192,94320,128,0,94749:0:0:0:0:
182,192,94427,128,0,94749:0:0:0:0:
256,192,94535,128,0,94749:0:0:0:0:
329,192,94642,128,0,94749:0:0:0:0:
402,192,94749,1,8,0:0:0:0:
475,192,94749,1,0,0:0:0:0:
36,192,94749,1,0,0:0:0:0:
329,192,94963,128,0,95177:0:0:0:0:
256,192,95070,128,0,95177:0:0:0:0:
36,192,95177,1,8,0:0:0:0:
475,192,95177,1,0,0:0:0:0:
182,192,95177,1,0,0:0:0:0:
329,192,95392,128,0,95606:0:0:0:0:
402,192,95499,128,0,95606:0:0:0:0:
475,192,95606,1,0,0:0:0:0:
36,192,95606,1,8,0:0:0:0:
182,192,95606,1,0,0:0:0:0:
256,192,95713,1,0,0:0:0:0:
329,192,95820,1,0,0:0:0:0:
475,192,95820,1,0,0:0:0:0:
182,192,95927,1,0,0:0:0:0:
402,192,96035,1,8,0:0:0:0:
329,192,96035,1,0,0:0:0:0:
36,192,96035,128,0,96463:0:0:0:0:
109,192,96142,128,0,96463:0:0:0:0:
182,192,96249,128,0,96463:0:0:0:0:
256,192,96356,128,0,96463:0:0:0:0:
475,192,96463,1,8,0:0:0:0:
402,192,96463,128,0,96892:0:0:0:0:
329,192,96570,128,0,96892:0:0:0:0:
256,192,96677,128,0,96892:0:0:0:0:
182,192,96785,128,0,96892:0:0:0:0:
475,192,96892,1,0,0:0:0:0:
36,192,96892,1,8,0:0:0:0:
109,192,96892,128,0,97320:0:0:0:0:
182,192,96999,128,0,97320:0:0:0:0:
329,192,97106,128,0,97320:0:0:0:0:
402,192,97213,128,0,97320:0:0:0:0:
256,192,97320,1,12,0:0:0:0:
475,192,97320,1,0,0:0:0:0:
36,192,97320,1,0,0:0:0:0:
109,192,97535,1,0,0:0:0:0:
256,192,97535,1,0,0:0:0:0:
402,192,97535,1,12,0:0:0:0:
475,192,97749,1,0,0:0:0:0:
109,192,97749,1,8,0:0:0:0:
329,192,97749,128,0,98177:0:0:0:0:
256,192,97856,128,0,98177:0:0:0:0:
182,192,97963,128,0,98177:0:0:0:0:
109,192,98070,128,0,98177:0:0:0:0:
36,192,98177,1,0,0:0:0:0:
475,192,98177,1,0,0:0:0:0:
402,192,98177,1,8,0:0:0:0:
256,192,98392,128,0,98606:0:0:0:0:
329,192,98499,128,0,98606:0:0:0:0:
109,192,98606,1,0,0:0:0:0:
36,192,98606,1,0,0:0:0:0:
402,192,98606,1,8,0:0:0:0:
475,192,98820,1,0,0:0:0:0:
329,192,98820,1,0,0:0:0:0:
256,192,98927,1,0,0:0:0:0:
182,192,99035,1,8,0:0:0:0:
109,192,99035,1,0,0:0:0:0:
402,192,99035,1,0,0:0:0:0:
329,192,99142,1,0,0:0:0:0:
36,192,99249,1,0,0:0:0:0:
256,192,99249,1,0,0:0:0:0:
109,192,99356,1,0,0:0:0:0:
475,192,99463,1,8,0:0:0:0:
182,192,99463,128,0,99892:0:0:0:0:
256,192,99570,128,0,99892:0:0:0:0:
329,192,99677,128,0,99892:0:0:0:0:
402,192,99785,128,0,99892:0:0:0:0:
36,192,99892,1,0,0:0:0:0:
109,192,99892,1,0,0:0:0:0:
475,192,99892,1,8,0:0:0:0:
256,192,100106,128,0,100320:0:0:0:0:
182,192,100213,128,0,100320:0:0:0:0:
475,192,100320,1,0,0:0:0:0:
402,192,100320,1,8,0:0:0:0:
109,192,100320,1,0,0:0:0:0:
329,192,100535,128,0,100749:0:0:0:0:
402,192,100642,128,0,100749:0:0:0:0:
36,192,100749,1,8,0:0:0:0:
475,192,100749,1,0,0:0:0:0:
256,192,100749,128,0,101177:0:0:0:0:
182,192,100856,128,0,101177:0:0:0:0:
109,192,100963,128,0,101177:0:0:0:0:
36,192,101070,128,0,101177:0:0:0:0:
402,192,101177,1,8,0:0:0:0:
475,192,101177,1,0,0:0:0:0:
329,192,101177,128,0,101606:0:0:0:0:
256,192,101285,128,0,101606:0:0:0:0:
182,192,101392,128,0,101606:0:0:0:0:
402,192,101499,128,0,101606:0:0:0:0:
36,192,101606,1,0,0:0:0:0:
109,192,101606,1,8,0:0:0:0:
475,192,101606,1,0,0:0:0:0:
182,192,101820,128,0,102035:0:0:0:0:
256,192,101927,128,0,102035:0:0:0:0:
36,192,102035,1,0,0:0:0:0:
329,192,102035,1,8,0:0:0:0:
475,192,102035,1,0,0:0:0:0:
109,192,102249,1,0,0:0:0:0:
402,192,102249,128,0,102463:0:0:0:0:
329,192,102356,128,0,102463:0:0:0:0:
182,192,102463,1,0,0:0:0:0:
36,192,102463,1,0,0:0:0:0:
256,192,102463,1,8,0:0:0:0:
402,192,102677,1,0,0:0:0:0:
109,192,102677,1,0,0:0:0:0:
182,192,102785,1,0,0:0:0:0:
329,192,102892,128,0,103213:0:0:0:0:
256,192,102999,128,0,103213:0:0:0:0:
182,192,103106,128,0,103213:0:0:0:0:
109,192,103213,128,0,103320:0:0:0:0:
475,192,103320,128,0,103642:0:0:0:0:
402,192,103427,128,0,103642:0:0:0:0:
329,192,103535,128,0,103642:0:0:0:0:
256,192,103642,128,0,103749:0:0:0:0:
109,192,103749,128,0,104070:0:0:0:0:
182,192,103856,128,0,104070:0:0:0:0:
256,192,103963,128,0,104070:0:0:0:0:
329,192,104070,128,0,104177:0:0:0:0:
36,192,104177,128,0,104499:0:0:0:0:
182,192,104285,128,0,104499:0:0:0:0:
329,192,104392,128,0,104499:0:0:0:0:
475,192,104499,128,0,104606:0:0:0:0:
