osu file format v14

[General]
AudioFilename: audio.mp3
AudioLeadIn: 0
PreviewTime: 90892
Countdown: 0
SampleSet: Soft
StackLeniency: 0.7
Mode: 3
LetterboxInBreaks: 0
SpecialStyle: 0
WidescreenStoryboard: 0

[Editor]
DistanceSpacing: 1
BeatDivisor: 4
GridSize: 8
TimelineZoom: 1.1

[Metadata]
Title:Breeze
TitleUnicode:Breeze
Artist:cYsmix
ArtistUnicode:cYsmix
Creator:Lenfried-
Version:Easy
Source:osu!
Tags:osu featured artist
BeatmapID:1345858
BeatmapSetID:632221

[Difficulty]
HPDrainRate:7
CircleSize:7
OverallDifficulty:7
ApproachRate:5
SliderMultiplier:1.4
SliderTickRate:1

[Events]
//Background and Video events
0,0,"bg.jpg",0,0
//Break Periods
//Storyboard Layer 0 (Background)
//Storyboard Layer 1 (Fail)
//Storyboard Layer 2 (Pass)
//Storyboard Layer 3 (Foreground)
//Storyboard Sound Samples

[TimingPoints]
35,428.571428571429,4,2,1,40,1,0
15463,-100,4,2,1,60,0,0
16320,-100,4,2,1,50,0,0
17177,-100,4,2,1,40,0,0
61749,-100,4,2,1,50,0,0
66892,-100,4,2,1,40,0,0
76320,-100,4,2,1,50,0,0
77177,-100,4,2,1,35,0,0
84035,-100,4,2,1,40,0,0
90892,-100,4,2,1,40,0,1
102892,-100,4,2,1,40,0,0

[HitObjects]
109,192,1320,5,0,0:0:0:0:
402,192,1320,1,12,0:0:0:0:
182,192,1749,1,8,0:0:0:0:
329,192,1749,1,0,0:0:0:0:
36,192,2177,1,8,0:0:0:0:
402,192,2606,1,8,0:0:0:0:
256,192,2820,1,0,0:0:0:0:
109,192,3035,1,8,0:0:0:0:
329,192,3463,1,0,0:0:0:0:
475,192,3463,1,8,0:0:0:0:
182,192,3892,1,8,0:0:0:0:
329,192,4320,1,8,0:0:0:0:
182,192,4535,1,0,0:0:0:0:
36,192,4749,1,8,0:0:0:0:
475,192,5177,1,0,0:0:0:0:
182,192,5177,1,8,0:0:0:0:
329,192,5606,1,8,0:0:0:0:
36,192,6035,1,8,0:0:0:0:
182,192,6249,1,0,0:0:0:0:
329,192,6463,1,8,0:0:0:0:
256,192,6892,1,8,0:0:0:0:
109,192,6892,1,0,0:0:0:0:
402,192,7320,1,8,0:0:0:0:
109,192,7749,1,8,0:0:0:0:
256,192,7963,1,0,0:0:0:0:
402,192,8177,1,8,0:0:0:0:
36,192,8606,1,8,0:0:0:0:
182,192,8606,1,0,0:0:0:0:
402,192,9035,1,8,0:0:0:0:
109,192,9463,1,8,0:0:0:0:
182,192,9677,1,0,0:0:0:0:
256,192,9892,1,8,0:0:0:0:
329,192,10320,1,8,0:0:0:0:
36,192,10320,1,0,0:0:0:0:
182,192,10749,1,8,0:0:0:0:
402,192,11177,1,8,0:0:0:0:
329,192,11392,1,0,0:0:0:0:
256,192,11606,1,8,0:0:0:0:
36,192,12035,1,0,0:0:0:0:
182,192,12035,1,8,0:0:0:0:
329,192,12463,1,8,0:0:0:0:
109,192,12892,1,8,0:0:0:0:
256,192,13106,1,0,0:0:0:0:
402,192,13320,1,8,0:0:0:0:
402,192,13749,128,2,14606:0:0:0:0:
109,192,13749,128,0,14606:0:0:0:0:
329,192,14606,1,2,0:0:0:0:
256,192,14927,1,2,0:0:0:0:
182,192,15249,1,2,0:0:0:0:
475,192,15463,1,8,0:0:0:0:
475,192,15892,1,8,0:0:0:0:
36,192,16320,1,8,0:0:0:0:
36,192,16749,1,8,0:0:0:0:
402,192,17177,1,8,0:0:0:0:
402,192,17606,1,8,0:0:0:0:
109,192,18035,1,8,0:0:0:0:
109,192,18463,1,8,0:0:0:0:
329,192,18892,1,8,0:0:0:0:
329,192,19320,1,8,0:0:0:0:
182,192,19749,1,8,0:0:0:0:
182,192,20177,1,8,0:0:0:0:
36,192,20606,128,10,21035:0:0:0:0:
256,192,21035,128,10,21463:0:0:0:0:
475,192,21463,128,10,21892:0:0:0:0:
182,192,21892,1,12,0:0:0:0:
329,192,22106,1,12,0:0:0:0:
256,192,22320,1,8,0:0:0:0:
402,192,22749,1,8,0:0:0:0:
36,192,23177,1,0,0:0:0:0:
182,192,23177,1,8,0:0:0:0:
256,192,23606,1,10,0:0:0:0:
402,192,23820,1,2,0:0:0:0:
109,192,24035,128,10,24463:0:0:0:0:
329,192,24463,1,8,0:0:0:0:
182,192,24892,1,8,0:0:0:0:
36,192,24892,1,0,0:0:0:0:
402,192,25320,1,10,0:0:0:0:
109,192,25535,1,2,0:0:0:0:
329,192,25749,128,10,26177:0:0:0:0:
182,192,26177,1,8,0:0:0:0:
475,192,26606,1,0,0:0:0:0:
329,192,26606,1,8,0:0:0:0:
36,192,27035,1,8,0:0:0:0:
182,192,27249,1,0,0:0:0:0:
329,192,27463,128,2,28749:0:0:0:0:
475,192,27463,128,0,28749:0:0:0:0:
182,192,29177,1,8,0:0:0:0:
402,192,29177,1,0,0:0:0:0:
329,192,29606,1,8,0:0:0:0:
109,192,29606,1,0,0:0:0:0:
256,192,30035,1,8,0:0:0:0:
36,192,30035,1,0,0:0:0:0:
182,192,30463,1,8,0:0:0:0:
256,192,30677,1,0,0:0:0:0:
329,192,30892,1,8,0:0:0:0:
256,192,31320,1,8,0:0:0:0:
475,192,31320,1,0,0:0:0:0:
182,192,31749,1,8,0:0:0:0:
402,192,31749,1,0,0:0:0:0:
109,192,32177,1,8,0:0:0:0:
256,192,32392,1,0,0:0:0:0:
402,192,32606,1,8,0:0:0:0:
256,192,33035,1,8,0:0:0:0:
36,192,33035,1,0,0:0:0:0:
329,192,33463,1,8,0:0:0:0:
109,192,33463,1,0,0:0:0:0:
182,192,33892,1,8,0:0:0:0:
329,192,34106,1,0,0:0:0:0:
109,192,34320,1,8,0:0:0:0:
402,192,34749,1,8,0:0:0:0:
182,192,34749,1,0,0:0:0:0:
475,192,35177,1,8,0:0:0:0:
256,192,35177,1,0,0:0:0:0:
329,192,35606,1,8,0:0:0:0:
182,192,35820,1,0,0:0:0:0:
36,192,36035,1,8,0:0:0:0:
402,192,36463,1,8,0:0:0:0:
109,192,36463,1,0,0:0:0:0:
329,192,36677,1,0,0:0:0:0:
256,192,36892,1,8,0:0:0:0:
256,192,37320,1,8,0:0:0:0:
475,192,37320,1,0,0:0:0:0:
182,192,37535,1,0,0:0:0:0:
109,192,37749,1,8,0:0:0:0:
36,192,38177,1,0,0:0:0:0:
256,192,38177,1,8,0:0:0:0:
329,192,38392,1,0,0:0:0:0:
402,192,38606,1,8,0:0:0:0:
109,192,38927,128,2,39249:0:0:0:0:
329,192,39249,128,2,39463:0:0:0:0:
182,192,39463,128,2,40320:0:0:0:0:
36,192,40320,128,2,40749:0:0:0:0:
402,192,40749,128,2,41177:0:0:0:0:
256,192,41177,128,2,42463:0:0:0:0:
109,192,42463,1,0,0:0:0:0:
402,192,42463,1,12,0:0:0:0:
256,192,42892,128,2,49749:0:0:0:0:
109,192,50177,128,2,50606:0:0:0:0:
402,192,50606,128,2,51035:0:0:0:0:
182,192,51035,128,2,51463:0:0:0:0:
329,192,51463,128,2,52320:0:0:0:0:
36,192,52535,1,2,0:0:0:0:
182,192,52749,1,2,0:0:0:0:
329,192,52963,1,2,0:0:0:0:
182,192,53177,128,2,53820:0:0:0:0:
329,192,54035,1,2,0:0:0:0:
109,192,54463,1,2,0:0:0:0:
402,192,54677,1,2,0:0:0:0:
182,192,54892,128,2,55749:0:0:0:0:
109,192,55749,1,2,0:0:0:0:
256,192,55963,1,2,0:0:0:0:
402,192,56177,1,2,0:0:0:0:
329,192,56392,128,2,57249:0:0:0:0:
36,192,57463,128,2,57892:0:0:0:0:
182,192,57892,128,2,58320:0:0:0:0:
329,192,58320,128,2,59177:0:0:0:0:
36,192,59177,128,2,60035:0:0:0:0:
402,192,60035,128,2,60892:0:0:0:0:
109,192,60892,128,2,61749:0:0:0:0:
475,192,61749,128,2,62606:0:0:0:0:
182,192,62606,128,2,63463:0:0:0:0:
329,192,63463,1,8,0:0:0:0:
329,192,63892,1,8,0:0:0:0:
256,192,64320,1,8,0:0:0:0:
256,192,64749,1,8,0:0:0:0:
182,192,65177,1,8,0:0:0:0:
182,192,65606,1,8,0:0:0:0:
109,192,66035,1,8,0:0:0:0:
109,192,66463,1,8,0:0:0:0:
475,192,66892,1,8,0:0:0:0:
475,192,67320,1,8,0:0:0:0:
329,192,67749,1,8,0:0:0:0:
329,192,68177,1,8,0:0:0:0:
182,192,68606,1,8,0:0:0:0:
182,192,69035,1,8,0:0:0:0:
36,192,69463,1,8,0:0:0:0:
36,192,69892,1,8,0:0:0:0:
475,192,70320,1,0,0:0:0:0:
256,192,70320,1,8,0:0:0:0:
402,192,70749,1,0,0:0:0:0:
182,192,70749,1,8,0:0:0:0:
109,192,71177,1,8,0:0:0:0:
329,192,71177,1,0,0:0:0:0:
256,192,71606,1,0,0:0:0:0:
36,192,71606,1,8,0:0:0:0:
256,192,72035,1,8,0:0:0:0:
36,192,72035,1,0,0:0:0:0:
329,192,72463,1,8,0:0:0:0:
109,192,72463,1,0,0:0:0:0:
402,192,72892,1,8,0:0:0:0:
182,192,72892,1,0,0:0:0:0:
475,192,73320,1,8,0:0:0:0:
256,192,73320,1,0,0:0:0:0:
109,192,73749,1,8,0:0:0:0:
402,192,73749,1,0,0:0:0:0:
329,192,74177,1,0,0:0:0:0:
182,192,74177,1,8,0:0:0:0:
475,192,74606,1,0,0:0:0:0:
36,192,74606,1,8,0:0:0:0:
109,192,75035,1,8,0:0:0:0:
402,192,75035,1,0,0:0:0:0:
329,192,75463,128,10,76320:0:0:0:0:
182,192,75463,128,0,76320:0:0:0:0:
402,192,76320,128,2,76749:0:0:0:0:
109,192,76749,128,2,77177:0:0:0:0:
256,192,77177,1,8,0:0:0:0:
256,192,77606,1,8,0:0:0:0:
256,192,78035,1,8,0:0:0:0:
256,192,78463,1,8,0:0:0:0:
402,192,78892,1,8,0:0:0:0:
256,192,79320,1,8,0:0:0:0:
109,192,79749,1,8,0:0:0:0:
256,192,80177,1,8,0:0:0:0:
475,192,80606,1,8,0:0:0:0:
256,192,81035,1,8,0:0:0:0:
36,192,81463,1,8,0:0:0:0:
256,192,81892,1,8,0:0:0:0:
329,192,82320,1,8,0:0:0:0:
256,192,82749,1,8,0:0:0:0:
182,192,83177,1,8,0:0:0:0:
329,192,83606,1,12,0:0:0:0:
182,192,83820,1,12,0:0:0:0:
256,192,84035,1,8,0:0:0:0:
329,192,84463,1,8,0:0:0:0:
475,192,84463,1,0,0:0:0:0:
256,192,84892,1,8,0:0:0:0:
182,192,85320,1,8,0:0:0:0:
36,192,85320,1,0,0:0:0:0:
256,192,85749,1,8,0:0:0:0:
329,192,86177,1,8,0:0:0:0:
402,192,86177,1,0,0:0:0:0:
256,192,86606,1,8,0:0:0:0:
182,192,87035,1,8,0:0:0:0:
109,192,87035,1,0,0:0:0:0:
256,192,87463,1,8,0:0:0:0:
402,192,87892,1,8,0:0:0:0:
109,192,87892,1,0,0:0:0:0:
256,192,88320,1,8,0:0:0:0:
36,192,88749,1,8,0:0:0:0:
475,192,88749,1,0,0:0:0:0:
329,192,89177,128,0,90035:0:0:0:0:
182,192,89177,128,2,90035:0:0:0:0:
475,192,90035,128,2,90356:0:0:0:0:
329,192,90356,128,2,90677:0:0:0:0:
182,192,90677,128,2,90892:0:0:0:0:
36,192,90892,128,10,91320:0:0:0:0:
256,192,91320,1,8,0:0:0:0:
329,192,91749,1,8,0:0:0:0:
109,192,91749,1,0,0:0:0:0:
182,192,92177,1,8,0:0:0:0:
402,192,92177,1,0,0:0:0:0:
36,192,92392,1,0,0:0:0:0:
475,192,92606,128,10,93035:0:0:0:0:
182,192,93035,1,8,0:0:0:0:
256,192,93463,1,8,0:0:0:0:
36,192,93463,1,0,0:0:0:0:
329,192,93892,1,8,0:0:0:0:
109,192,93892,1,0,0:0:0:0:
475,192,94106,1,0,0:0:0:0:
182,192,94320,128,10,94749:0:0:0:0:
402,192,94749,1,8,0:0:0:0:
329,192,95177,1,8,0:0:0:0:
109,192,95177,1,0,0:0:0:0:
36,192,95606,1,8,0:0:0:0:
256,192,95606,1,0,0:0:0:0:
329,192,95820,1,0,0:0:0:0:
402,192,96035,128,10,96463:0:0:0:0:
182,192,96463,128,10,96892:0:0:0:0:
329,192,96892,128,10,97320:0:0:0:0:
182,192,97320,1,12,0:0:0:0:
36,192,97320,1,0,0:0:0:0:
36,192,97535,1,0,0:0:0:0:
182,192,97535,1,12,0:0:0:0:
475,192,97749,128,10,98177:0:0:0:0:
36,192,98177,1,0,0:0:0:0:
256,192,98177,1,8,0:0:0:0:
109,192,98606,1,0,0:0:0:0:
329,192,98606,1,8,0:0:0:0:
182,192,99035,1,8,0:0:0:0:
402,192,99035,1,0,0:0:0:0:
256,192,99249,1,0,0:0:0:0:
329,192,99463,128,10,99892:0:0:0:0:
36,192,99892,1,0,0:0:0:0:
182,192,99892,1,8,0:0:0:0:
256,192,100320,1,8,0:0:0:0:
475,192,100320,1,0,0:0:0:0:
182,192,100749,1,8,0:0:0:0:
402,192,100749,1,0,0:0:0:0:
256,192,100963,1,0,0:0:0:0:
109,192,101177,128,10,101606:0:0:0:0:
329,192,101606,1,8,0:0:0:0:
475,192,101606,1,0,0:0:0:0:
109,192,102035,1,8,0:0:0:0:
329,192,102249,1,0,0:0:0:0:
182,192,102463,1,8,0:0:0:0:
402,192,102677,1,0,0:0:0:0:
256,192,102892,128,2,103320:0:0:0:0:
109,192,103320,128,2,103749:0:0:0:0:
402,192,103749,128,2,104177:0:0:0:0:
256,192,104177,128,2,104606:0:0:0:0:
