osu file format v5

[General]
AudioFilename: bubbles - F.mp3
AudioLeadIn: 0
PreviewTime: 30989
Countdown: 1
SampleSet: Normal
StackLeniency: 0.7
Mode: 0
LetterboxInBreaks: 1

[Metadata]
Title:F
Artist:bubbles
Creator:tobebuta
Version:Insane
Source:
Tags:

[Difficulty]
HPDrainRate:7
CircleSize:4
OverallDifficulty:6
SliderMultiplier:2.1
SliderTickRate:4

[Events]
//Background and Video events
0,0,"FFFFFF.jpg"
//Break Periods
2,65106,76527
2,117665,120851
//Storyboard Layer 0 (Background)
//Storyboard Layer 1 (Failing)
//Storyboard Layer 2 (Passing)
//Storyboard Layer 3 (Foreground)
//Storyboard Sound Samples
//Background Colour Transformations
3,100,0,0,0

[TimingPoints]
13551,392.156862745098,4,1,0,83,1
39237,-100,4,2,0,100,0
40217,-100,4,1,0,79,0
40805,-100,4,2,0,100,0
41786,-100,4,1,0,82,0
42374,-100,4,2,0,100,0
43353,-100,4,1,0,81,0
43943,-100,4,2,0,100,0
44923,-100,4,1,0,98,0
48060,1568.62745098039,4,1,0,83,1
48844,392.156862745098,4,2,0,83,1
49628,1568.62745098039,4,1,0,83,1
50412,392.156862745098,4,1,0,83,1
50804,-100,4,2,0,83,0
51980,1568.62745098039,4,1,0,83,1
52764,392.156862745098,4,2,0,77,1
55900,392.156862745098,4,2,0,83,1
57468,-200,4,2,0,83,0
59036,-100,4,1,0,83,0
62173,-200,4,2,0,83,0
77859,-200,4,2,0,83,0
80604,-200,4,1,0,73,0
82957,784.313725490196,4,2,0,73,0
84133,1568.62745098039,4,2,0,83,1
93348,-100,4,2,0,100,0
95113,392.156862745098,4,1,0,83,1
101387,-200,4,1,0,83,0
103739,-50,4,1,0,83,0
104524,-100,4,2,0,100,0
107661,-100,4,1,0,81,0
108249,3000,4,2,0,83,0
109229,3000,4,1,0,94,0
109818,3000,4,2,0,100,0
110798,3000,4,1,0,84,0
111386,3000,4,2,0,100,0
112367,3000,4,1,0,83,0
112955,3000,4,2,0,100,0
113935,-100,4,1,0,93,0
123347,1568.62745098039,4,2,0,75,1
127661,196.078431372549,4,1,0,83,1

[Colours]
Combo1 : 128,128,0
Combo2 : 0,128,128
Combo3 : 0,64,128
Combo4 : 64,0,64

[HitObjects]
80,80,13551,5,2
208,88,13845,2,0,B|304:88|304:88|368:120,1,157.5
432,160,14335,1,2
304,168,14629,2,0,B|208:168|208:168|144:200,1,157.5
80,240,15119,1,2
200,256,15413,2,0,B|296:256|296:256|360:288,1,157.5
424,320,15903,1,2
312,264,16198,2,0,B|312:168|312:168|280:104,1,157.5
232,48,16688,1,2
120,112,16982,2,0,B|120:208|120:208|152:272,1,157.5
192,328,17472,1,2
304,264,17766,2,0,B|304:168|304:168|272:104,1,157.5
192,96,18256,6,0,B|136:64|80:96,3,105
24,144,19041,2,6,B|176:168|176:168|152:224|152:224,1,210
128,272,19629,6,0,B|72:272,2,52.5
128,272,20021,1,2
128,272,20217,2,0,B|176:312,4,52.5
128,272,20805,1,2
128,272,21001,2,0,B|120:200,4,52.5
128,272,21589,1,2
128,272,21785,2,0,B|80:320,2,52.5
128,272,22080,1,0
128,272,22178,2,0,B|144:256|144:256|136:224|136:224|184:248|184:248|168:192|168:192|216:208|216:208|208:160|208:160|267:165,1,315
376,168,22962,5,8
424,240,23158,1,0
464,168,23354,1,0
424,96,23550,1,0
336,96,23746,1,8
296,168,23942,1,0
336,240,24138,1,0
128,216,24531,5,8
88,288,24727,1,0
48,216,24923,1,0
88,144,25119,1,0
168,144,25315,1,8
208,216,25511,1,0
168,288,25707,1,0
376,336,26099,6,0,B|376:280,1,52.5,0|0
376,240,26394,2,2,B|400:240|424:232|440:208|456:184|456:160|448:136|432:120|408:112,1,157.5
392,88,26883,6,0,B|336:88,1,52.5
304,88,27178,2,2,B|304:64|296:40|272:24|248:8|224:8|200:16|184:32|176:56,1,157.5
144,56,27668,6,0,B|144:112,1,52.5
144,144,27962,2,2,B|128:136|96:152|80:176|64:200|64:224|72:248|88:264|104:272,1,157.5
128,288,28452,6,0,B|184:288,1,52.5
216,288,28746,2,2,B|216:312|224:336|248:352|272:368|296:368|320:360|336:344|336:328,1,157.5
368,312,29236,6,0,B|368:256,1,52.5
368,224,29531,2,2,B|392:224|416:216|432:192|448:168|448:144|440:120|424:104|408:96,1,157.5
384,80,30021,6,0,B|328:80,1,52.5
288,80,30315,2,2,B|288:104|280:128|256:144|232:160|208:160|184:152|168:136|160:112,1,157.5
112,152,30805,1,2
120,168,30903,1,0
128,184,31001,1,0
136,200,31099,1,0
144,216,31197,5,2
152,232,31295,1,0
160,248,31393,1,0
168,264,31491,1,0
176,280,31589,6,2,B|200:264|200:264|224:248|224:248|216:216|216:216|248:264|248:264|248:200|248:200|280:240|280:240|280:184,1,315,2|2
288,104,32374,6,0,B|168:104,1,105
288,104,32766,1,8
288,104,32962,2,0,B|408:104,2,105
288,184,33550,1,8
288,264,33746,2,0,B|288:328,2,52.5,2|0|0
288,184,34138,1,8
288,104,34334,5,0
288,104,34432,1,0
288,104,34531,1,0
288,104,34629,1,0
288,104,34727,2,2,B|264:104|264:104|288:80|288:80|312:104|312:104|288:128|288:128|256:104|256:104|104:104,1,315
152,176,35511,6,8,B|88:264,1,105,0|0
216,224,35903,6,0,B|184:328,1,105
296,224,36295,6,0,B|328:328,1,105
360,176,36687,6,0,B|424:264,1,105
344,224,37080,6,2,B|376:272,1,52.5
328,264,37276,2,0,B|344:320,1,52.5
304,288,37472,6,2,B|312:344,1,52.5
272,320,37668,2,0,B|280:384,1,52.5
248,328,37864,6,2,B|232:392,1,52.5
208,344,38060,2,0,B|168:392,1,52.5
160,344,38256,6,2,B|112:376,1,52.5
120,328,38452,2,0,B|64:344,1,52.5
88,304,38648,6,4,B|32:296,1,52.5
64,216,38942,1,6
96,96,39236,5,2
112,96,39334,1,2
128,104,39433,1,2
144,112,39531,1,2
160,128,39629,1,0
176,144,39727,1,2
184,160,39825,1,2
192,176,39923,1,2
200,192,40021,1,6
264,256,40217,6,4,B|232:320,1,52.5
320,272,40511,1,6
416,216,40805,1,2
417,195,40903,1,2
418,174,41001,1,2
418,153,41099,1,2
418,132,41197,1,2
397,136,41295,1,2
378,144,41393,1,2
359,153,41491,1,2
340,163,41589,1,6
264,88,41785,6,4,B|192:64,1,52.5
136,40,42080,1,6
80,160,42374,1,2
91,177,42472,1,2
104,192,42570,1,2
124,185,42668,1,2
143,177,42766,1,2
153,195,42864,1,2
163,213,42962,1,2
183,209,43060,1,2
203,207,43158,1,6
256,328,43354,6,4,B|328:296,1,52.5
376,240,43649,1,6
424,128,43943,1,2
424,128,44040,1,2
424,128,44138,1,2
424,128,44236,1,2
424,128,44334,2,2,B|472:96,4,52.5,2|2|2|2|6
360,72,44923,5,0
240,40,45217,1,0
120,88,45511,1,0
56,200,45805,1,0
120,304,46099,1,0
240,344,46393,1,0
360,296,46687,1,0
448,200,46982,1,0
360,96,47276,5,2
256,56,47472,1,0
152,96,47668,1,2
256,144,47864,1,0
256,232,48060,6,2,B|256:312,1,78.75
336,312,48844,5,2
416,288,49040,1,2
360,232,49236,2,2,B|392:200,3,35
344,136,49628,6,2,B|320:96,1,26.25
330,113,50020,2,2,B|296:152,1,26.25
312,132,50412,6,0,B|193:132,1,105
136,88,50804,1,2
64,136,51000,1,2
136,176,51196,1,2
64,216,51392,1,2
136,264,51588,2,2,B|104:296,3,35,2|2|2|2
160,344,51980,6,2,B|193:320,1,26.25,2|2
181,328,52372,2,2,B|225:356,1,26.25
203,342,52764,6,0,B|320:344|464:344,1,210,0|8
400,176,53548,2,0,B|336:176|336:176|176:176,1,210,0|8
48,272,54332,2,0,B|48:56,1,210,0|8
216,80,55116,2,0,B|216:296,1,210,0|8
256,192,55900,12,0,56684
192,168,57468,5,2
200,184,57566,1,2
216,200,57664,1,2
232,208,57762,1,2
248,208,57860,1,2
264,208,57958,1,2
280,200,58056,1,2
296,184,58154,1,2
304,168,58252,1,6
256,192,59036,12,4,59820
256,192,60604,12,4,61388
448,96,62173,6,8,B|448:112|440:120|424:128|408:128,1,78.75
384,128,62565,5,8
360,192,62859,5,8
360,192,62957,5,8
304,232,63251,5,8
304,232,63349,5,8
192,288,63741,5,2
184,280,63839,1,2
176,272,63937,1,2
168,264,64035,1,2
160,256,64133,1,2
152,248,64231,1,2
144,240,64329,1,2
256,192,64427,12,6,64918
256,352,77859,6,6,B|512:168|232:24,1,420
200,160,79819,1,2
184,168,79917,1,2
176,184,80015,1,2
184,200,80113,1,2
200,208,80211,1,6
296,248,80604,5,4
264,184,80996,1,0
296,120,81388,2,4,B|384:72|384:72|488:128,1,210
448,192,82564,6,0,B|336:192,1,105,0|2
328,192,83055,1,2
312,192,83153,1,2
296,192,83251,1,2
280,192,83349,1,6
144,224,84133,6,6,B|88:176|136:136|144:136,1,105
170,184,85701,2,6,B|192:184|248:184|328:184,1,157.5
328,184,87270,2,6,B|376:120,1,52.5,6|2
408,184,87858,1,2
360,224,88054,1,2
192,192,88446,1,0
256,192,88838,12,0,92564
214,235,93348,6,2,B|438:99,1,236.25,2|0
416,112,95211,5,0
456,184,95407,2,2,B|456:320|456:320|432:320,1,157.5
352,320,95897,1,0
352,320,95995,1,0
320,240,96191,2,2,B|320:105|320:105|298:105,1,157.5
216,104,96681,1,0
216,104,96779,1,0
184,184,96975,2,2,B|184:320|184:320|160:320,1,157.5
80,320,97465,1,0
80,320,97563,1,0
56,240,97760,2,2,B|56:104|56:104|80:104,1,157.5
160,104,98250,1,0
160,104,98348,1,0
240,128,98544,2,2,B|336:128|336:128|304:184,1,157.5
264,248,99034,1,0
264,248,99132,1,0
184,216,99328,2,2,B|88:216|88:216|120:272,1,157.5
168,336,99818,5,0
184,336,99916,1,0
200,336,100014,1,0
216,336,100112,1,0
232,336,100211,1,0
248,336,100309,1,0
264,336,100407,1,0
280,336,100505,1,0
296,336,100603,6,2,B|352:336|352:336|416:304|416:304|416:248|416:248|352:216|352:216|248:216,1,315
280,200,101289,1,0
264,184,101387,1,0
200,120,101583,1,8
88,56,101779,1,0
88,56,101877,1,0
88,56,101975,2,0,B|64:24,2,26.25
88,160,102367,1,8
88,256,102563,1,0
88,256,102661,1,0
88,256,102759,2,0,B|64:280,2,26.25,0|0|0
184,256,103151,1,8
264,256,103347,1,0
280,256,103445,1,0
296,256,103543,1,0
312,256,103641,1,0
342,257,103739,6,2,B|342:239|342:238|342:238|360:231|360:231|328:226|327:226|327:226|360:217|360:217|327:211|327:211|360:203|360:203|326:196|327:196|327:196|361:190|361:190|325:182|325:182|361:176|361:177|361:177|326:168|326:168|361:163|361:162|361:162|325:157|325:157|362:149|362:149|325:143|325:143|360:136|360:137|360:137|326:129|326:129|361:124|361:125|360:124|360:124|324:114|324:114|361:110|361:110|322:98|322:98|361:92|361:92|322:84|322:84|361:79|361:79,1,630
256,112,104524,6,2,B|280:56,1,52.5,6|2
224,96,104720,2,2,B|216:24,1,52.5
184,104,104916,2,2,B|152:40,1,52.5
160,128,105112,2,2,B|104:80,1,52.5
144,152,105308,2,2,B|72:136,1,52.5
136,184,105504,2,2,B|64:200,1,52.5
152,216,105700,2,2,B|104:256,1,52.5
184,240,105896,2,2,B|160:296,1,52.5,2|2
216,256,106092,6,2,B|210:317,1,52.5,6|2
248,256,106288,2,2,B|256:312,1,52.5
280,232,106484,2,2,B|304:288,1,52.5
304,208,106680,2,2,B|352:248,1,52.5
328,176,106876,2,2,B|384:192,1,52.5
320,136,107073,2,2,B|384:128,1,52.5
304,112,107269,2,2,B|344:72,1,52.5
272,96,107465,2,2,B|296:32,1,52.5,2|2
232,64,107661,6,2,B|192:56|192:56|136:96|136:96|144:152,1,157.5,6|2
232,160,108249,1,2
240,168,108347,1,2
248,176,108445,1,2
256,184,108543,1,2
264,192,108641,1,2
256,208,108739,1,2
248,224,108837,1,2
240,240,108935,1,2
232,256,109033,1,6
168,312,109229,6,6,B|48:320|104:184,1,157.5
176,232,109818,1,2
184,216,109916,1,2
192,200,110014,1,2
200,184,110112,1,2
208,168,110210,1,2
200,152,110308,1,2
192,136,110406,1,2
184,120,110504,1,2
176,104,110602,1,6
256,120,110798,6,6,B|256:88|256:88|240:40|240:40|152:16,1,157.5
80,24,111386,1,2
72,40,111484,1,2
64,56,111582,1,2
56,72,111680,1,2
48,88,111778,1,2
40,104,111876,1,2
32,120,111974,1,2
24,136,112073,1,2
16,152,112171,1,6
64,248,112367,6,2,B|72:232|72:232|80:248|80:248|88:232|88:232|96:248|96:248|104:232|104:232|112:248|112:248|120:232|120:232|128:248|128:248|136:232,1,157.5
240,224,112955,1,2
248,240,113053,1,2
264,248,113151,1,2
280,240,113249,1,2
296,224,113347,1,2
296,208,113445,1,2
288,192,113543,1,2
280,176,113641,1,2
280,160,113739,1,6
336,120,113935,5,4
96,192,114229,1,4
336,264,114523,5,4
256,56,114818,1,4
176,264,115112,5,4
416,192,115406,1,4
176,120,115700,5,4
256,344,115994,1,4
328,120,116288,5,2
176,264,116484,5,2
176,120,116680,5,2
328,264,116876,5,2
256,192,116974,12,0,117465
160,288,122171,6,4,B|384:288,1,210
416,120,123347,6,2,B|448:184,1,52.5
400,184,124131,2,2,B|344:168,1,52.5
304,176,124915,1,2
264,184,125307,1,2
248,144,125699,2,2,B|192:128,1,52.5
192,168,126484,1,2
152,184,126876,1,2
128,152,127268,1,2
152,120,127661,6,6,B|56:120|56:120|56:296|56:296|56:200|56:200|112:200,1,420
255,200,129229,6,6,B|203:200|203:200|203:296|203:296|203:120|203:120|299:120,1,420
456,120,130798,6,6,B|360:120|360:120|360:296|360:296|360:200|360:200|416:200,1,420
256,192,132759,12,0,134327
