osu file format v5

[General]
AudioFilename: bubbles - F.mp3
AudioLeadIn: 0
PreviewTime: 30989
Countdown: 1
SampleSet: Normal
StackLeniency: 0.7
Mode: 0
LetterboxInBreaks: 1

[Metadata]
Title:F
Artist:bubbles
Creator:tobebuta
Version:Hard
Source:
Tags:

[Difficulty]
HPDrainRate:6
CircleSize:4
OverallDifficulty:5
SliderMultiplier:1.4
SliderTickRate:2

[Events]
//Background and Video events
0,0,"FFFFFF.jpg"
//Break Periods
2,65106,76527
2,92752,93639
2,118442,120599
2,131394,131432
//Storyboard Layer 0 (Background)
//Storyboard Layer 1 (Failing)
//Storyboard Layer 2 (Passing)
//Storyboard Layer 3 (Foreground)
//Storyboard Sound Samples
//Background Colour Transformations
3,100,0,0,0

[TimingPoints]
13551,392.156862745098,4,1,0,83,1
48256,-100,4,2,0,83,0
52765,784.313725490196,4,2,0,83,1
80608,-100,4,1,0,83,0
84137,784.313725490196,4,2,0,83,0
95117,392.156862745098,4,1,0,83,1
108254,-100,4,2,0,83,0
109234,392.156862745098,4,1,0,83,0
109822,392.156862745098,4,2,0,83,0
110802,392.156862745098,4,1,0,83,0
111390,392.156862745098,4,2,0,83,0
112370,392.156862745098,4,1,0,83,0
112958,392.156862745098,4,2,0,83,0
113938,392.156862745098,4,1,0,90,1
123352,784.313725490196,4,2,0,88,1
127665,261.437908496732,4,1,0,83,1

[Colours]
Combo1 : 128,128,0
Combo2 : 0,128,128
Combo3 : 0,64,128
Combo4 : 64,0,64

[HitObjects]
192,56,13551,5,2
272,56,13844,2,0,B|344:56|344:56|368:96|376:104,1,105
384,136,14335,1,2
296,136,14629,2,0,B|224:136|224:136|200:176|192:184,1,105
184,216,15119,1,2
264,216,15413,2,0,B|336:216|336:216|360:256|368:264,1,105
376,296,15903,1,2
296,336,16198,2,0,B|224:336|224:336|200:296|192:288,1,105
176,256,16688,1,2
136,184,16982,2,0,B|136:112|136:112|176:88|184:80,1,105
208,64,17472,1,2
280,152,17766,2,0,B|352:152|352:152|376:112|384:104,1,105
408,136,18256,5,2
440,176,18452,1,0
400,216,18649,1,0
440,256,18845,1,0
400,296,19041,6,0,B|304:296|304:296|272:232,1,140
288,208,19629,6,0,B|288:120|288:112,1,70
288,88,20021,1,2
288,88,20217,2,0,B|376:88|384:88|360:96,2,70
232,88,20805,1,2
176,88,21001,2,0,B|88:88,2,70
232,88,21590,1,2
232,144,21786,2,0,B|232:248,1,70
232,272,22178,6,2,B|136:272|136:272|136:128,1,210
136,104,22962,5,2
136,104,23158,1,0
136,104,23354,1,2
216,176,23747,2,2,B|312:176|320:176,2,70
304,248,24531,1,2
304,248,24727,1,0
344,280,24923,1,2
344,280,25119,1,0
384,312,25315,2,2,B|456:312|464:312,2,70
256,192,26100,5,2
256,192,26394,2,0,B|264:80|184:120,1,105
256,192,26884,1,2
256,192,27178,2,0,B|368:200|328:120,1,105
256,192,27668,1,2
256,192,27962,2,0,B|248:304|328:264,1,105
256,192,28452,1,2
256,192,28747,2,0,B|144:184|184:264,1,105
256,192,29237,1,2
256,192,29531,2,0,B|264:80|184:120,1,105
256,192,30021,1,2
256,192,30315,2,0,B|248:304|328:264,1,105
256,192,30805,12,0,31982
328,112,32177,6,0,B|368:192|368:200,1,70
384,224,32570,1,0
336,248,32766,2,2,B|376:336|384:336,2,70
312,200,33354,1,0
264,232,33550,2,2,B|304:320|312:320,2,70
240,176,34139,1,0
192,200,34335,2,0,B|208:232|208:240,3,35
208,232,34727,6,2,B|152:336|152:336|272:336|272:336,1,210,0|0
296,336,35511,5,2
352,336,35707,1,0
408,336,35903,1,2
464,336,36100,1,0
432,288,36296,2,2,B|264:288|280:288,1,140
344,192,37080,5,2
288,192,37276,1,0
232,192,37472,1,2
288,96,37864,2,2,B|392:96|384:96,2,70
176,104,38649,6,4,B|88:184,1,105
256,192,39040,12,0,40020
392,296,40217,6,4,B|416:192,1,105
256,192,40608,12,0,41589
80,328,41786,6,4,B|216:304,1,105
256,192,42177,12,0,43157
400,56,43353,6,4,B|432:176|432:184,1,105
256,192,43746,12,0,44726
152,104,44921,6,4,B|181:144|181:144|149:192|141:200,1,105
222,277,45509,2,4,B|190:237|190:237|222:189|230:181,1,105
284,104,46097,2,4,B|316:152|316:152|284:200|276:208,1,105
365,279,46685,2,4,B|333:239|333:239|365:191|373:183,1,105
392,96,47276,5,2
328,64,47472,1,4
256,56,47668,1,2
184,64,47864,1,4
120,88,48060,1,2
96,136,48256,6,2,B|56:152|64:192|96:216,1,70
128,192,48649,2,2,B|88:208|96:248|128:272,1,70
160,240,49041,1,2
216,256,49237,2,2,B|208:280|208:288,3,23.3333333333333
152,296,49629,6,2,B|152:336|208:328,1,70,14|2
256,328,50021,2,14,B|338:328|346:328,1,70,14|2
384,328,50413,2,2,B|424:328|416:272,1,70,14|2
368,248,50805,6,2,B|408:232|400:192|368:168,1,70
336,200,51198,2,2,B|376:184|368:144|336:120,1,70
304,120,51590,2,2,B|312:96|312:88,3,23.3333333333333
256,88,51982,6,6,B|256:168|256:176,1,70
200,160,52374,6,6,B|200:72|200:64,1,70
104,160,52765,6,2,B|64:224|104:296,1,140,0|0
256,240,53941,5,10
416,288,54333,6,2,B|456:224|416:152,1,140,0|0
256,192,55510,5,10
320,80,55902,6,2,B|256:40|184:80,1,140,0|0
256,192,57078,1,10
208,216,57470,5,4
224,272,57863,1,4
280,272,58255,1,4
296,216,58647,1,4
256,192,59039,12,4,60215
256,192,60608,12,4,61785
256,192,62176,12,4,63352
224,152,63745,5,2
288,152,63941,1,2
256,192,64137,2,6,B|256:224|256:216,2,17.5
256,192,64529,12,6,64921
152,88,77863,6,6,B|-32:200|160:296|168:296,1,280
200,192,79823,2,2,B|160:192,4,17.5,2|2|2|2|2
288,192,80608,5,4
288,192,81000,1,4
288,192,81392,2,4,B|344:112|400:192,1,140
399,192,82568,2,4,B|345:270|289:190,1,140
120,232,84137,6,6,B|16:176|128:128|128:128,1,140
152,184,85706,2,6,B|174:184|230:184|376:184,1,210
432,136,87274,6,2,B|536:192|424:240|424:240,1,140
256,192,88451,1,0
256,192,88843,12,0,92569
256,192,95117,5,2
336,208,95411,2,4,B|355:142|291:126,1,105
240,128,95901,1,2
192,55,96195,2,4,B|132:71|150:136,1,105
168,192,96685,1,2
103,247,96979,2,4,B|118:307|185:288,1,105
240,280,97469,1,2
280,351,97764,2,4,B|340:337|322:270,1,105
296,216,98254,1,2
216,183,98548,2,4,B|224:116|290:139,1,105
344,144,99038,1,2
424,120,99332,2,4,B|431:51|369:48,1,105
256,192,99822,12,2,100607
408,192,101195,6,0,B|384:264,1,70
328,256,101587,1,10
272,256,101783,2,0,B|288:208|288:208|288:208,4,35
216,256,102371,1,10
160,256,102567,2,0,B|144:304|144:312,4,35
104,256,103156,1,8
120,200,103352,1,0
136,144,103548,1,8
136,144,103646,1,0
136,144,103744,2,0,B|280:144,1,140
356,104,104528,6,0,B|447:137,1,70
375,159,104920,1,4
325,186,105117,2,0,B|416:219,2,70
306,133,105705,1,4
259,163,105901,2,0,B|176:132,2,70
216,192,106489,1,4
168,224,106685,1,4
224,240,106881,2,0,B|295:269,1,70
336,232,107273,1,4
396,139,107666,6,2,B|441:72|342:42,1,105
312,112,108254,1,2
256,128,108450,1,2
200,144,108646,1,2
144,160,108842,1,2
145,160,108940,1,2
146,160,109038,1,6
128,208,109234,6,6,B|72:256|128:304,1,105
192,256,109822,1,2
248,264,110018,1,2
304,272,110215,1,2
360,280,110411,1,2
360,280,110509,1,2
360,280,110607,1,6
400,240,110803,6,2,B|449:199|392:151,1,105
320,192,111391,1,2
264,200,111587,1,2
264,200,111685,1,2
264,200,111783,1,6
208,216,111979,1,2
208,216,112077,1,2
208,216,112175,1,6
167,176,112371,6,2,B|111:129|167:81,1,105
232,128,112960,1,2
288,136,113156,1,2
344,144,113352,1,2
344,144,113450,1,2
344,144,113548,1,2
400,152,113744,1,6
368,192,113940,5,4
344,272,114232,1,4
272,320,114526,5,4
200,272,114820,1,4
168,192,115114,5,4
200,112,115408,1,4
272,64,115702,5,4
336,112,115996,1,4
336,195,116290,5,6
272,144,116487,5,6
208,192,116683,5,6
272,240,116879,5,6
256,192,116977,12,4,118257
104,40,122173,6,6,B|256:40,1,140
336,104,123352,6,6,B|256:104,1,70
208,104,124136,1,6
152,104,124528,1,2
152,160,124920,1,6
152,216,125312,1,2
208,216,125704,1,6
264,216,126097,1,2
208,216,126489,1,6
152,240,126881,1,2
152,296,127273,1,6
320,312,127665,6,2,B|416:208|296:112,1,210
200,128,129233,6,2,B|104:232|224:328,1,210
354,174,130802,6,2,B|264:280|176:160,1,210
256,192,132632,12,0,134331
