osu file format v5

[General]
AudioFilename: bubbles - F.mp3
AudioLeadIn: 0
PreviewTime: 30989
Countdown: 1
SampleSet: Normal
StackLeniency: 0.7
Mode: 0
LetterboxInBreaks: 1

[Metadata]
Title:F
Artist:bubbles
Creator:tobebuta
Version:Easy
Source:
Tags:

[Difficulty]
HPDrainRate:2
CircleSize:3
OverallDifficulty:2
SliderMultiplier:0.7
SliderTickRate:2

[Events]
//Background and Video events
0,0,"FFFFFF.jpg"
//Break Periods
2,48260,52381
2,65106,76527
2,92966,93557
2,117274,120613
2,131392,132770
//Storyboard Layer 0 (Background)
//Storyboard Layer 1 (Failing)
//Storyboard Layer 2 (Passing)
//Storyboard Layer 3 (Foreground)
//Storyboard Sound Samples
//Background Colour Transformations
3,100,0,0,0

[TimingPoints]
13551,392.156862745098,4,1,0,83,1
52766,-100,4,2,0,83,0
80608,-100,4,1,0,83,0
84137,784.313725490196,4,2,0,83,0
95117,-100,4,1,0,83,0
113938,-100,4,1,0,90,0
123349,-100,4,2,0,100,0
127663,-100,4,1,0,100,0

[Colours]
Combo1 : 128,128,0
Combo2 : 0,128,128
Combo3 : 0,64,128
Combo4 : 64,0,64

[HitObjects]
88,112,13551,5,0
144,208,14335,1,0
200,112,15119,1,0
256,208,15903,1,0
312,112,16688,1,0
368,208,17472,1,0
416,104,18256,1,2
416,104,18649,1,2
416,104,19041,1,2
416,280,19825,5,0
416,280,20217,1,0
360,280,20609,1,0
360,280,21001,1,0
304,280,21394,1,0
304,280,21786,1,0
248,280,22178,2,2,B|176:280|176:280|176:200|176:208,1,140
264,120,23747,5,0
376,120,24531,1,0
320,216,25315,2,2,B|320:264|320:256,2,35
256,192,26100,5,0
200,96,26884,1,0
144,192,27668,1,0
200,288,28452,1,0
312,288,29237,1,0
368,192,30021,1,0
312,96,30805,1,2
284,145,31198,1,2
256,192,31590,1,2
348,255,32374,6,0,B|397:256|431:256|431:256,1,70,0|8
410,200,33158,2,0,B|410:128,1,70,0|8
355,144,33943,2,0,B|272:144,1,70,0|8
303,196,34727,2,0,B|303:276|303:276|305:277,1,70,0|8
248,288,35511,2,2,B|176:288|176:288|176:136,1,210
216,112,37080,1,0
256,152,37472,1,0
296,112,37864,1,0
336,152,38256,1,4
388,172,38649,6,0,B|358:280|226:289,1,210,4|0
187,254,40217,6,0,B|314:246|344:138,1,210,4|0
296,109,41786,6,0,B|266:217|134:226,1,210,4|0
91,194,43354,6,0,B|218:186|248:78,1,210,4|0
304,80,44923,6,0,B|368:88|368:168,1,105
368,256,46100,2,0,B|352:320|280:320,1,105
256,192,47276,2,4,B|216:192,4,35
120,152,52766,6,2,B|168:32|432:32|536:176|448:368|144:360|120:224|120:224,1,700,2|6
224,184,57472,1,2
280,184,57864,1,2
336,184,58256,1,6
440,152,59041,6,2,B|392:32|128:32|24:176|112:368|416:360|440:224|440:224,1,700,2|6
328,192,63747,2,2,B|280:192,4,35
384,192,64923,1,6
160,128,77864,6,6,B|208:72|208:72|256:112|256:112|304:72|304:72|360:136|360:136,1,280
304,296,80609,2,0,B|256:248|256:248|200:304,1,140
256,192,82178,1,4
256,192,82570,1,4
256,64,84139,5,4
312,160,84923,1,4
200,160,85707,1,6
336,256,86884,1,2
288,288,87276,1,2
232,288,87668,1,2
192,248,88060,1,2
256,192,88845,12,4,92766
88,104,95117,6,0,B|88:160,1,52.5
152,143,95901,2,0,B|152:140|152:140|152:196,1,52.5
216,176,96685,2,0,B|216:240,1,52.5
280,255,97469,2,0,B|280:200|280:203,1,52.5
344,224,98254,2,0,B|344:172,1,52.5
408,192,99038,2,0,B|408:140,1,52.5
352,96,99822,1,2
296,96,100215,1,2
240,96,100607,1,6
160,168,101391,5,0
208,264,102175,1,0
320,264,102960,1,0
376,168,103744,1,0
264,160,104528,6,2,B|208:120|160:160|160:160|160:160,2,105
264,216,106097,6,2,B|320:256|368:216|368:216|368:216,2,105
248,160,107666,6,4,B|192:80|112:192|192:304|256:216,1,245
248,224,109234,6,4,B|304:304|384:192|304:80|240:168,1,245
248,160,110803,6,4,B|192:80|112:192|192:304|256:216,1,245
248,224,112371,6,4,B|304:304|384:192|304:80|240:168,1,245
248,160,113938,2,4,B|128:160,3,105,0|0|0|0
144,240,116290,2,6,B|144:280|144:280|144:280,4,35
112,120,122173,6,4,B|192:120,1,70
176,232,123349,5,2
176,232,123741,1,2
232,232,124134,1,2
232,232,124526,1,2
288,232,124918,1,2
288,232,125310,1,2
344,232,125702,1,2
344,232,126094,1,2
400,232,126487,1,2
400,232,126879,1,2
456,232,127271,1,2
424,184,127663,6,6,B|360:128,1,70
216,71,129232,2,6,B|170:124,1,70
160,288,130800,2,6,B|216:330,1,70
256,192,134330,5,0
