osu file format v9

[General]
AudioFilename: Mega Man 2 TITLE With Lyrics.mp3
AudioLeadIn: 0
PreviewTime: 44959
Countdown: 3
SampleSet: Soft
StackLeniency: 0.7
Mode: 0
LetterboxInBreaks: 0
SkinPreference:Default

[Editor]
DistanceSpacing: 0.8
BeatDivisor: 6
GridSize: 8

[Metadata]
Title:Mega Man 2 TITLE With Lyrics
Artist:brentalfloss
Creator:rcmero
Version:Easy
Source:YouTube
Tags:brentalfloss mega man title music lyrics

[Difficulty]
HPDrainRate:5
CircleSize:4
OverallDifficulty:5
ApproachRate:5
SliderMultiplier:1.4
SliderTickRate:2

[Events]
//Background and Video events
Video,0,"Mega Man 2 TITLE With Lyrics.avi"
0,0,"Image0.jpg"
//Break Periods
2,65038,75735
//Storyboard Layer 0 (Background)
//Storyboard Layer 1 (Fail)
//Storyboard Layer 2 (Pass)
//Storyboard Layer 3 (Foreground)
//Storyboard Sound Samples
//Background Colour Transformations
3,100,163,162,255

[TimingPoints]
0,967.741935483871,4,2,0,100,1,0
42903,-200,4,2,0,100,0,0
44153,-100,4,1,0,100,0,0

[Colours]
Combo1 : 0,255,255
Combo2 : 0,0,255

[HitObjects]
256,192,5322,1,0
344,144,6290,1,0
160,160,7983,5,0
216,152,8467,1,0
384,144,10161,5,0
328,144,10645,1,0
136,160,12096,1,0
208,152,12822,1,0
328,208,13911,6,0,B|296:272|184:224|152:152|248:72,1,280
192,176,17056,5,0
296,152,17782,1,0
184,168,18870,1,0
322,216,20201,2,0,B|470:45,1,227.5
424,96,22379,5,0
374,121,22862,1,0
184,208,23951,1,0
184,160,24556,1,0
272,184,25282,1,0
184,152,26008,5,0
240,96,26612,1,0
208,176,27459,1,0
296,168,28185,1,0
309,113,28669,2,0,B|474:322,1,262.5
435,296,30846,5,4
227,264,32782,5,0
264,173,33629,1,0
344,200,34596,1,8
144,168,36532,5,0
264,184,37379,1,0
360,216,38225,1,8
264,184,39193,5,0
208,112,39919,1,8
280,152,40887,5,0
192,176,41733,1,8
260,211,43064,6,4,B|318:247,1,70
464,328,44274,5,0
464,328,44395,1,0
464,328,44637,1,0
464,328,44758,1,0
464,328,45000,6,0,B|320:224,1,163.333333333333
120,160,47661,1,0
176,176,48145,1,0
248,192,48750,1,0
320,144,49596,1,4
400,168,50322,6,0,B|424:104|352:72|288:72,1,163.333333333333
128,120,52862,1,0
192,120,53346,1,0
264,152,54072,1,0
80,104,55645,6,0,B|168:80|168:80|248:104,1,163.333333333333
96,104,58185,1,0
152,96,58669,1,0
216,104,59274,1,0
256,192,60120,1,4
176,136,60967,6,0,B|176:48|304:128,1,163.333333333333
144,144,63508,1,0
208,160,64112,1,0
272,192,64838,1,4
256,136,76935,6,0,B|320:72|416:136,1,163.333333333333
384,120,79475,1,0
328,144,80080,1,0
240,168,80806,1,0
168,112,81532,1,4
84,124,82258,6,0,B|3:125|128:145|5:144|131:161|7:172|129:173|9:185|130:185|12:197|129:199|14:210|125:211|17:225|125:222|49:297,1,192.5
191,241,84798,5,0
229,224,85161,1,0
260,156,85806,5,0
290,177,86129,1,0
345,168,86612,1,0
324,115,87096,5,4
361,117,87419,1,4
