osu file format v5

[General]
AudioFilename: Louie Armstrong Sings _Super Mario World_.mp3
AudioLeadIn: 0
PreviewTime: -1
Countdown: 1
SampleSet: Soft
StackLeniency: 0.7
Mode: 0
LetterboxInBreaks: 1

[Metadata]
Title:Louie Armstrong Sings "Super Mario World"
Artist:brentalfloss
Creator:qtip290
Version:mario luigi to
Source:
Tags:

[Difficulty]
HPDrainRate:5
CircleSize:5
OverallDifficulty:5
SliderMultiplier:2.1
SliderTickRate:3

[Events]
//Background and Video events
0,0,"super-mario-world.jpg"
//Break Periods
//Storyboard Layer 0 (Background)
//Storyboard Layer 1 (Failing)
//Storyboard Layer 2 (Passing)
//Storyboard Layer 3 (Foreground)
//Storyboard Sound Samples
//Background Colour Transformations
3,100,163,162,255

[TimingPoints]
15000,832.142857142857,4,2,1,50,1,0

[HitObjects]
128,96,7302,1,0
192,96,8030,2,0,B|216:152|248:280|168:304,1,210
304,112,10423,5,0
344,144,10735,1,0
352,200,11463,2,2,B|336:288|472:360,1,210
96,80,13543,6,4,B|376:80,2,262.5
448,128,16976,2,8,B|184:128,1,236.25
256,192,19680,12,0,22905
160,104,24153,5,0
232,104,24569,1,0
304,168,25297,1,0
376,208,25817,2,0,B|280:256|168:248|88:200,1,288.75
104,144,27794,6,0,B|208:96|296:104|328:128,1,210
336,160,29458,2,0,B|256:240|256:360,1,210
208,352,31122,6,0,B|208:264|168:160|112:152,1,210
184,128,33411,5,0
224,160,34035,5,0
240,184,34243,1,0
304,224,35075,1,0
368,208,35907,1,0
352,112,36323,5,0
272,112,36635,2,0,B|208:144|200:152,2,78.75
240,72,39548,5,0
152,72,39860,1,0
64,72,40172,2,0,B|64:216,2,131.25
192,80,42772,2,0,B|232:112|312:208|312:272,2,210
376,88,45269,5,0
344,144,46101,1,0
272,128,46725,1,0
152,56,49950,5,0
152,120,50262,1,0
152,184,50574,1,0
152,248,50886,1,0
152,328,51302,1,0
200,368,51718,2,0,B|440:200|416:176,1,288.75
360,168,53694,6,0,B|320:112|256:64|184:56,1,210
112,120,55358,2,0,B|104:168|256:280,1,210
312,312,57023,2,0,B|376:240|400:112,1,210
160,64,58687,5,0
248,64,59415,1,0
320,72,60247,1,0
320,72,60455,1,0
336,32,61704,5,0
336,168,62120,1,0
304,208,62744,1,0
144,208,63264,1,0
176,264,65032,5,0
128,232,65448,1,0
112,184,66072,1,0
136,120,66696,1,0
136,120,66904,1,0
208,120,67945,5,0
264,128,68257,1,0
288,152,68569,1,0
336,200,69089,1,0
336,232,69401,1,0
352,264,69609,1,0
288,264,71065,5,0
232,208,71793,1,0
208,176,72313,1,0
128,104,73041,1,0
248,80,74394,5,0
336,160,75122,1,0
368,200,75642,1,0
376,256,76266,1,0
376,256,76578,1,0
256,96,78450,5,0
168,112,79179,2,0,B|112:144|80:232,1,131.25
272,272,81363,2,0,B|416:96,2,210
112,72,85420,5,0
120,152,86252,1,0
112,312,88228,5,0
176,312,88644,1,0
232,312,88852,1,0
328,312,89372,1,0
376,312,89580,1,0
432,320,91661,5,0
424,240,92389,1,0
344,192,92701,1,0
400,136,93325,1,0
312,96,94677,5,0
248,96,95093,1,0
168,112,95509,1,0
176,160,95821,1,0
208,248,97278,5,0
256,224,97590,1,0
328,232,97902,1,0
360,240,98318,1,0
400,192,98630,2,0,B|376:112|256:32,3,210
112,104,102166,5,0
128,144,102687,5,0
160,168,102999,5,0
224,192,103311,1,0
304,144,103727,6,0,B|304:304|304:304|432:304,2,262.5
288,256,106327,1,0
224,264,106639,1,0
176,208,107367,5,0
208,160,107679,1,0
264,144,107991,1,0
320,160,108304,1,0
256,192,108824,12,12,114337
128,176,115273,6,12,B|200:40|200:40|256:176|256:176|312:40|312:40|392:200,1,603.75
128,176,118185,2,12,B|184:280|184:280|256:176|256:176|320:288|320:288|384:168,1,498.75
256,192,122242,12,0,130251
