osu file format v14

[General]
AudioFilename: Grab some ByBy.mp3
AudioLeadIn: 0
PreviewTime: 889
Countdown: 0
SampleSet: Soft
StackLeniency: 0.7
Mode: 0
LetterboxInBreaks: 0
WidescreenStoryboard: 0

[Editor]
DistanceSpacing: 1.1
BeatDivisor: 4
GridSize: 4
TimelineZoom: 1

[Metadata]
Title:Grab Some Sun
TitleUnicode:Grab Some Sun
Artist:bradbreeck
ArtistUnicode:bradbreeck
Creator:ByBy13
Version:Easy
Source:We Bare Bears
Tags:Brad Breeck Daniel Chong e019 panda's sneeze nom-nom cartoon network cn daniel chong wbb grizzly panpan ice bear MkGuh Shmiklak ByBy_ChAn
BeatmapID:961826
BeatmapSetID:432143

[Difficulty]
HPDrainRate:2
CircleSize:3
OverallDifficulty:2
ApproachRate:3
SliderMultiplier:0.9
SliderTickRate:1

[Events]
//Background and Video events
0,0,"NomNom.jpg",0,0
//Break Periods
//Storyboard Layer 0 (Background)
//Storyboard Layer 1 (Fail)
//Storyboard Layer 2 (Pass)
//Storyboard Layer 3 (Foreground)
//Storyboard Sound Samples

[TimingPoints]
889,387.096774193548,4,2,1,40,1,0
19469,-100,4,2,1,40,0,1
31856,-100,4,2,1,40,0,0
50437,-100,4,2,1,5,0,0

[Colours]
Combo1 : 145,0,145
Combo2 : 0,225,0
Combo3 : 148,148,148
Combo4 : 0,61,89

[HitObjects]
19,333,114,5,8,0:0:0:0:
33,235,501,1,8,0:0:0:0:
65,140,889,6,0,P|126:144|164:128,1,90,4|8,0:0|0:0,0:0:0:0:
225,67,1663,2,0,L|321:58,1,90,2|8,0:0|0:0,0:0:0:0:
412,73,2437,2,0,P|423:143|406:217,2,135,2|2|8,0:0|0:0|0:0,0:0:0:0:
311,53,3985,6,0,P|252:70|218:65,1,90,4|8,0:0|0:0,0:0:0:0:
129,37,4759,1,2,0:0:0:0:
80,123,5147,1,8,0:0:0:0:
132,206,5534,2,0,B|201:212|201:212|285:200,2,135,2|2|8,0:0|0:0|0:0,0:0:0:0:
80,123,7082,6,0,P|80:60|64:23,1,90,4|8,0:0|0:0,0:0:0:0:
167,15,7856,2,0,P|208:30|245:66,1,90,2|8,0:0|0:0,0:0:0:0:
314,127,8630,2,0,P|362:119|458:159,2,135,2|2|8,0:0|0:0|0:0,0:0:0:0:
273,217,10179,6,0,L|265:314,2,90,2|8|2,0:0|0:0|0:0,0:0:0:0:
245,121,11340,1,8,0:0:0:0:
179,195,11727,2,0,P|120:198|64:141,2,135,2|2|8,0:0|0:0|0:0,0:0:0:0:
245,121,13276,6,0,P|308:133|336:155,2,90,4|8|2,0:0|0:0|0:0,0:0:0:0:
150,148,14437,1,8,0:0:0:0:
135,245,14824,2,0,L|-13:256,2,135,2|2|8,0:0|0:0|0:0,0:0:0:0:
224,288,16372,5,2,0:0:0:0:
322,300,16759,1,8,0:0:0:0:
400,233,17147,2,0,P|402:183|388:126,1,90,2|8,0:0|0:0,0:0:0:0:
325,73,17921,2,0,L|222:86,1,90,2|8,0:0|0:0,0:0:0:0:
160,148,18695,2,0,L|57:166,1,90,2|8,0:0|0:0,0:0:0:0:
21,249,19469,6,0,P|89:278|195:239,1,180,4|2,0:0|0:0,0:0:0:0:
243,166,20630,1,8,0:0:0:0:
321,227,21018,2,0,L|475:234,2,135,2|2|8,0:0|0:0|0:0,0:0:0:0:
243,166,22566,6,0,P|240:116|254:76,1,90,4|8,0:0|0:0,0:0:0:0:
161,40,23340,2,0,P|110:48|61:35,1,90,2|8,0:0|0:0,0:0:0:0:
20,124,24114,2,0,P|36:200|21:262,2,135,2|2|8,0:0|0:0|0:0,0:0:0:0:
118,141,25663,6,0,P|171:162|282:105,1,180,4|2,0:0|0:0,0:0:0:0:
302,17,26824,1,8,0:0:0:0:
369,89,27211,2,0,L|403:191,1,90,2|8,0:0|0:0,0:0:0:0:
390,273,27985,2,0,P|333:269|287:278,1,90,2|8,0:0|0:0,0:0:0:0:
220,331,28759,6,0,L|116:317,2,90,4|8|0,0:0|0:0|0:0,0:0:0:0:
300,274,29921,1,2,0:0:0:0:
360,195,30308,2,0,B|370:112|370:112|346:61,2,135,2|2|8,0:0|0:0|0:0,0:0:0:0:
300,274,31856,6,0,L|206:288,1,90,4|8,0:0|0:0,0:0:0:0:
122,242,32630,2,0,P|115:179|130:145,1,90,2|8,0:0|0:0,0:0:0:0:
211,109,33405,2,0,B|298:127|298:127|359:106,2,135,2|2|8,0:0|0:0|0:0,0:0:0:0:
120,70,34953,6,0,P|51:63|23:70,2,90,4|8|2,0:0|0:0|0:0,0:0:0:0:
211,109,36114,1,8,0:0:0:0:
146,184,36501,2,0,P|132:273|146:329,2,135,2|2|8,0:0|0:0|0:0,0:0:0:0:
244,195,38050,6,0,P|276:175|303:126,1,90,4|8,0:0|0:0,0:0:0:0:
395,98,38824,2,0,P|411:151|408:201,1,90,2|8,0:0|0:0,0:0:0:0:
360,270,39598,2,0,P|298:268|228:311,2,135,2|2|8,0:0|0:0|0:0,0:0:0:0:
450,229,41147,6,0,L|439:123,1,90,4|8,0:0|0:0,0:0:0:0:
357,86,41921,2,0,P|328:120|290:143,1,90,2|8,0:0|0:0,0:0:0:0:
204,193,42695,2,0,P|193:255|207:338,2,135,2|2|8,0:0|0:0|0:0,0:0:0:0:
166,101,44243,6,0,P|120:108|70:132,2,90,4|8|2,0:0|0:0|0:0,0:0:0:0:
264,92,45405,1,8,0:0:0:0:
348,142,45792,2,0,P|282:187|217:177,2,135,2|2|8,0:0|0:0|0:0,0:0:0:0:
429,198,47340,6,0,L|425:295,1,90,2|8,0:0|0:0,0:0:0:0:
354,357,48114,2,0,P|300:349|255:356,1,90,2|8,0:0|0:0,0:0:0:0:
256,192,48888,12,4,50437,0:3:0:0:
