osu file format v14

[General]
AudioFilename: lain wings.mp3
AudioLeadIn: 0
PreviewTime: 30851
Countdown: 0
SampleSet: Soft
StackLeniency: 0.7
Mode: 0
LetterboxInBreaks: 0
EpilepsyWarning: 1
WidescreenStoryboard: 1

[Editor]
DistanceSpacing: 1
BeatDivisor: 4
GridSize: 8
TimelineZoom: 2.1

[Metadata]
Title:duvet TV sized
TitleUnicode:duvet TV sized
Artist:boa
ArtistUnicode:boa
Creator:Renumi
Version:nubery's Easy
Source:serial experiments lain
Tags:シリアルエクスペリメンツレイン op opening alternative nubery MkGuh PolkaMocha Mir Bergy
BeatmapID:1107298
BeatmapSetID:466758

[Difficulty]
HPDrainRate:2.1
CircleSize:3
OverallDifficulty:1.9
ApproachRate:3
SliderMultiplier:1.75
SliderTickRate:2

[Events]
//Background and Video events
0,0,"duvet.jpg",0,0
//Break Periods
2,47050,50564
2,57357,58294
//Storyboard Layer 0 (Background)
//Storyboard Layer 1 (Fail)
//Storyboard Layer 2 (Pass)
//Storyboard Layer 3 (Foreground)
//Storyboard Sound Samples

[TimingPoints]
289,644.19153961778,4,2,1,30,1,0
1863,644.19153961778,4,2,1,55,1,0
21027,-100,4,2,1,55,0,0
21832,-100,4,2,1,55,0,0
32784,-100,4,2,1,55,0,1
40192,-100,4,2,4,25,0,0
41078,644.19153961778,4,2,1,55,1,0
41697,644.19153961778,4,2,1,55,1,0
44273,-100,4,2,1,45,0,0
44917,-100,4,2,1,35,0,0
45562,-100,4,2,1,25,0,0
46206,-100,4,2,1,15,0,0
46850,-100,4,2,1,5,0,0
52004,-100,4,2,1,55,0,0
59734,-100,4,2,1,35,0,0
60056,-100,4,2,1,40,0,0
60378,-100,4,2,1,45,0,0
60700,-100,4,2,1,50,0,0
62311,-100,4,2,1,55,0,1
71007,-100,4,2,1,55,0,0
71329,-100,4,2,1,45,0,0
71812,-100,4,2,1,35,0,0
72296,-100,4,2,1,30,0,0
72618,-100,4,2,1,55,0,1
80026,-100,4,2,4,45,0,0
80992,-100,4,2,1,40,0,0
81636,-100,4,2,1,30,0,0
82281,-100,4,2,1,20,0,0
82912,638.297872340426,4,2,1,10,1,0

[Colours]
Combo1 : 139,184,232
Combo2 : 0,47,108

[HitObjects]
85,69,289,6,0,P|192:88|248:56,1,175,0|0,0:0|2:2,0:0:0:0:
334,55,1255,2,0,P|369:81|393:117,1,87.5,0|0,2:2|2:2,0:0:0:0:
352,195,1863,6,0,P|308:193|268:176,1,87.5,6|0,0:0|0:0,0:0:0:0:
187,144,2507,2,0,B|172:190|197:227|197:227|179:303,2,131.25,8|0|0,0:0|0:0|0:0,0:0:0:0:
251,84,3795,2,0,P|308:85|356:111,1,87.5,8|0,0:0|0:0,0:0:0:0:
383,169,4439,6,0,P|363:245|270:268,1,175,0|8,3:0|0:0,0:0:0:0:
237,192,5406,1,0,0:0:0:0:
194,115,5728,2,0,P|126:103|84:127,1,87.5,2|0,0:0|0:0,0:0:0:0:
72,186,6372,2,0,L|78:291,1,87.5,8|0,0:0|0:0,0:0:0:0:
157,312,7016,6,0,P|225:324|267:300,1,87.5,0|0,3:0|0:0,0:0:0:0:
291,247,7660,2,0,P|376:258|408:327,2,131.25,8|0|0,0:0|0:0|0:0,0:0:0:0:
203,236,8949,2,0,L|209:135,1,87.5,8|0,0:0|0:0,0:0:0:0:
172,70,9593,6,0,P|111:66|41:156,1,175,0|8,3:0|0:0,0:0:0:0:
91,218,10559,1,0,0:0:0:0:
175,193,10881,2,0,P|234:223|254:254,1,87.5,2|0,0:0|0:0,0:0:0:0:
280,319,11525,2,0,P|331:318|374:288,1,87.5,8|0,0:0|0:0,0:0:0:0:
360,212,12170,6,0,P|390:153|421:133,1,87.5,0|0,3:0|0:0,0:0:0:0:
489,115,12814,2,0,P|440:61|352:72,2,131.25,8|0|0,0:0|0:0|0:0,0:0:0:0:
483,203,14102,2,0,P|431:242|402:245,1,87.5,8|0,0:0|0:0,0:0:0:0:
336,201,14746,6,0,P|244:192|194:268,1,175,0|8,3:0|0:0,0:0:0:0:
283,271,15713,1,0,0:0:0:0:
230,340,16035,2,0,P|175:342|136:320,1,87.5,2|0,0:0|0:0,0:0:0:0:
111,246,16679,2,0,P|136:197|175:174,1,87.5,8|0,0:0|0:0,0:0:0:0:
251,193,17323,6,0,P|280:239|280:284,1,87.5,0|0,3:0|0:0,0:0:0:0:
248,351,17967,2,0,P|196:362|105:315,2,131.25,8|0|0,0:0|0:0|0:0,0:0:0:0:
322,303,19256,2,0,L|326:176,1,87.5,8|0,0:0|0:0,0:0:0:0:
409,195,19900,6,0,L|398:74,1,87.5,0|0,3:0|0:0,0:0:0:0:
329,57,20544,2,0,B|227:51|227:51|234:100,1,131.25,8|10,0:0|0:0,0:0:0:0:
291,143,21349,6,0,B|295:171|295:171|193:165,1,131.25,10|8,0:0|0:0,0:0:0:0:
155,244,22155,1,2,0:0:0:0:
99,176,22477,6,0,L|89:60,2,87.5,4|0|8,0:0|0:0|0:0,0:0:0:0:
68,257,23443,1,0,0:0:0:0:
126,322,23765,2,0,P|207:356|285:296,1,175,2|8,0:0|0:0,0:0:0:0:
323,240,24731,1,0,0:0:0:0:
361,318,25053,6,0,B|418:289|408:220|408:220|441:223|464:208,1,175,0|8,3:0|0:0,0:0:0:0:
419,133,26020,1,0,0:0:0:0:
334,156,26342,2,0,P|271:159|241:141,1,87.5,2|0,0:0|0:0,0:0:0:0:
188,86,26986,2,0,P|119:79|88:89,1,87.5,8|0,0:0|0:0,0:0:0:0:
63,161,27630,6,0,P|101:218|129:235,1,87.5,0|0,3:0|0:0,0:0:0:0:
201,212,28274,2,0,P|241:243|253:321,2,131.25,8|0|0,0:0|0:0|0:0,0:0:0:0:
170,294,29563,2,0,P|131:312|77:305,1,87.5,8|0,0:0|0:0,0:0:0:0:
35,238,30207,6,0,L|19:139,1,87.5,0|0,3:0|0:0,0:0:0:0:
85,92,30851,1,8,0:0:0:0:
168,117,31173,2,0,B|221:131|221:131|363:93,2,175,2|2|2,0:0|0:0|0:0,0:0:0:0:
168,204,32784,6,0,B|221:218|221:218|283:201|283:201|357:216,1,175,4|8,0:0|0:0,0:0:0:0:
402,271,33750,1,0,0:0:0:0:
471,219,34072,2,0,L|490:111,1,87.5,2|0,0:0|0:0,0:0:0:0:
411,86,34716,1,8,0:0:0:0:
337,133,35038,6,0,B|287:134|252:106|252:106|242:153|195:182,1,175,6|0,0:0|0:0,0:0:0:0:
276,227,36005,2,0,P|229:257|178:255,1,87.5,8|0,0:0|0:0,0:0:0:0:
128,208,36649,2,0,P|124:153|150:109,2,87.5,2|0|8,0:0|3:0|0:0,0:0:0:0:
206,174,37615,1,2,0:0:0:0:
274,227,37937,6,0,B|334:251|334:251|439:208,1,175,4|8,0:0|0:0,0:0:0:0:
395,133,38904,1,0,0:0:0:0:
315,95,39226,2,0,P|252:91|209:109,2,87.5,8|8|0,0:0|0:0|0:0,0:0:0:0:
395,133,40192,5,4,3:0:0:0:
256,192,41697,12,2,46850,0:0:0:0:
419,299,52004,6,0,L|331:299,1,87.5,4|4,0:0|0:1,0:0:0:0:
244,298,52648,1,8,0:0:0:0:
244,123,53292,2,0,L|244:13,2,87.5,0|0|8,0:0|0:0|0:0,0:0:0:0:
244,298,54580,6,0,L|156:298,1,87.5,2|0,0:0|0:0,0:0:0:0:
69,297,55224,1,8,0:0:0:0:
70,121,55869,2,0,L|70:11,2,87.5,0|2|8,0:0|0:0|0:0,0:0:0:0:
69,297,57157,5,6,0:0:0:0:
394,106,59734,6,0,P|447:108|481:130,2,87.5,2|0|8,0:0|0:0|0:0,0:0:0:0:
342,176,60700,2,0,L|241:160,1,87.5,0|2,0:0|0:0,0:0:0:0:
184,111,61344,1,0,0:0:0:0:
145,189,61666,2,0,L|130:291,1,87.5,8|0,0:0|0:0,0:0:0:0:
78,345,62311,6,0,B|57:150,1,175,6|8,0:0|0:0,0:0:0:0:
114,102,63277,1,0,0:0:0:0:
201,106,63599,2,0,P|264:127|282:150,1,87.5,2|0,0:0|0:0,0:0:0:0:
267,228,64243,1,8,0:0:0:0:
300,308,64565,6,0,P|363:336|467:290,1,175,6|0,0:0|0:0,0:0:0:0:
482,216,65532,2,0,L|471:101,1,87.5,8|0,0:0|0:0,0:0:0:0:
395,89,66176,2,0,L|409:-20,2,87.5,2|0|8,0:0|0:0|0:0,0:0:0:0:
356,167,67142,1,2,0:0:0:0:
298,101,67464,6,0,P|229:93|160:166,1,175,4|8,0:0|0:0,0:0:0:0:
88,214,68430,1,0,0:0:0:0:
120,295,68753,2,0,L|228:287,1,87.5,2|0,0:0|0:0,0:0:0:0:
277,340,69397,1,8,0:0:0:0:
355,301,69719,6,0,P|414:227|380:124,1,175,6|0,0:0|0:0,0:0:0:0:
315,154,70685,1,8,0:0:0:0:
272,77,71007,2,0,P|172:67|97:130,2,175,0|0|0,0:0|3:0|3:0,0:0:0:0:
299,160,72618,6,0,B|287:224|287:224|302:278|302:278|294:336,1,175,6|8,0:0|0:0,0:0:0:0:
214,293,73584,1,0,0:0:0:0:
130,270,73906,2,0,B|128:300|128:300|142:361,2,87.5,2|0|8,0:0|0:0|0:0,0:0:0:0:
157,185,74872,6,0,P|235:136|331:195,1,175,4|0,0:0|0:0,0:0:0:0:
371,224,75839,2,0,P|426:213|459:176,1,87.5,8|0,0:0|0:0,0:0:0:0:
467,108,76483,2,0,L|480:7,2,87.5,2|0|8,0:0|0:0|0:0,0:0:0:0:
380,126,77449,1,2,0:2:0:0:
309,74,77771,6,0,B|256:48|256:48|111:97,1,175,4|8,0:0|0:0,0:0:0:0:
93,155,78738,1,0,0:0:0:0:
136,230,79060,6,0,L|245:194,1,87.5,10|10,0:0|0:0,3:0:0:0:
295,159,79704,1,0,0:0:0:0:
335,236,80026,5,6,0:0:0:0:
256,192,80348,12,0,82912,0:0:0:0:
